#TITLE:6;
#SUBTITLE:D-VOR;
#ARTIST:Dr1010;
#TITLETRANSLIT:;
#SUBTITLETRANSLIT:;
#ARTISTTRANSLIT:;
#CREDIT:;
#BANNER:6-banner.png;
#BACKGROUND:6-bg.png;
#LYRICSPATH:;
#CDTITLE:esm09-cdtitle.png;
#MUSIC:dr1010+dvor6.mp3;
#OFFSET:-0.080;
#SAMPLESTART:32.940;
#SAMPLELENGTH:12.000;
#SELECTABLE:YES;
#BPMS:0.000=95.000,36.000=190.001,268.000=95.000;
#STOPS:;
#BGCHANGES:;
// cache tags:
#FIRSTBEAT:0.000;
#LASTBEAT:284.000;
#SONGFILENAME:Songs/KBU/6 (eastsideman09)/dr1010+dvor6.sm;
#HASMUSIC:1;
#HASBANNER:1;
#MUSICLENGTH:109.975;
// end cache tags

//---------------dance-single - ----------------
#NOTES:
     dance-single:
     :
     Hard:
     11:
     1.000,1.000,1.000,0.018,0.541,664.000,247.000,2.000,0.000,0.000:
0002
0000
0000
0000
0000
0000
0000
0003
,
1010
0000
0001
0000
1000
0000
1010
0000
0101
0101
0101
0000
1001
0000
0010
0000
,
1100
0000
0001
0000
1000
0000
1010
0000
0101
0101
0101
0000
1001
0000
0010
0000
,
1001
0000
0100
0000
0010
0000
1010
0000
0101
0101
0101
0000
1001
0000
0010
0000
,
1100
0000
0001
0000
1000
0000
1010
0000
0101
0101
0101
0000
1001
0000
0010
0000
,
1100
0000
0110
0000
0011
0000
0110
0000
0101
0101
0101
0000
1001
0000
0011
0000
,
1010
0000
0001
0000
1000
0000
1010
0000
0101
0101
0101
0000
1001
0000
0010
0000
,
1100
0000
0110
0000
0011
0000
1100
0000
0101
0101
0101
0000
1001
0000
0011
0000
,
1100
0000
0001
0000
1000
0000
1010
0000
0101
0101
0101
0000
1001
0100
0010
0100
,
1001
1000
0010
0010
0100
0100
1001
0001
,
0010
0100
0010
0010
0101
1000
0100
0010
,
1001
0001
1000
1000
0010
0010
0101
0100
,
0001
1000
0001
0001
1010
0100
1000
0100
,
0011
0010
1000
1000
0001
0001
1100
0100
,
0010
1000
0010
0010
1001
0100
0010
0001
,
1100
0100
0001
0001
1000
1000
0110
0010
,
0100
0000
0001
0000
0100
0000
0100
0000
0011
0000
1000
0001
0100
0000
0010
0000
,
1001
0001
0100
0100
0010
0010
1001
1000
,
0100
0010
0100
0100
1010
0001
0010
0100
,
1001
1000
0001
0001
0100
0100
1010
0010
,
1000
0001
1000
1000
0101
0010
0001
0010
,
1100
0100
0001
0001
1000
1000
0011
0010
,
0100
1000
0100
0100
1001
0010
0100
1000
,
0011
0010
1000
1000
0001
0001
0110
0100
,
0010
0000
1000
0000
0010
0000
0010
0000
1100
0000
0001
1000
0010
0000
0100
0000
,
1001
0010
0100
0000
1010
0000
0001
0010
0100
1000
0100
0000
0011
0000
1000
0000
,
0110
0000
0001
0000
1010
0000
0100
0001
0010
0100
1000
0000
0010
0100
1000
0000
,
0011
0000
1000
0000
0110
0000
1000
0000
0001
0100
0010
0000
1100
0000
0001
0000
,
1010
0100
0011
0100
1001
1001
1010
1010
,
1001
0010
0100
0000
0011
0000
0100
0000
0001
0100
0010
0000
1100
0000
0001
0000
,
1010
0000
0100
0000
0011
0000
1000
0100
0010
0001
1000
0000
0010
0001
1000
0000
,
0100
0001
1000
0000
0011
0000
1000
0100
0011
0000
1000
0000
0110
0000
0001
0000
,
1010
0000
1010
0000
1001
0000
1001
0000
1100
0000
0001
0110
0000
1000
0011
0000
,
1100
0001
1000
0000
0110
0000
0001
0000
1000
0100
0010
0000
0101
0000
1000
0000
,
0011
1000
0001
0000
1010
0000
0100
0000
0001
0010
0100
0000
0010
0100
1000
0000
,
0101
1000
0010
0000
1001
0000
0010
0000
0100
0010
0001
0000
1100
0000
0001
0000
,
1010
0100
0011
1000
0101
0101
0110
0110
,
1001
0100
1000
0100
0010
0001
0010
0001
0100
0010
0100
0010
1000
0001
1000
0001
,
1000
0010
1000
0010
0100
0001
0100
0001
0010
0100
0010
0100
1000
0010
1000
0010
,
0100
0001
0010
0001
0100
0010
1000
0100
1000
0001
0100
0001
1000
0010
0100
0010
,
1000
0100
0010
0001
1000
0010
0100
0001
0010
0001
0100
0010
1000
0100
0010
0001
,
1100
0000
1000
0100
1000
0000
1100
0000
0000
0000
1100
0000
0000
0000
1100
0000
,
1001
0010
0001
1000
0010
0100
0001
1000
,
0011
0000
1000
0100
0011
0000
1100
0000
0011
0000
1000
0110
0000
0001
1100
0000
,
1001
0010
0100
0000
0010
0000
0100
0000
0001
0000
1000
0001
0000
1000
0100
0000
,
0011
0000
0001
0010
0001
0000
0011
0000
0000
0000
0011
0000
0000
0000
0011
0000
,
1001
0100
0010
0001
1000
0010
0100
0001
,
1100
0000
1000
0100
1000
0000
1100
0000
0001
0010
0001
0010
0001
0000
0011
0000
,
1100
0000
0000
0110
0000
0000
0011
0000
1000
0001
1000
0001
1000
0001
1000
0001
,
1200
0000
0000
0000
,
1300
0000
0000
0000
0000
0000
0100
0000
0000
0000
0000
0000
0010
0000
0000
0000
0000
0000
0001
0000
0000
0000
0000
0000
1000
0000
0000
0100
0000
0000
0010
0000
0000
0001
0000
0000
1000
0000
0100
0000
0010
0000
0001
0000
1000
0000
0100
0000
,
0011
0000
0100
0000
1010
0000
0001
0000
1100
0001
1000
0000
0011
0000
0100
0000
,
1001
0000
0100
0000
1010
0000
0001
0000
1010
0001
0100
0000
1001
0100
0010
0000
,
1100
0001
1000
0000
0011
0000
0100
0000
0001
1000
0100
0000
0011
0000
1000
0000
,
0101
0010
1001
0010
1100
1100
0110
0110
,
1001
0000
0100
0000
1010
0000
0001
0000
1100
0001
0010
0000
0101
0000
1000
0000
,
0110
0000
0001
0000
1010
0000
0100
0000
1001
0100
0010
0000
1001
0010
0100
0000
,
1010
0001
1000
0000
0011
0000
1000
0001
0110
0000
1000
0000
0011
0000
0100
0000
,
1001
0000
1001
0000
0101
0000
0101
0000
1100
0000
0001
0110
0000
1000
0011
0000
,
1001
0000
0010
0000
1001
0000
0100
0000
0011
1000
0100
0000
1010
0000
0001
0000
,
1100
0000
0010
0000
1001
0000
0100
0000
0011
1000
0100
0000
0011
0100
1000
0000
,
0101
0000
1000
0000
0110
0000
0001
0000
1010
0001
0100
0000
1001
0000
0010
0000
,
1100
0001
0110
1000
0011
0011
0110
0110
,
1001
0000
0010
0000
1001
0000
0100
0000
0011
1000
0010
0000
1100
0000
0010
0000
,
0101
0000
1000
0000
0110
0000
0001
0000
1100
0001
0010
0000
1100
0010
0001
0000
,
0110
1000
0001
0000
1010
0000
0001
1000
0110
0000
0001
0000
1010
0000
0100
0000
,
0011
1000
0100
0000
1001
0000
0010
0000
1100
0000
0011
0000
0100
0010
0100
0010
,
1100
0000
0110
0000
0011
0000
0110
0000
0101
0101
0101
0000
1001
0000
0011
0000
,
1100
0000
0001
0000
1000
0000
1010
0000
0101
0101
0101
0000
1001
0000
0010
0000
,
1100
0000
0110
0000
0011
0000
1100
0000
0101
0101
0101
0000
1001
0000
0011
0000
,
1100
0000
0001
0000
1000
0000
1010
0000
0101
0101
0101
0000
1001
0100
0010
0001
,
1100
0000
0000
0000
;

//---------------dance-single - ----------------
#NOTES:
     dance-single:
     :
     Challenge:
     12:
     1.000,1.000,1.000,0.018,0.632,684.000,275.000,2.000,0.000,25.000:
0102
0000
0000
0000
,
1013
0000
0001
0000
1000
0000
1010
0000
0101
0101
0101
0000
1001
0000
0010
0000
,
1100
0000
0001
0000
1000
0000
1010
0000
0101
0101
0101
0000
1001
0000
0010
0000
,
1001
0000
0100
0000
0010
0000
1010
0000
0101
0101
0101
0000
1001
0000
0010
0000
,
1100
0000
0001
0000
1000
0000
1010
0000
0101
0101
0101
0000
1001
0000
0010
0000
,
1101
0000
0110
0000
0011
0000
1110
0000
0101
0101
0101
0000
1001
0000
0011
0000
,
1110
0000
0001
0000
1000
0000
1010
0000
0101
0101
0101
0000
1001
0000
0010
0000
,
1101
0000
0110
0000
0011
0000
1110
0000
0101
0101
0101
0000
1001
0000
0011
0000
,
1100
0000
0000
0000
0001
0000
0000
0000
1000
0000
0000
0000
1010
0000
0000
0000
0101
0000
0101
0000
0101
0000
0000
0000
1001
0010
0100
0001
1000
0100
0010
0100
,
1011
1000
0010
0010
0100
0100
1001
0001
,
0010
0100
0010
0010
0101
1000
0100
0010
,
1001
0001
1000
1000
0010
0010
0101
0100
,
0001
1000
0001
0001
1010
0100
1000
0100
,
0011
0010
1000
1000
0001
0001
1100
0100
,
0010
1000
0010
0010
1001
0100
0010
0001
,
1100
0100
0001
0001
1000
1000
0110
0010
,
0100
0000
0001
0000
0100
0000
0100
0000
0011
0000
1000
0001
0100
0000
0010
0000
,
1101
0001
0100
0100
0010
0010
1001
1000
,
0100
0010
0100
0100
1010
0001
0010
0100
,
1001
1000
0001
0001
0100
0100
1010
0010
,
1000
0001
1000
1000
0101
0010
0001
0010
,
1100
0100
0001
0001
1000
1000
0011
0010
,
0100
1000
0100
0100
1001
0010
0100
1000
,
0011
0010
1000
1000
0001
0001
0110
0100
,
1010
0000
1010
0000
0011
0000
0011
0000
1100
0001
0100
0010
1000
0100
0010
0100
,
1011
0100
0001
0000
1010
0000
0001
0010
0100
1000
0100
0000
0011
0000
1000
0000
,
0110
0000
0001
0000
1010
0000
0100
0001
0010
0100
1000
0000
0010
0100
1000
0000
,
0011
0000
1000
0000
0110
0000
1000
0000
0001
0100
0010
0000
1100
0000
0001
0000
,
1010
0000
0100
0000
0011
0000
0100
0000
1001
0000
1001
0100
1010
0000
1010
0000
,
1101
0010
0100
0000
0011
0000
0100
0000
0001
0100
0010
0000
1100
0000
0001
0000
,
1010
0000
0100
0000
0011
0000
1000
0100
0010
0001
1000
0000
0010
0001
1000
0000
,
0100
0001
1000
0000
0011
0000
1000
0100
0011
0000
1000
0000
0110
0000
0001
0000
,
1010
0001
1010
0000
1001
0000
1001
0000
1100
0000
0001
0110
0000
1000
0011
0000
,
1110
0001
1000
0000
0110
0000
0001
0000
1000
0100
0010
0000
0101
0000
1000
0000
,
0011
1000
0001
0000
1010
0000
0100
0000
0001
0010
0100
0000
0010
0100
1000
0000
,
0101
1000
0010
0000
1001
0000
0010
0000
0100
0010
0001
0000
1100
0000
0001
0000
,
1010
0000
0100
0000
0011
0000
1000
0000
0101
0000
0101
1000
0110
0000
0110
0000
,
1011
0100
1000
0100
1010
0001
0010
0001
0100
0010
0100
0010
1100
0001
1000
0001
,
1000
0010
1000
0010
1100
0001
0100
0001
0010
0100
0010
0100
1001
0010
1000
0010
,
0100
0001
0010
0001
1100
0010
1000
0100
1000
0001
0100
0010
0101
0010
0100
0001
,
1000
0001
1000
0010
0101
0010
0100
0001
1010
0001
0100
0010
1000
0001
1000
0001
,
1100
0000
1100
0010
1100
0000
1100
0000
0000
0000
1100
0000
0000
0000
1100
0000
,
1101
0010
0001
1000
0010
0100
0001
1000
,
0011
0000
1100
0010
1100
0000
1010
0000
0101
0000
1000
0110
0000
0001
1100
0000
,
1101
0010
0100
0000
0010
0000
0100
0000
0001
0000
1000
0001
0000
1000
0100
0000
,
0011
0000
0011
0100
0011
0000
0011
0000
0000
0000
0011
0000
0000
0000
0011
0000
,
1011
0100
0010
0001
1000
0010
0100
0001
,
1100
0000
1100
0010
1100
0000
1100
0000
0011
0100
0011
0100
0011
0000
0011
0000
,
1100
0000
0000
0110
0000
0000
0011
0000
1100
0001
1100
0001
1100
0001
1100
0001
,
1210
0000
0000
0000
,
1300
0000
0000
0000
0000
0000
0100
0000
0000
0000
0000
0000
0010
0000
0000
0000
0000
0000
0001
0000
0000
0000
0000
0000
1000
0000
0000
0100
0000
0000
0010
0000
0000
0001
0000
0000
1000
0000
0100
0000
0010
0000
0001
0000
1000
0000
0100
0000
,
1011
0000
0100
0000
1010
0000
0001
0000
1100
0001
1000
0000
0011
0000
0100
0000
,
1001
0000
0100
0000
1010
0000
0001
0000
1010
0001
0100
0000
1001
0100
0010
0000
,
1100
0001
1000
0000
0011
0000
0100
0000
0001
1000
0100
0000
0011
0000
1000
0000
,
0101
0000
0010
0000
1001
0000
0010
0000
1100
0000
1100
0001
0110
0000
0110
0000
,
1011
0000
0100
0000
1010
0000
0001
0000
1100
0001
0010
0000
0101
0000
1000
0000
,
0110
0000
0001
0000
1010
0000
0100
0000
1001
0100
0010
0000
1001
0010
0100
0000
,
1010
0001
1000
0000
0011
0000
1000
0001
0110
0000
1000
0000
0011
0000
0100
0000
,
1001
0000
1001
0000
0101
0000
0101
0000
1100
0000
0001
0110
0000
1000
0011
0000
,
1101
0000
0010
0000
1001
0000
0100
0000
0011
1000
0100
0000
1010
0000
0001
0000
,
1100
0000
0010
0000
1001
0000
0100
0000
0011
1000
0100
0000
0011
0100
1000
0000
,
0101
0000
1000
0000
0110
0000
0001
0000
1010
0001
0100
0000
1001
0000
0010
0000
,
1100
0000
0001
0000
0110
0000
1000
0000
0011
0000
0011
1000
0110
0000
0110
0000
,
1101
0000
0010
0000
1001
0000
0100
0000
0011
1000
0010
0000
1100
0000
0010
0000
,
0101
0000
1000
0000
0110
0000
0001
0000
1100
0001
0010
0000
1100
0010
0001
0000
,
0110
1000
0001
0000
1010
0000
0001
1000
0110
0000
0001
0000
1010
0000
0100
0000
,
0011
1000
0100
0000
1001
0000
0010
0000
1100
0000
0011
0000
1100
0010
0100
0010
,
1101
0000
0110
0000
0011
0000
1110
0000
0101
0101
0101
0000
1001
0000
0011
0000
,
1110
0000
0001
0000
1000
0000
1010
0000
0101
0101
0101
0000
1001
0000
0010
0000
,
1101
0000
0110
0000
0011
0000
1110
0000
0101
0101
0101
0000
1001
0000
0011
0000
,
1100
0000
0000
0000
0000
0000
0000
0000
0001
0000
0000
0000
0000
0000
0000
0000
1000
0000
0000
0000
0000
0000
0000
0000
1010
0000
0000
0000
0000
0000
0000
0000
0101
0000
0000
0000
0101
0000
0000
0000
0101
0000
0000
0000
0000
0000
0000
0000
1001
0000
0010
0000
0100
0000
0010
0000
1000
0100
0010
0001
1000
0100
0010
0001
,
1100
0000
0000
0000
;
