#TITLE:Super Metroid Metal;
#SUBTITLE:Crateria Surface;
#ARTIST:Stemage;
#TITLETRANSLIT:;
#SUBTITLETRANSLIT:;
#ARTISTTRANSLIT:;
#CREDIT:;
#BANNER:banner.gif;
#BACKGROUND:Crateria background.jpg;
#LYRICSPATH:;
#CDTITLE:;
#MUSIC:Crateria Surface.mp3;
#OFFSET:-1.500;
#SAMPLESTART:171.370;
#SAMPLELENGTH:12.000;
#SELECTABLE:YES;
#BPMS:0.000=100.000,21.500=185.001,214.500=195.001,299.000=141.001,306.500=165.001,340.500=141.001,377.000=200.001,491.000=230.001,587.000=200.001,625.000=210.001,636.000=220.001,647.000=230.001,659.000=260.001,670.000=240.001,773.500=315.000,866.000=330.000,889.000=150.001,895.000=125.001;
#STOPS:131.500=0.486
,213.000=0.162
,391.500=0.150
,401.500=0.150
,420.500=0.150
,441.500=0.150
,454.500=0.300
,466.000=0.150
,472.500=0.450
,477.500=0.150
,490.000=0.600
,551.000=0.130
,609.500=0.450
,617.000=0.300
,624.500=0.150
,669.000=0.346
,771.000=0.500
,802.000=0.286
,815.000=0.095
,832.500=0.286
,863.000=0.286
,890.500=0.400
,893.500=0.400
,901.500=0.080
,902.000=0.080
,902.500=0.080
,903.000=0.080
;
#BGCHANGES:0.000=Crateria background.jpg=1.000=0=0=1,
353.000=Crateria.jpg=1.000=1=0=1,
99999=-nosongbg-=1.000=0=0=0 // don't automatically add -songbackground-
;
// cache tags:
#FIRSTBEAT:1.000;
#LASTBEAT:931.500;
#SONGFILENAME:Songs/toune 2011/Crateria Surface/Crateria Surface.sm;
#HASMUSIC:1;
#HASBANNER:1;
#MUSICLENGTH:300.047;
// end cache tags

//---------------dance-single - ----------------
#NOTES:
     dance-single:
     :
     Hard:
     8:
     0.842,1.000,0.663,1.000,0.173,1195.000,199.000,374.000,0.000,0.000:
0000
0000
0000
0000
0000
0000
2002
0000
0000
3003
0000
0000
0010
0000
0000
0100
0001
0000
0100
0000
0000
0000
1000
0000
,
2002
3003
0010
0100
0001
2002
3003
0010
,
0100
0000
0010
0000
1000
0000
2002
0000
0000
3003
0010
0000
0000
0000
1000
0000
0010
0000
0100
0000
0000
2002
0000
0000
,
3003
0000
0010
0000
0100
0000
0001
0000
0010
0000
1000
0000
2002
0000
0000
3003
0010
0000
0100
0000
1000
0000
0010
0000
,
0100
0000
0000
2002
0000
0000
3003
0000
0010
0000
0000
0000
0001
0000
1000
0000
0100
0000
0010
0000
0000
0000
1001
0000
,
1001
0000
0100
0000
0010
0000
0100
0000
0000
1000
0000
0000
1000
0000
0000
1000
0000
0000
1000
0000
0000
1000
0000
0000
,
0002
0003
0010
0001
1001
2200
0000
0000
,
0000
0000
0000
0000
3300
0002
0003
0010
,
0001
0010
0001
0010
0001
2000
3000
0001
,
0220
0000
0000
0000
,
0330
1100
1000
1000
1000
1000
1000
0010
,
0000
0022
0033
0000
2200
0000
0000
0000
,
0000
0000
3300
0020
0030
0001
1000
0001
,
1000
0001
0200
0300
0002
0003
0220
0000
,
0000
0000
0000
0000
0000
0000
0330
1010
,
1000
1000
1000
1000
1000
0010
0002
0003
,
0100
2200
0000
0000
0000
0000
0000
0000
,
0000
3300
0002
0003
0010
0100
0010
0100
,
0010
0100
0002
0003
0220
0000
0000
0000
,
0000
0000
0000
0000
0330
1001
1000
1000
,
1000
1000
0100
0110
0022
0033
2200
0000
,
0000
0000
0000
0000
0000
0000
0000
3300
,
0002
0000
0003
0100
0010
2000
3000
0022
,
0000
0033
2002
0000
0000
0000
0000
0000
,
0000
0000
3003
0001
0010
0100
2000
3000
,
0001
0010
0100
2000
3000
0001
0010
0100
,
2000
3000
0001
0010
0100
2000
3000
0001
,
0010
0100
2000
3000
0001
0010
0100
2000
,
3000
0001
0010
0100
2000
3000
0001
0010
,
0100
2000
3000
0001
0010
0100
2000
3000
,
0001
0010
0100
2000
3000
0001
0010
0100
,
2000
3000
0001
0010
0100
2000
3000
0002
,
0003
1000
0010
0100
0000
0101
0000
2020
,
3030
1000
0100
1000
0010
1000
0001
1000
,
0010
1000
0000
0200
0300
0020
0030
1002
,
0000
0100
0000
0020
0000
0033
2000
3000
,
0010
0000
0001
0010
0100
1000
0100
0010
,
0100
2000
0002
0003
0010
0100
0010
0001
,
0000
0010
0001
0010
0100
0010
0002
0000
,
3000
0000
0203
0300
0020
0030
1002
0000
,
0100
0000
0020
0000
0033
2000
3000
0100
,
0000
0001
0010
0100
1000
0100
0010
2000
,
0002
0003
0010
0100
0010
0001
0010
0100
,
0010
0001
0010
0002
0000
3000
0003
0200
,
0300
0020
0030
1002
0000
0100
0000
0020
,
0000
0033
1000
0002
0003
0200
0300
0001
,
0010
0100
1000
0010
0001
2000
0002
0003
,
0010
0100
0010
0001
0100
0010
0001
0100
,
0010
0002
0000
0000
3000
0003
0200
0300
,
0020
0030
1002
0000
0100
0000
0020
0033
,
0100
0020
0030
0001
0010
0100
2000
3000
,
0010
0002
0003
2000
0002
0003
0100
0010
,
0001
0010
0001
0010
0100
0020
0000
0030
,
0000
0002
3003
0000
0000
2002
3003
0010
,
0010
0000
0100
1000
0202
0303
0020
0000
,
0030
1000
0100
0010
0002
0003
0010
0100
,
1000
0100
0010
0002
0003
0220
0000
0000
,
0000
0000
0000
0000
0330
1000
0100
0010
,
0001
0010
0100
1000
0000
2002
3003
0010
,
0010
0000
0100
1000
0202
0303
0020
0000
,
0030
0002
0003
0010
0100
1000
0200
0300
,
1000
0100
0202
0000
0000
0000
0000
0000
,
0000
0303
0020
0030
1000
0100
0000
0002
,
0003
0010
0100
1000
0000
2002
3003
0010
,
0010
0000
0100
1000
0202
0303
0020
0000
,
0030
0200
0300
1000
0100
0010
0002
0003
,
0010
0100
0220
0000
0000
0000
0000
0000
,
0000
0330
0001
1000
0100
0002
0003
0100
,
1000
0000
0220
0000
0000
0330
2002
3003
,
0010
0010
0000
0100
1000
0202
0303
0020
,
0000
0030
1000
0100
0002
0003
0010
0100
,
1000
0100
0010
0002
0003
0010
0100
2000
,
3000
0100
0010
0002
0003
0010
0100
2020
,
0000
0000
0000
0000
3030
1001
1001
1001
,
1001
0110
0110
0110
0110
0110
2002
3003
,
0100
0100
0010
0010
0100
0010
2002
3003
,
0100
0100
0010
0010
0100
2002
0000
3003
,
0100
0001
0010
0001
0010
2002
0000
3003
,
0020
0030
1000
0100
0010
2002
0000
3003
,
0100
0001
0010
0001
0010
2002
0000
3003
,
0100
0010
0001
0001
0200
0300
2002
0000
,
3003
0100
0001
0010
0100
0020
0030
2002
,
0000
3003
0100
0020
0030
1000
0100
0010
,
2002
0000
3003
0100
0001
0001
1000
0100
,
2002
0000
3003
0100
0010
0002
0003
1000
,
0100
2002
3003
0010
0100
0010
0010
0100
,
2002
3003
0100
0010
0100
0100
0001
2002
,
3003
0010
0100
0010
0010
2002
3003
0100
,
0010
0100
0100
0001
2002
3003
0010
0100
,
0010
1000
0100
0100
0010
0001
1000
2002
,
3003
0100
0001
1000
0010
0100
0100
0010
,
0001
0100
2002
3003
1000
0010
0100
0010
,
1000
1000
0001
0100
0010
2002
3003
0001
,
0010
1000
0100
0010
0010
2002
3003
0100
,
0010
0001
1000
1000
1000
1000
1000
1000
,
1000
1000
0002
0003
0220
0000
0000
0000
,
0000
0000
0000
0000
0000
0330
0000
0101
,
0101
0101
0101
0101
0101
0101
0110
1001
,
0220
0000
0000
0000
,
0330
0000
0000
1010
1000
1000
1000
1000
,
1000
1000
1000
0011
0220
0000
0000
0000
,
0000
0000
0000
0000
0330
1001
0110
1001
,
0110
1001
0110
1001
0202
0000
0000
0303
,
2002
0000
0000
0000
,
3003
1002
1000
1000
1000
1000
1000
1003
,
1000
0110
1100
0220
0000
0000
0000
0000
,
0000
0000
0000
0000
0330
0000
1000
1000
,
0022
0033
0100
0100
1000
0001
0010
0001
,
2002
0000
0000
0000
,
0000
3003
0000
1002
0003
2001
3000
1002
,
0003
0210
0300
0101
2020
0000
0000
0000
,
0000
0000
0000
0000
0000
3030
0001
0001
,
1010
1010
0200
0300
0001
0110
0110
2002
,
0000
0000
0000
3003
,
1000
0100
0010
0002
0003
1000
0100
0010
,
0002
0003
1000
0100
0010
0002
0003
1000
,
0100
0010
0002
0003
2002
0000
3003
0010
,
0010
1100
0002
0003
0110
0110
2020
0000
,
0000
0000
0000
0000
3030
0000
0011
0011
,
0011
0011
0011
1100
0010
0010
2002
0000
,
0000
0000
0000
0000
0000
0000
0000
3003
,
1000
0100
0010
0002
0003
1000
0100
0010
,
0002
0003
1000
0100
2002
3003
0200
0300
,
0020
0030
0002
1000
0000
0100
0000
0020
,
0000
0000
0033
0002
0003
1100
0000
2000
,
3000
0001
0010
0100
0010
0002
0000
0003
,
0010
2000
0000
0002
0003
0010
0100
0010
,
0001
0100
0100
0010
0001
0100
0010
0100
,
0010
0002
0000
0000
0000
3003
0200
0300
,
0020
0030
0002
1000
0000
0100
0000
0020
,
0000
0000
0033
0100
0002
0003
1000
0110
,
0000
1000
0100
0001
0110
0010
0100
2000
,
0000
0000
0002
0003
0100
0010
0001
0010
,
0001
0100
0020
0030
0001
0100
0010
0200
,
0300
0002
0000
0000
0000
3003
0200
0300
,
0020
0030
0002
1000
0000
0100
0000
0020
,
0000
0033
0200
0300
0011
0000
1000
0100
,
0010
1000
0001
0010
0100
0000
0101
2000
,
0000
0002
0003
0100
0010
0001
0001
0200
,
0300
0010
0002
0003
0100
0010
0010
0002
,
0000
0000
3003
0200
0300
0020
0030
0002
,
1000
0000
0100
0000
0020
0000
0000
0033
,
0001
0001
1000
0100
0100
2002
3003
0100
,
1000
0220
0000
0330
0001
2000
0000
0020
,
0030
0001
0100
0010
0002
0003
0100
0010
,
0001
0010
0100
0010
0100
0001
0002
0000
,
0000
0000
0000
0000
3003
0000
1000
0001
,
0010
1000
0200
0300
0001
0000
0001
1000
,
0010
0100
0010
0002
0003
0100
0010
1000
,
0000
1000
0001
0010
0001
0100
0001
1000
,
0001
1000
0010
1000
0100
1000
0001
0010
,
0100
1000
0100
0010
0001
0010
1200
0000
,
0000
0000
0000
0300
0100
0010
2002
0000
,
0000
0000
0000
0000
0000
3003
0001
0010
,
0100
2000
0000
3000
0100
1000
0100
0010
,
0002
0000
0000
0000
,
0003
0000
0000
1001
0000
0000
1000
0000
0100
0000
0010
0000
0001
0000
1000
0000
0100
0000
0010
0000
0001
0000
1000
0000
,
0100
0010
0001
1000
0100
0010
0001
1000
0100
0010
0001
1000
,
0100
0010
0001
1000
0100
0010
0001
1000
0100
0010
0001
0000
,
0001
0010
0100
1000
0001
0010
0100
1000
0001
0010
0100
1000
,
0001
0010
0100
1000
0001
0010
0100
1000
0001
0010
0100
1000
,
0001
0010
0100
1000
0001
0010
0100
1000
0000
1000
0100
0001
,
0010
1000
0100
0001
0010
1000
0100
0001
0010
1000
0100
0001
,
0010
1000
0100
0001
0010
1000
0100
0001
0010
1000
0100
0001
,
0010
1000
0000
0100
1000
0100
0010
0001
0000
1000
0100
0010
,
0001
0010
0100
1000
0100
0010
0001
0010
0100
1000
0100
0010
,
0001
0010
0100
1000
0100
0010
0001
0010
0100
1000
0100
0010
,
0001
0000
0010
0000
0100
0000
1001
0000
0000
0000
0000
0000
2002
0000
0000
0000
0000
0000
3003
0000
0000
0010
0000
0000
,
0000
0010
1000
0100
0002
0003
0010
0000
,
0220
0000
0000
0000
0000
0330
1100
0000
,
0001
0010
0001
0010
0001
1100
0000
0001
,
0010
0001
0010
0001
1100
0000
0001
0010
,
0001
0010
0001
1100
0000
0001
0010
0001
,
0010
0001
1100
0000
0001
0010
0001
2002
,
0000
3003
0010
0000
0010
1000
0100
0002
,
0003
0010
0000
0220
0000
0000
0000
0000
,
0330
0202
0303
0001
0010
0100
2000
0000
,
0001
0010
0001
0010
0001
0000
0000
0001
,
0010
3001
0000
0110
0000
2000
3000
0010
,
0100
0000
2000
3000
0100
0010
0001
0000
,
2002
0000
3003
0010
0000
0010
1000
0100
,
0002
0003
0010
0000
0220
0000
0000
0000
,
0000
0330
2020
3030
1000
0100
0010
0002
,
0000
1000
0100
1000
0100
1000
0000
0000
,
1000
0100
1000
0003
0110
0000
0002
0003
,
0010
0000
0202
0303
0001
0010
0100
1000
,
0000
2002
0000
3003
0010
0000
0010
1000
,
0100
0002
0003
0010
0000
0220
0000
0000
,
0000
0000
0330
0010
0002
0003
0110
0001
,
0010
0100
2000
3000
0100
0010
0002
0003
,
0010
0100
2000
3000
0100
0010
0002
0003
,
0010
0100
2000
3000
0100
0010
0002
0003
,
0010
0100
2002
0000
0000
0000
0000
0000
,
0000
0000
3003
2001
0000
0001
0000
0010
,
0000
0100
0000
0001
0000
0010
0000
0001
,
0000
0010
0000
0100
0000
0100
0000
0010
,
0000
0001
0000
0010
0000
0100
0000
0100
,
0000
0001
0000
0010
0000
0010
0000
0100
,
0000
0010
0000
0010
0000
0100
0000
0010
,
0000
3001
0000
2002
0000
3003
0100
0010
,
0000
0010
0000
0100
1000
0202
0000
0303
,
0020
0000
0030
0002
0003
0010
0100
2000
,
3000
0100
0010
0022
0033
0100
0000
2020
,
0000
0000
0000
0030
,
0000
0001
0000
0001
0000
0100
0000
3010
,
0000
0110
0000
0010
0100
2000
3000
0100
,
0010
0022
0033
0010
0200
0000
0000
0300
,
2002
0000
3003
0100
0010
0000
0010
0000
,
0100
1000
0202
0000
0303
0020
0000
0000
,
0030
0002
0003
0010
0100
2000
3000
0022
,
0033
0100
1000
0000
0220
0000
0000
0000
,
0000
0000
0000
0000
,
0000
0000
0000
0000
0000
0000
0330
2002
,
3003
0010
0100
2000
3000
0202
0303
0010
,
0100
0001
0000
2020
3030
2002
0000
3003
,
0100
0010
0000
0010
0000
0100
1000
0202
,
0000
0303
0020
0030
0202
0000
0303
0000
,
0010
0100
2200
3300
,
0010
0100
0202
0303
,
0010
0100
2200
3300
,
0010
0100
0202
0303
,
0010
0100
2200
3300
,
0010
0000
0220
0000
0000
0330
0000
0000
,
0220
0000
0000
0330
0000
0000
0110
0110
,
1001
1001
0110
0110
1001
1001
0110
0110
,
1001
1001
0000
1010
1001
0101
0220
0000
,
0000
0000
0330
0001
0100
0000
0000
0000
,
0010
0001
1000
0000
0000
0000
0010
0000
,
1100
0000
0000
0001
0000
0100
0010
0000
,
1100
0000
0000
0010
0000
0100
0010
0010
,
0100
1000
0000
0100
0001
0001
0100
2002
,
0000
0000
0000
0000
,
0000
0000
0000
0000
0000
0000
0000
3003
;
