#TITLE:Sweet Love Flag;
#SUBTITLE:Homemaid Sweets OP theme;
#ARTIST:Little Non;
#TITLETRANSLIT:;
#SUBTITLETRANSLIT:;
#ARTISTTRANSLIT:;
#CREDIT:ALICE_;
#BANNER:Sweet Love Flag.png;
#BACKGROUND:Sweet Love Flag.jpg;
#LYRICSPATH:;
#CDTITLE:cdtitle.png;
#MUSIC:Sweet Love Flag.mp3;
#OFFSET:0.460;
#SAMPLESTART:53.380;
#SAMPLELENGTH:12.000;
#SELECTABLE:YES;
#BPMS:0.000=190.000;
#STOPS:;
#BGCHANGES:1.438=Sweet Love Flag.avi=1.000=1=0=1,
99999=-nosongbg-=1.000=0=0=0 // don't automatically add -songbackground-
;
// cache tags:
#FIRSTBEAT:24.000;
#LASTBEAT:298.000;
#SONGFILENAME:Songs/alice 4th complete step/Sweet Love Flag/Sweet Love Flag.sm;
#HASMUSIC:1;
#HASBANNER:1;
#MUSICLENGTH:99.012;
// end cache tags

//---------------dance-single - ----------------
#NOTES:
     dance-single:
     :
     Hard:
     9:
     0.772,0.787,0.394,0.384,0.000,458.000,39.000,38.000,0.000,0.000:
0000
0000
0000
0000
,
0000
0000
0000
0000
,
0000
0000
0000
0000
,
0000
0000
0000
0000
,
0000
0000
0000
0000
,
0000
0000
0000
0000
,
0020
0030
1000
0100
2000
3000
0001
0100
,
0002
0003
1000
0010
0200
0300
0001
0010
,
0200
0000
0000
0300
2000
0000
0000
3000
,
1001
0001
0100
0001
0010
0001
0100
0001
,
1000
0001
0100
0001
2000
3020
0230
0300
,
1001
1000
0010
1000
0100
1000
0010
0200
,
0300
0002
2003
3000
0100
0010
0100
0000
,
1001
1000
0100
1000
0010
1000
0100
1000
,
0001
1000
0100
1000
0002
0023
0230
0300
,
1001
0001
0010
0001
0100
0001
1000
0020
,
0030
0200
0302
0003
1000
0001
0100
0000
,
0001
1000
0001
1000
0010
0100
0010
1000
,
0100
0010
0100
0010
0001
1000
0010
0100
,
0001
0010
0001
0010
0100
1000
0001
0100
,
0010
1000
0010
1000
0001
1000
0100
0100
,
1000
0001
1000
0001
0100
0010
1000
0001
,
0010
0100
0010
0100
1000
0001
0100
0010
,
0100
1000
0100
1000
0100
0001
0010
0100
,
0000
1000
0001
0100
0010
0000
1001
0000
,
1100
0010
1000
0010
0100
0001
1000
0100
,
0010
0001
0010
0001
1000
0010
0100
0001
,
0100
1000
0100
1000
0100
0001
1000
0010
,
0100
0001
0100
0001
0010
0100
1000
0100
,
1001
0011
1100
1010
,
0110
0101
1001
0110
,
1000
0100
0001
0100
1000
0100
0001
0100
,
1000
0010
0100
0001
1000
2002
0000
3003
,
0101
1000
1100
0010
,
0100
0001
1000
0000
1001
0000
0100
0000
,
0011
1000
1010
0001
,
0100
0010
0000
0010
0100
0000
1001
0000
,
0100
0001
0100
0001
1000
0010
0100
0000
,
0001
1000
0001
1000
0100
0010
0001
0000
,
1000
0100
2000
3000
0001
0100
0002
0003
,
1000
0010
0200
0300
0001
0010
0200
0300
,
1100
0101
1100
0101
,
1000
0010
0001
0010
0100
0100
0000
0002
,
0000
0013
0001
0100
0001
1000
0001
0100
,
0001
0010
0001
1000
0001
0100
0001
0010
,
0100
1000
0001
1000
0010
1000
0001
1000
,
0010
0100
0001
1000
0010
0100
0001
1000
,
0100
0010
0100
0001
0100
0010
0100
1000
,
0010
0001
0010
0100
0010
1000
0001
0010
,
0100
1000
0001
1000
0010
1000
0001
0100
,
1000
0100
0001
0010
1000
0010
0001
0100
,
0010
1000
0010
0100
0010
0001
0010
0100
,
0010
1000
0010
0100
0010
0001
0010
1000
,
0001
1000
0010
1000
0100
1000
0010
1000
,
0001
0010
0100
1000
0001
0100
0010
1000
,
0001
0100
0001
0100
0010
1000
0100
1000
,
0010
0100
0010
0100
0001
1000
0100
0010
,
0001
0100
1000
0100
0001
0010
1000
0010
,
0001
0100
0010
1000
0100
1000
0010
0100
,
0001
1000
0100
1000
0001
1000
0001
0010
,
0100
1000
0001
0100
0010
1000
0010
1000
,
0200
0000
0000
0300
0020
0000
0000
0030
,
1001
0100
1001
0100
,
1010
0000
0001
0010
1100
0000
1000
0010
,
0101
1100
0101
1100
,
0011
1000
0010
0100
,
1001
0001
0010
0001
0100
0001
0010
0001
,
1000
0001
0100
0001
2000
3020
0230
0300
,
1001
1000
0010
1000
0100
1000
0010
0200
,
0300
0002
2003
3000
0100
0010
0100
0000
,
1001
1000
0100
1000
0001
1000
0010
1000
,
0001
1000
0100
0010
0001
0100
1000
1000
,
0110
0100
0001
1000
0100
1000
0010
0002
,
0003
0000
0020
0030
0200
0000
0300
0000
2002
0000
0000
0000
0000
0000
0000
0000
,
0000
3003
0000
0000
;

//---------------dance-single - Copied from----------------
#NOTES:
     dance-single:
     Copied from:
     Challenge:
     16:
     1.000,1.000,1.000,0.545,0.212,542.000,298.000,54.000,0.000,37.000:
0000
0000
0000
0000
,
0000
0000
0000
0000
,
0000
0000
0000
0000
,
0000
0000
0000
0000
,
0000
0000
0000
0000
,
0000
0000
0000
0000
,
1002
0000
1003
0100
1020
0000
0130
0010
,
0102
0000
0013
0100
2010
0000
3010
1000
,
0102
0000
0000
0000
0000
0000
0000
0000
2000
0000
0000
0000
0000
0000
0000
3003
,
0110
1010
0100
0011
1000
0101
1000
0011
,
1000
0000
0101
0000
1010
0000
0011
0000
0110
0000
0100
0000
1001
0001
0010
0000
,
1001
1010
0100
0011
0100
1010
0100
0012
,
1000
0000
0113
0000
1001
0000
0200
0000
0310
0000
1001
0010
0100
0011
1000
0100
,
0011
0101
1000
0011
1000
0110
1000
0011
,
1000
0000
0110
0000
1010
0000
0101
0000
0011
0000
1000
0000
1010
0010
0100
0000
,
1001
0011
0100
1010
0001
0110
1000
0012
,
0100
0000
0000
1103
0000
0000
1011
0000
0000
0100
0000
0000
1000
0010
0001
0100
0010
1000
0001
0010
0100
0010
0100
1000
,
0011
1001
0011
1001
0100
1010
0100
1001
,
1100
1010
0100
1001
0010
0101
1100
0010
,
0101
1001
0101
1001
0010
1100
1001
0100
,
1010
1001
1100
0010
1000
0101
0011
1100
,
1010
1001
1100
1001
0010
0101
0010
1001
,
0011
0101
0010
1001
0100
1010
0011
0100
,
1010
1001
1100
1001
0100
0011
1001
0010
,
0100
0000
1010
0000
1010
0000
1001
0000
0011
0000
0100
0000
2120
0000
0000
3030
,
0101
1001
0011
0100
0010
1001
0100
1010
,
1100
1001
1010
0100
0010
1100
0001
0110
,
1001
1100
1001
0101
0010
1001
0100
1010
,
0101
0101
2001
3010
1100
0010
0101
1000
,
1002
0113
0020
1130
2000
3110
0200
0311
,
2000
3110
0002
0113
0200
1310
0020
0131
,
1100
1010
0101
0011
1100
0110
0011
0110
,
1100
0001
0100
0010
1100
0001
0100
0010
1001
0000
0220
0000
0030
0000
0310
0000
,
2001
0000
0010
0100
3011
0000
0100
0000
,
0010
1001
0000
0100
1001
0000
0010
0000
,
0102
0000
1000
0010
1103
0000
0010
0000
,
1000
0110
0000
0110
2002
0000
3113
0000
,
0011
0000
0001
0000
1100
0000
0001
0010
0001
0000
1100
0000
0011
0000
0100
0000
,
1100
0000
1100
0000
0011
0000
0100
1000
0100
0000
1100
0000
0011
0000
0100
0000
,
1010
0000
1010
0000
1001
0100
0010
0000
0101
0000
0101
0000
1001
0010
0100
0000
,
0011
0000
0011
0000
1010
0100
0001
0000
1100
0000
1100
0000
0101
0010
1000
0000
,
0111
0010
1110
1000
1101
0001
0111
0010
,
2200
3301
0220
1330
1001
0110
0000
0202
,
0000
1303
0011
0100
0011
1000
0011
0100
,
1100
0010
1100
0001
1100
0010
1100
0001
,
1001
0100
0011
0100
1001
0100
0011
0100
,
1010
0001
1010
0100
1010
0001
0110
1001
,
0011
0100
0011
1000
0011
0100
0011
1000
,
1100
0001
1100
0010
1100
0001
1100
0010
,
1011
0100
0101
0010
1101
0010
1010
0100
,
1001
0001
0111
0001
1101
0001
0011
0110
,
1001
0100
1101
0010
1001
0100
1101
0010
,
1100
0001
0111
1000
1100
0001
0111
1000
,
0011
0100
1110
1000
0011
0100
1110
1000
,
0101
0010
1100
0010
1001
0100
1001
0010
,
1010
0101
1000
0011
1010
0101
1000
0011
,
0101
1010
0011
1100
0101
1010
0011
1100
,
2001
0001
0011
3100
1020
1000
1100
0031
,
1010
0100
0001
0100
1010
0000
0100
0000
0011
0000
1000
0000
0011
0000
0100
0000
,
1010
1000
1110
0001
0101
0010
1011
0100
,
1001
0000
0010
0100
1001
0000
0011
0000
1100
0000
0010
0000
0110
0000
0110
0000
,
1002
1000
1000
1003
2010
0010
0010
3010
,
0202
0000
0000
0303
2200
0000
0000
3300
0022
0000
0000
0033
2020
0000
0000
3030
,
0102
0000
0000
0003
0010
0100
1000
0100
0012
0000
0000
0003
0100
0010
0001
0010
,
1100
0101
1010
1001
,
0110
0000
0000
0000
1000
0000
0000
0000
0100
0000
0000
0000
0010
0001
0010
0001
,
1100
1010
0100
1001
0010
1010
0100
1001
,
0010
1010
1100
0011
0110
0100
1001
0010
,
0011
0101
0010
1001
0100
0101
0010
2002
,
3000
0003
2100
0000
3021
0000
0100
0030
1001
0000
0010
1000
0101
1000
0011
0100
,
1001
0011
0100
1010
0001
1100
0010
1010
,
0001
1100
1010
0101
0110
0010
1001
0001
,
1100
0010
1000
0010
0100
0001
0100
0001
1000
0010
0100
0001
1000
0010
2002
0000
,
0000
3003
0011
0000
0110
0000
1100
0000
0220
0000
0000
0000
0000
0000
0000
0000
,
0000
0000
0330
0000
;

//---------------dance-single - ----------------
#NOTES:
     dance-single:
     :
     Medium:
     8:
     0.655,0.635,0.808,0.242,0.000,350.000,80.000,24.000,0.000,0.000:
0000
0000
0000
0000
,
0000
0000
0000
0000
,
0000
0000
0000
0000
,
0000
0000
0000
0000
,
0000
0000
0000
0000
,
0000
0000
0000
0000
,
2000
3010
0020
0130
,
0200
0301
0002
1003
,
0020
0000
0000
0000
0230
0000
0000
0300
,
1001
1100
1001
1100
,
1001
0000
0101
0000
0010
1000
0100
0000
,
1001
0101
1001
0101
,
1001
0000
1100
0000
0010
0001
0100
0000
,
0110
1001
0110
1001
,
0110
0000
1001
0000
0010
0100
1000
0000
,
1001
0110
1001
0110
,
1001
0000
0100
0001
0010
1000
0100
0000
,
1000
0100
1000
0100
0010
0000
0100
0000
,
0001
0100
0001
0100
0010
0000
0100
0000
,
1000
0001
0100
0001
0010
0000
0100
0000
,
0001
1000
0100
1000
0010
0000
0100
0000
,
0001
0010
0001
0010
0100
0000
1000
0000
,
1000
0010
1000
0010
0100
0000
0001
0000
,
1000
0100
0001
0100
1000
0000
0010
0000
,
1000
0001
0100
0010
1000
0000
1001
0000
,
0100
1000
0100
1000
0010
0000
0110
0000
,
0100
0001
0100
0001
0010
0000
0110
0000
,
0100
1000
0001
0100
1000
0100
0010
0100
,
0000
1000
0001
0020
0000
0100
0130
0000
,
1100
0110
0011
0110
,
1100
1010
0110
0101
,
2001
3100
1002
0103
,
1000
0010
0100
0001
0010
0200
0000
0300
,
1100
1000
0101
0001
,
1000
0010
0100
0100
,
0011
0001
1010
1000
,
0001
1000
0100
1000
0010
0000
0110
0000
,
1000
0100
1000
0100
0001
0100
0001
0100
,
1000
0100
1000
0100
0001
0100
0001
0100
,
1000
0010
0100
0000
0001
0010
0100
0000
,
1000
0100
0010
0000
0001
0100
0010
0000
,
1000
0001
0100
0010
,
1000
0001
1000
0001
0100
0010
0000
2100
,
0000
3000
0001
0010
0001
0010
0001
0000
,
0100
0010
0100
0010
0100
0010
1000
0000
,
0100
1000
0100
1000
0100
1000
0010
0000
,
0100
0001
0100
0001
0100
0001
0010
0000
,
0100
1000
0001
0010
,
0100
1000
0001
0100
,
2010
3001
0012
1003
,
0010
0100
0001
1000
0100
0010
0001
1000
,
0001
0101
0101
0101
,
1000
1100
1100
1100
,
0010
0110
1001
0110
,
1100
0101
1010
0011
,
1000
0000
0010
0100
0010
0100
0010
0100
,
0001
0000
0010
0100
0010
0100
0010
0100
,
2000
3001
0002
0013
,
0100
1000
0001
0010
0100
1000
0001
0100
,
0020
1030
0002
1003
,
0001
1000
0010
0100
0001
1000
0100
0010
,
0002
0000
0000
0000
0000
0000
0000
0003
,
2000
3100
0020
0031
,
0200
0000
0310
0010
2000
0000
3001
0001
,
1000
0101
0001
1100
,
0001
0010
0010
0010
,
1001
0101
1001
0101
,
1001
0000
1010
0000
0100
0001
0010
0000
,
1001
1100
1001
1100
,
1001
0000
0011
0000
0100
1000
0010
0000
,
1100
1010
1100
1010
,
0101
0000
0011
0000
0100
1000
0010
0000
,
0110
0000
1001
0000
0010
1000
0001
0010
,
0000
0100
0010
0000
2002
0000
0000
0000
,
3003
0000
0000
0000
;

//---------------dance-single - ----------------
#NOTES:
     dance-single:
     :
     Easy:
     5:
     0.365,0.411,0.101,0.020,0.000,241.000,10.000,2.000,0.000,0.000:
0000
0000
0000
0000
,
0000
0000
0000
0000
,
0000
0000
0000
0000
,
0000
0000
0000
0000
,
0000
0000
0000
0000
,
0000
0000
0000
0000
,
0000
0000
0000
0000
,
0000
0000
0000
0000
,
0000
0000
0000
0000
,
1000
0100
1000
0100
,
1000
0100
1000
1000
,
0001
0100
0001
0100
,
0001
0100
0010
0000
,
0001
1000
0001
1000
,
0001
1000
0010
0010
,
0100
0001
0100
0001
,
1000
0010
0100
0000
,
0001
0001
0100
0001
,
1000
1000
0100
1000
,
0010
0010
0100
0010
,
1000
0001
0100
0000
,
0001
0001
0010
0001
,
1000
1000
0010
1000
,
0100
0010
0001
1000
,
0010
0100
0010
0110
,
1000
0001
0100
0100
,
0001
1000
0100
0100
,
1000
0010
0001
0010
,
1000
0001
0100
0010
,
1001
0010
0100
1000
,
0001
0010
0100
1000
,
0010
0100
0001
1000
,
0100
0000
0100
0000
0200
0300
0000
0000
,
1100
0000
0101
0000
,
1100
0000
0101
0000
,
0110
0000
1001
0000
,
0010
0100
1000
0000
,
0001
0100
0001
0100
,
0001
1000
0001
1000
,
0010
0100
0001
1000
,
0010
0100
0001
1000
,
0100
0100
0100
0100
,
0010
0001
0010
0000
,
0100
1000
0100
0001
,
0100
1000
0100
0010
,
0001
1000
0010
0100
,
0001
1000
0010
0100
,
0001
0010
1000
0010
,
0001
0010
1000
0100
,
0001
0001
1000
1000
,
0010
0100
0010
0100
,
1000
0010
0001
0010
,
1000
0001
0010
0001
,
0100
1000
0100
0001
,
1000
0010
0100
0010
,
1000
1000
0100
1000
,
0001
0100
0001
0001
,
0010
0100
1000
0001
,
0100
0010
1000
1000
,
0001
1000
0001
1000
,
0010
0100
0010
0100
,
0010
0000
0100
0000
,
1001
1000
0101
0001
,
1000
0010
0100
0001
,
1000
0100
1000
0100
,
1000
0000
0000
0000
,
1000
0010
1000
0010
,
1000
0010
1000
1000
,
0001
0010
0001
0010
,
0001
0010
0100
0000
,
0010
0100
0010
0100
,
0010
0100
0001
1000
,
0100
0010
0100
0010
,
0001
1000
0200
0000
,
0300
0000
0000
0000
;
