#TITLE:The Famous Polka;
#SUBTITLE:;
#ARTIST:They Might Be Giants;
#TITLETRANSLIT:;
#SUBTITLETRANSLIT:;
#ARTISTTRANSLIT:;
#CREDIT:;
#BANNER:banner.jpg;
#BACKGROUND:background.jpg;
#LYRICSPATH:;
#CDTITLE:cdtitle.jpg;
#MUSIC:Polka.mp3;
#OFFSET:-1.488;
#SAMPLESTART:35.693;
#SAMPLELENGTH:15.600;
#SELECTABLE:YES;
#BPMS:0.000=175.413;
#STOPS:;
#BGCHANGES:;
// cache tags:
#FIRSTBEAT:0.000;
#LASTBEAT:256.000;
#SONGFILENAME:Songs/Community Keyboard Megapack - Volume 1/(DanTheMan) The Famous Polka/Polka.sm;
#HASMUSIC:1;
#HASBANNER:1;
#MUSICLENGTH:93.596;
// end cache tags

//---------------dance-single - ----------------
#NOTES:
     dance-single:
     :
     Challenge:
     10:
     1.000,1.000,1.000,0.481,0.481,499.000,211.000,45.000,0.000,0.000:
1001
0000
1010
0100
0101
0001
1100
0100
,
1001
0010
0110
0100
0011
1000
1100
0011
,
0101
0000
1010
0100
0011
0100
1010
0100
,
0011
1000
0110
0001
1010
0100
1000
0110
,
0110
0000
1000
0110
0001
0011
1000
0110
,
0001
0011
1000
0110
0001
0010
1001
0110
,
1010
0000
0000
0000
1010
0000
0101
0000
0000
0000
1000
0100
0010
0000
1001
0000
,
0000
0000
0001
0010
0100
0000
1001
0000
0000
0000
0010
0100
0001
0000
1001
0000
,
0110
0000
0000
0000
1010
0000
0101
0000
0000
0000
0100
0001
0010
0000
1001
0000
,
0000
0000
0100
0010
0001
0000
1001
0000
0000
0000
0100
0010
0100
0000
1001
0000
,
1001
0000
0000
0000
1000
0100
0010
0100
1000
0010
0100
0010
1000
0100
0010
0001
,
0010
0100
1000
0100
0010
0100
0010
0100
1000
0100
1000
0100
0010
0001
0010
0100
,
1000
0100
0010
0001
0010
0100
0010
0100
1000
0100
0010
0100
0010
0001
0010
0100
,
0010
0100
0010
0100
0010
0001
0010
0001
0010
0100
1000
0100
0010
0000
0000
0000
,
1010
0000
0000
0000
0001
0010
0001
0010
0100
0010
0100
1000
0100
0010
0100
0010
,
0001
0010
0100
1000
0100
0010
0100
0010
0001
0010
0001
0010
0100
1000
0100
0010
,
0001
0010
0100
0010
0100
1000
0100
1000
0100
0010
0001
0010
0001
0010
0100
0010
,
0001
0010
0001
0100
0001
1000
0100
1000
0010
0100
0010
1000
0100
0000
0000
0000
,
1001
0011
1100
0011
,
0000
0000
1001
0110
0000
0011
1100
0000
,
1001
0000
0000
0000
1001
0000
0000
0000
2002
0000
0000
3003
0220
0000
0000
0330
,
0000
0000
1100
0000
0011
0000
0000
0000
0022
0000
0000
0033
0220
0000
0000
0330
,
0000
0000
0011
0000
1100
0000
0000
0000
0220
0000
0000
0330
0022
0000
0000
0033
,
0000
0000
0110
1001
0000
1001
0110
0000
,
1001
0000
0000
0000
1001
0000
0000
0000
2002
0000
0000
3003
0220
0000
0000
0330
,
0000
0000
0101
0000
1010
0000
0000
0000
2020
0000
0000
3030
0202
0000
0000
0303
,
0000
0110
1001
0000
0011
0000
1100
0000
,
0000
0000
0011
0100
1010
0100
0101
0010
,
1001
0100
0101
0010
1010
0100
0101
1010
,
0101
0100
1010
0100
0101
0010
0101
1000
,
0110
0001
0101
1000
1010
0100
0101
1010
,
0101
0010
1010
0001
1100
0001
0110
0010
,
0101
0001
1010
0100
1001
0100
0001
0100
,
1001
0100
1001
0100
1001
0100
0110
0001
,
1001
0000
1000
0000
1000
0001
1000
0000
1001
0000
0100
0000
2002
0000
3003
0000
,
0000
0100
1001
0010
0110
0100
1001
0010
,
1001
0000
0100
0000
0101
0000
0001
0000
1010
0000
0010
0000
2002
0000
0000
3003
,
0000
0000
0011
0011
0110
0110
1010
1010
,
0011
0011
1001
1001
0110
0110
1001
1001
,
0110
0000
1010
0000
0001
0000
0001
0010
0001
0000
0100
0010
0100
0000
1000
0100
,
0010
0100
0010
0001
0010
0001
0100
0010
0100
0001
1000
0100
2002
0000
0000
3003
,
0000
0000
1010
0101
1001
1010
0101
0110
,
1001
1010
0101
1010
1001
0101
1010
0101
,
1010
0000
0101
0000
1000
0000
1000
0010
0100
0000
0001
0010
0001
0000
1000
0100
,
0010
0001
0010
0100
1000
0100
0010
0001
0010
0100
1000
0010
2002
0000
0000
3003
,
0000
1001
1001
1001
,
0220
0000
0000
0330
1010
0000
0101
0000
0000
0000
1010
0000
1010
0000
0000
0000
,
1010
0000
0000
0000
0101
0000
0000
0000
2020
0000
0000
0000
0000
0000
0000
3030
,
0000
1010
0101
0100
0001
1000
0002
0003
,
0000
0000
0110
0000
1001
0000
0000
0000
2000
0000
0000
3000
0002
0000
0000
0003
,
0000
0000
1010
0110
0000
1001
0110
0000
,
1001
0000
0000
0000
1001
0000
0000
0000
2000
0000
0000
3000
0002
0000
0000
0003
,
0200
0300
0101
0000
1010
0000
0000
0000
2000
0000
0000
3000
0002
0000
0000
0003
,
0200
0300
0101
0000
1010
0000
0000
0000
0220
0000
0000
0330
2002
0000
0000
3003
,
0000
0000
0001
0101
0010
1010
0010
1010
,
0010
0101
0001
1010
0100
0101
1000
0110
,
1001
0000
0110
0000
0001
0000
1010
0000
0010
0000
1001
0000
0010
0000
0100
0010
,
0100
1001
0100
1001
0010
1001
0110
1001
,
0101
0010
0100
1001
0010
0110
0001
1010
,
0100
0101
0010
1001
0010
0101
1000
1001
,
0110
0000
1001
0000
1010
0000
0101
0000
0000
0000
0010
0100
1000
0000
1010
0000
,
0000
0000
0010
0100
1000
0000
1100
0000
0000
0000
0001
0010
0100
0000
1001
0000
,
1001
0000
0000
0000
1010
0000
0101
0000
0000
0000
1000
0010
0001
0000
1001
0000
,
0000
0000
1000
0100
1000
0000
1001
0000
0000
0000
1000
0100
0010
0001
1000
0100
,
1001
0000
0000
0000
;
