#TITLE:BURN BURN BURN;
#SUBTITLE:;
#ARTIST:H.U.T GiGAR;
#TITLETRANSLIT:;
#SUBTITLETRANSLIT:;
#ARTISTTRANSLIT:;
#CREDIT:owenviau1;
#BANNER:../BN.PNG;
#BACKGROUND:;
#LYRICSPATH:;
#CDTITLE:../CDTitleOV1.png;
#MUSIC:BURN BURN BURN.ogg;
#OFFSET:-0.293;
#SAMPLESTART:86.186;
#SAMPLELENGTH:29.999;
#SELECTABLE:YES;
#DISPLAYBPM:190.000;
#BPMS:0.000=190.000;
#STOPS:;
#BGCHANGES:;
// cache tags:
#FIRSTBEAT:0.000;
#LASTBEAT:538.750;
#SONGFILENAME:Songs/owenviau1 Simfiles 07_final/BURN BURN BURN - [Braeden47 & owenviau1] v1.0.1/BURN BURN BURN.sm;
#HASMUSIC:1;
#HASBANNER:1;
#MUSICLENGTH:164.754;
// end cache tags

//---------------dance-single - 31(Braeden)----------------
#NOTES:
     dance-single:
     31(Braeden):
     Challenge:
     31:
     1.000,1.000,0.067,0.303,1.000,2344.000,11.000,50.000,0.000,0.000:
1000
0000
0010
0000
1000
0000
0001
0000
0100
0000
0010
0000
0100
0000
0002
0003
,
1000
0000
0100
0000
1000
0000
0010
0000
0100
0000
0001
0000
1000
0000
0020
0030
,
0100
0000
0001
0000
0100
0000
0010
0000
1000
0000
0001
0000
0010
0000
0200
0300
,
1000
0000
0001
0000
0100
0000
0010
0000
1000
0000
0001
0000
0010
0000
0002
0003
,
1000
0000
0100
0000
1000
0000
0010
0000
0100
0000
0001
0000
0100
0000
0020
0030
,
1000
0000
0001
0000
1000
0000
0010
0000
0100
0000
0001
0000
1000
0000
0200
0300
,
0010
0000
0001
0000
1000
0000
0100
0000
1000
0000
0010
0000
0100
0000
0002
0003
,
1000
0000
0010
0000
1000
0000
0001
0000
0100
0000
0010
0000
0100
0000
0002
0003
,
1000
0100
0010
0001
1000
0010
0100
0001
0100
0010
1000
0001
0100
0001
0010
0100
,
1000
0001
0010
0001
0100
0010
1000
0001
0100
0001
1000
0010
0100
0010
1000
0001
,
0100
0010
1000
0001
0010
0100
1000
0100
0010
0001
1000
0010
0100
0001
0010
0001
1000
0100
0010
0001
0010
0100
1000
0001
,
0010
0100
1000
0100
0010
0001
1000
0010
0100
0001
0010
0001
1000
0100
1000
0001
0100
0010
1000
0001
0100
0010
1000
0001
,
1000
0100
0010
0001
0010
0100
1000
0001
0010
0001
0100
0010
1000
0001
0010
0100
1000
0100
0010
0001
1000
0010
0100
0001
,
0010
0001
1000
0100
0010
0100
1000
0001
0020
0031
0100
0010
1000
0001
0100
0010
1000
0001
0100
0010
1000
0001
0100
0010
,
1000
0100
0010
0001
0010
0100
1000
0001
0010
0001
1000
0100
0010
0001
0010
0100
1000
0001
0100
0010
1000
0001
0100
0001
,
1000
0001
0100
0010
0100
0000
0001
1000
0000
0010
1000
0000
0001
0000
0200
0000
,
0310
1000
0001
0010
0100
1000
0100
0010
0001
1000
0010
0100
0001
0010
0001
1000
0100
0010
0100
1000
0001
0010
0100
1000
,
0100
0010
0001
1000
0010
0100
0001
0010
0001
1000
0100
0010
0001
0010
0100
1000
0001
0010
0100
1000
0001
0100
0010
0100
,
0001
1000
0100
1000
0001
0100
0010
1000
0001
0010
0001
1000
0010
0100
0001
0010
0100
1000
0001
0100
0010
1000
0001
0010
,
0001
0000
0100
0000
0010
0000
1000
0000
0001
0000
0010
0000
0001
0000
1000
0000
0100
0000
1000
0000
0001
0000
0100
0000
0010
0000
0000
0000
0000
0000
1000
0000
0000
0001
0000
0000
0100
0000
0000
0001
0000
0000
1000
0000
0000
0100
0000
0000
,
0010
0001
0100
0010
1000
0001
0100
0001
1000
0010
0100
0010
1000
0001
0010
0001
,
1000
0100
0010
0001
0100
0001
1000
0010
0100
0001
1000
0100
0010
0001
1000
0100
,
1000
0000
0000
0001
0000
0000
0100
0000
0000
0010
0000
0000
0100
0000
0000
0001
0000
0000
1000
0000
0000
0100
0000
0000
1000
0000
0000
0001
0000
0000
0100
0000
0000
0010
0000
0000
1000
0000
0001
0000
0100
0000
0001
0000
1000
0000
0010
0000
,
0100
0001
1000
0010
4000
0000
0000
0000
0000
0000
0000
0000
3001
0000
0020
0000
,
0130
1000
0001
0010
0100
1000
0100
0010
0001
1000
0010
0100
0001
0010
0001
1000
0100
1000
0001
0010
0100
1000
0100
0010
,
0001
0100
0010
1000
0001
0010
0001
0100
0010
1000
0001
0010
0100
1000
0100
0010
0001
0100
0010
1000
0001
0010
0001
0100
,
0010
1000
0001
0010
0001
1000
0010
0100
1000
0100
0010
1000
0100
0010
0001
0010
0100
1000
0001
0100
0010
1000
0001
0010
,
0001
0000
0010
0000
0100
0000
1000
0000
0100
0000
0010
0000
0001
0000
0010
0000
0100
0000
1000
0000
0001
0000
0100
0000
0010
0000
1000
0000
0100
0000
0010
0000
0000
1000
0000
0001
0000
0100
0000
0001
0000
0000
1000
0000
0010
0000
0100
0000
,
0001
1000
0010
1000
0001
0100
0010
1000
0001
0100
0010
0100
0001
1000
0100
1000
,
0010
0000
0000
0100
0000
0000
0001
0000
0000
1000
0000
0000
0100
0000
0000
0010
0000
0000
0001
0000
0000
0100
0000
0000
0010
0000
0000
1000
0000
0000
0001
0000
0000
0010
0000
0000
0001
0000
0000
0100
0000
0000
0010
0000
0000
1000
0000
0001
,
0000
1000
0000
0100
0000
0000
0010
0000
0000
0001
0000
0000
1000
0000
0100
0000
0010
0000
0001
0000
0010
0000
0100
0000
1000
0000
0001
0000
0010
0000
0001
0000
1000
0000
0010
0000
0100
0000
0001
0000
0010
0000
0001
0000
1000
0000
0100
0000
,
0010
0100
1000
0001
0100
0010
0100
0001
0100
0010
0100
0010
1000
0001
0100
0010
1000
0001
0010
0100
1000
0100
0010
0001
,
1000
0100
0010
0100
1000
0001
0010
0100
1000
0100
0010
0001
0100
0010
1000
0001
0100
0010
1000
0001
0010
0100
1000
0100
,
0010
0001
0100
0010
1000
0001
0100
0010
1000
0001
0100
1000
0200
0000
0000
0000
0000
0000
0320
0000
0000
0000
0000
0000
,
0130
0001
1000
0100
1000
0010
0100
0001
1000
0100
0010
0001
0100
0001
1000
0010
,
0100
0001
1000
0100
1000
0001
0100
0010
1000
0001
0010
0100
2000
0000
0000
0000
,
3001
0100
0010
0100
0001
1000
0010
1000
0100
0010
0001
0100
0010
1000
0001
0010
,
0001
1000
0100
1000
0010
0100
0010
1000
0002
0000
0000
0000
2003
0000
0000
0000
,
3100
0010
0001
0100
0010
1000
0001
0100
0001
0010
0100
1000
0001
0100
0010
1000
,
0001
0010
0001
1000
0100
1000
0001
0100
0010
0100
0001
1000
0020
0000
0000
0000
,
0130
1000
0001
0010
0100
1000
0100
0010
0001
1000
0010
0100
0001
0010
0001
1000
0100
1000
0001
0100
0010
1000
0001
0010
,
0001
0100
0010
1000
0001
0010
0001
1000
0100
0010
0100
1000
0020
0000
0000
0000
0000
0000
0032
0000
0000
0000
0000
0000
,
1003
0100
0010
0100
1000
0001
0100
0010
1000
0001
0010
0100
1000
0100
0010
0001
1000
0010
0100
0001
0010
0100
1000
0100
,
0010
0001
0010
0100
1000
0001
0100
0010
1000
0001
0010
0001
0100
0010
1000
0001
0100
0010
0200
0000
0000
0000
0000
0000
,
0310
1000
0001
0010
0100
1000
0100
0010
0001
0010
0100
1000
0001
0100
0010
1000
0001
0010
0001
0100
0010
1000
0001
0100
,
0010
1000
0001
0010
0001
1000
0100
0010
0001
0010
0100
1000
0002
0000
0000
0000
0000
0000
2003
0000
0000
0000
0000
0000
,
3100
1000
0100
0010
0001
0010
0100
1000
0001
0010
0001
0100
0010
1000
0001
0010
0100
1000
0100
0010
0001
0010
0100
1000
,
0001
0100
0010
1000
0001
0100
0010
1000
0001
0100
0001
0010
0200
0000
0000
0000
0000
0000
0000
0000
0000
0000
0000
0000
,
1300
0010
1000
0001
0100
0010
1000
0001
,
0010
0100
1000
0001
0100
0010
1000
0000
,
0001
0100
0010
0100
0001
1000
0010
1000
,
0001
0100
0010
1000
0010
0100
0001
0000
,
1000
0000
0100
0000
0010
0000
0001
0100
0001
0000
1000
0000
0010
0000
0100
0001
,
0100
0000
0010
0000
1000
0000
0001
0010
0001
0000
0100
0000
0010
0000
1000
0001
,
1000
0000
0010
0000
0100
0000
0001
0010
0001
0000
1000
0000
0010
0000
1000
0001
,
1000
0000
0010
0000
0100
0000
0010
1000
0010
0000
0100
0000
0001
0000
1000
0100
,
1000
0010
0100
0001
0010
0001
1000
0010
0100
0001
0010
0001
1000
0100
0010
0100
1000
0001
0100
0010
1000
0001
0100
0010
,
1000
0000
0001
0000
0100
0000
0010
0000
1000
0000
0001
0000
0100
0000
0000
0000
0000
0000
0100
0000
0000
0000
0000
0000
0010
0000
0000
0001
0000
0000
1000
0000
0000
0010
0000
0000
0100
0000
0000
0010
0000
0000
1000
0000
0000
0001
0000
0000
,
0010
0001
0100
0001
0100
0010
0100
0001
0010
0001
1000
0010
0100
0001
0010
0001
1000
0010
0100
0001
0010
0001
0100
0010
,
1000
0000
0001
0000
0100
0000
0010
0000
1000
0000
0001
0000
0010
0000
0000
0000
0000
0000
0001
0000
0000
0000
0000
0000
1000
0000
0000
0010
0000
0000
0100
0000
0000
0001
0000
0000
0100
0000
0000
0010
0000
0000
1000
0000
0000
0001
0000
0000
,
1000
0100
1000
0100
0010
0001
0010
0001
0100
0010
0100
0010
1000
0100
0010
0001
,
0010
0100
1000
0001
0100
0010
1000
0001
0100
0010
1000
0001
0100
0000
0000
0000
,
1000
0010
0100
0001
1000
0100
0010
0001
,
1000
0000
0000
0010
0000
0000
0100
0000
0000
0001
0000
0000
0100
0000
0010
0000
,
1000
0100
0010
0001
0010
0100
1000
0001
0100
0010
1000
0001
0010
0100
1000
0100
0010
0001
1000
0010
0100
0001
0010
0001
,
1000
0100
1000
0001
0100
0010
1000
0001
0010
0100
1000
0100
0010
0001
0100
0010
1000
0001
0010
0100
1000
0100
0010
0001
,
0100
0010
1000
0001
0100
0010
1000
0001
0010
0001
1000
0100
1000
0001
0100
0010
1000
0001
0100
0010
1000
0001
0010
0001
,
1000
0100
1000
0001
0100
0010
1000
0001
0010
0001
1000
0010
0100
0001
0010
0100
1000
0100
0010
0001
0100
0010
1000
0001
,
0100
0010
1000
0001
0010
0100
1000
0100
0010
0001
1000
0010
0100
0001
0010
0001
0100
0010
1000
0001
0100
0010
1000
0001
,
0100
0010
1000
0001
0100
0010
1000
0001
0010
0100
1000
0100
0010
0001
0100
0010
1000
0001
0100
0010
1000
0001
0010
0100
,
1000
0100
0010
0001
0100
0010
1000
0001
0100
0010
1000
0001
0100
0010
1000
0100
0010
0001
0100
0010
1000
0001
0100
0010
,
1000
0001
1000
0010
1000
0001
0040
0000
0000
0000
0000
0000
0000
0000
0000
0000
0000
0000
0230
0000
0000
0000
0000
0000
,
0301
1000
0010
1000
0001
0100
0001
0100
0010
1000
0001
0010
0100
1000
0100
0010
0001
1000
0010
0100
0001
0100
0010
1000
,
0001
0010
0100
0010
0001
1000
0010
0100
0001
0010
0001
0100
0010
1000
0001
0010
0100
1000
0001
0100
0010
1000
0001
0100
,
0010
1000
0001
0010
0100
1000
0100
0010
0001
0100
0010
1000
0001
0100
0010
1000
0001
0010
0100
1000
0100
0010
0001
0100
,
0010
0000
1000
0000
0001
0000
0100
0000
0001
0000
0100
0000
0010
0000
1000
0000
0010
0000
1000
0000
0001
0000
0100
0000
0010
0000
1000
0000
0001
0000
0100
0000
0000
0001
0000
0010
0000
0100
0000
0010
0000
0000
0001
0000
0000
0000
0000
0000
,
0001
1000
0010
1000
0001
0100
0001
0100
0010
1000
0001
0010
0100
1000
0100
0010
0001
1000
0010
0100
0001
0100
0010
1000
,
0001
0010
0100
0010
0001
1000
0010
0100
0001
0010
0001
0100
0010
1000
0001
0010
0100
1000
0001
0100
0010
1000
0001
0100
,
0010
1000
0001
0010
0100
1000
0100
0010
0001
0100
0010
1000
0001
0100
0010
1000
0001
0010
0100
1000
0100
0010
0001
0100
,
0010
1000
0001
0100
0001
0100
0010
1000
0010
1000
0001
0100
0010
1000
0001
0100
0010
1000
0001
0010
0001
0100
0010
1000
,
0001
1000
0010
1000
0001
0100
0001
0100
0010
1000
0001
0010
0100
1000
0100
0010
0001
1000
0010
0100
0001
0100
0010
1000
,
0001
0010
0100
0010
0001
1000
0010
0100
0001
0010
0001
0100
0010
1000
0001
0010
0100
1000
0001
0100
0010
1000
0001
0100
,
0010
1000
0001
0010
0100
1000
0100
0010
0001
0100
0010
1000
0001
0100
0010
1000
0001
0010
0100
1000
0100
0010
0001
0100
,
0010
1000
0001
0100
0001
0100
0010
1000
0010
1000
0001
0100
0010
1000
0001
0100
0010
1000
0001
0010
0001
0100
0010
1000
,
0001
0100
0010
1000
0001
0010
0100
1000
0100
0010
0001
1000
0010
0100
0001
0100
0010
1000
0001
0010
0100
1000
0100
0010
,
0001
0100
0010
1000
0001
0100
0010
1000
0001
0010
0100
1000
0100
0010
0001
0100
0010
1000
0001
0010
0100
1000
0100
0010
,
0001
0100
0010
1000
0001
0100
0010
1000
0001
0010
0100
1000
0100
0010
0001
0100
0010
1000
0001
0100
0010
1000
0001
0100
,
0010
0100
0001
1000
0010
0100
0010
1000
0001
0100
0010
1000
0001
0100
0010
1000
0001
0100
0010
1000
0001
1000
0010
0100
,
0001
0100
0010
1000
0001
0010
0100
1000
0100
0010
0001
0100
0010
1000
0001
0100
0010
1000
0001
0010
0100
1000
0100
0010
,
0001
0100
0010
1000
0001
0100
0010
1000
0001
0010
0100
1000
0100
0010
0001
0100
0010
1000
0001
0010
0100
1000
0100
0010
,
0001
0000
0100
0000
0010
0000
1000
0000
0001
0000
0100
0000
0010
0000
1000
0000
0001
0000
0100
0000
0010
0000
1000
0000
0001
0000
0000
0000
0000
0000
1000
0000
0000
0100
0000
0010
0000
0001
0000
1000
0000
0000
0010
0000
0000
0100
0000
0000
,
0010
1000
0010
1000
0010
1000
0001
0100
0001
0100
0001
0100
0010
1000
0010
1000
0010
1000
0001
0100
0001
0100
0001
0100
,
0010
1000
0010
1000
0010
1000
0001
0010
0001
0010
0001
0010
0100
1000
0001
0100
0010
1000
0001
0100
0010
1000
0001
0100
,
0010
1000
0001
0100
0010
1000
0001
0100
0010
1000
0001
0100
0010
1000
0001
0100
0010
1000
0001
0100
0010
1000
0001
0100
,
0010
1000
0001
0100
0010
1000
0001
0100
0010
1000
0001
0100
0010
1000
0001
0100
0010
1000
0001
0100
0010
1000
0001
0100
,
0010
1000
0001
0100
0010
1000
0001
0100
0010
1000
0001
0100
0010
1000
0001
0100
0010
1000
0001
0100
0010
1000
0001
1000
,
0001
0000
0010
0100
2000
0000
3010
0100
0020
0000
1030
0001
0100
0001
0040
0430
,
2300
0000
3010
0100
0020
0000
1030
0001
2000
0000
3100
0010
0001
0100
0004
4003
,
3020
0000
0130
0001
0200
0000
0310
1000
0002
0000
0013
0100
1000
0001
0400
0340
,
2030
0000
3001
0010
0002
0000
0103
0010
2000
0000
3001
0100
0010
0100
0004
4003
,
3020
0000
0130
0001
2000
0000
3010
0100
0020
0000
1030
0001
0100
0001
0040
0430
,
2300
0000
3010
0100
0020
0000
1030
0001
2000
0000
3100
0010
0001
0100
0004
4003
,
3020
0000
0130
0001
0200
0000
0310
1000
0002
0000
0013
0100
1000
0001
0400
0340
,
2030
0000
3001
0010
0002
0000
0103
0010
2000
0000
3001
0100
0010
0100
0004
4003
,
3010
0100
0010
1000
0001
0100
0001
0010
0100
1000
0001
0010
0001
1000
0010
0100
,
0010
1000
0001
0100
0001
1000
0100
0010
0001
1000
0010
1000
0001
0100
0010
0100
,
0001
1000
0010
1000
0001
0100
0010
1000
0001
0010
0001
0100
0010
0100
0001
1000
,
0010
1000
0001
0100
0010
1000
0001
0010
0001
1000
0100
1000
0010
0100
0001
1000
,
0100
0010
0001
1000
0010
0100
0001
0100
0010
1000
0001
1000
0100
0010
0001
1000
,
0010
0100
0010
1000
0001
0100
0001
1000
0100
0010
0001
1000
0010
0100
0010
1000
,
0001
0010
0001
1000
0100
0010
0001
1000
0010
1000
0001
0100
0010
1000
0001
0010
,
0200
0000
1300
0001
2000
0000
3010
0100
0001
0000
1000
0000
0010
0000
0200
0000
,
0301
0000
0000
1000
0000
0000
0001
0000
0000
0000
0000
0000
0010
0000
0100
0000
0001
0000
1000
0000
0010
0000
0100
0000
0001
0000
0100
0000
0010
0000
1000
0000
0001
0000
0100
0000
0010
0000
1000
0000
0001
0000
0010
0000
0001
0000
0100
0000
,
0010
1000
0001
0010
0100
1000
0100
0010
0001
0100
0010
1000
0001
0100
0010
1000
0001
0010
0100
1000
0001
0100
0010
0100
,
0001
1000
0010
0100
0001
1000
0100
0010
0001
0100
0010
1000
0001
0010
0100
1000
0100
0010
0100
1000
0001
0100
0010
0100
,
0001
1000
0100
0010
0100
1000
0001
0100
0010
1000
0001
0010
0100
1000
0100
0010
0001
0100
0010
0100
0001
0010
0100
1000
,
0100
0010
0001
0100
0010
0100
0001
0010
0100
1000
0010
0100
0010
0100
0001
0100
0010
1000
0001
1000
0010
0100
0010
0100
,
0001
0100
0010
0100
0010
1000
0001
0010
0100
1000
0100
0010
0001
1000
0100
0010
0001
0010
0100
1000
0001
0100
0010
1000
,
0001
0010
0100
1000
0100
0010
0001
0100
0010
1000
0001
0100
0010
1000
0001
0100
0010
1000
0001
0100
0010
1000
0001
0100
,
0010
0000
1000
0000
0001
0000
0010
0000
0100
0000
1000
0000
0100
0000
0010
0000
0001
0000
1000
0000
0001
0000
1000
0000
0004
0000
0000
0000
0000
0000
0000
0000
0000
0003
0000
0000
0004
0000
0000
0000
0000
0000
0000
0000
0000
0000
0000
0000
,
0013
0100
1000
0001
0100
0010
1000
0001
0010
0100
1000
0100
0010
0001
0100
0010
1000
0001
0100
0010
0100
0001
1000
0010
,
0100
0010
1000
0001
0010
0100
1000
0100
0010
0001
0100
0010
0100
0001
0100
0010
1000
0001
0010
0100
1000
0100
0010
0001
,
0100
0010
1000
0001
0100
0010
1000
0001
0010
0100
1000
0100
0010
0001
0100
0010
0100
0001
0100
0010
1000
0001
0010
0100
,
0010
0100
1000
0001
0100
0010
0100
0001
0100
0010
1000
0001
0010
0100
1000
0100
0010
0001
0100
0010
0100
0001
1000
0010
,
0100
0001
0100
0010
1000
0001
0010
0100
1000
0100
0010
0001
0100
0010
1000
0001
0010
0100
1000
0100
0010
0001
0100
0010
,
1000
0001
0100
0010
1000
0001
0100
0010
1000
0001
0010
0100
1000
0001
0010
0100
1000
0001
0010
0100
1000
0001
0010
0100
,
1000
0001
0010
0100
1000
0001
0010
0100
1000
0001
0010
0100
1000
0001
0010
0100
1000
0001
0100
0010
1000
0001
0010
0100
,
1000
0001
0010
0001
0010
0100
1000
0100
1000
0001
0100
0001
0100
0010
1000
0010
1000
0001
0100
0001
1000
0001
1000
0001
,
0010
0000
0000
0000
,
0000
0000
0000
0000
,
0000
0000
0000
0000
,
0000
0000
0000
0000
,
0000
0000
0000
0000
,
0000
0000
0000
0000
,
0000
0000
0000
0000
0000
0000
0000
0000
0000
0000
0000
1000
0000
0000
0000
0000
;

//---------------dance-single - ----------------
#NOTES:
     dance-single:
     :
     Hard:
     16:
     1.000,1.000,0.073,0.328,1.000,1750.000,12.000,54.000,0.000,0.000:
1000
0000
0010
0000
1000
0000
0001
0000
0100
0000
0010
0000
0100
0000
0002
0003
,
1000
0000
0100
0000
1000
0000
0010
0000
0100
0000
0001
0000
1000
0000
0020
0030
,
0100
0000
0001
0000
0100
0000
0010
0000
1000
0000
0001
0000
0010
0000
0200
0300
,
1000
0000
0001
0000
0100
0000
0010
0000
1000
0000
0001
0000
0010
0000
0002
0003
,
1000
0000
0100
0000
1000
0000
0010
0000
0100
0000
0001
0000
0100
0000
0020
0030
,
1000
0000
0001
0000
1000
0000
0010
0000
0100
0000
0001
0000
1000
0000
0200
0300
,
0010
0000
0001
0000
1000
0000
0100
0000
1000
0000
0010
0000
0100
0000
0002
0003
,
1000
0000
0010
0000
1000
0000
0001
0000
0100
0000
0010
0000
0100
0000
0002
0003
,
1000
0100
0010
0001
1000
0010
0100
0001
0100
0010
1000
0001
0100
0001
0010
0100
,
1000
0001
0010
0001
0100
0010
1000
0001
0100
0001
1000
0010
0100
0010
1000
0001
,
0100
0001
0010
0100
1000
0001
0100
0010
0100
0001
1000
0100
0010
0001
0100
0010
,
1000
0001
0100
0001
1000
0100
0010
0001
0100
0010
1000
0001
0010
0001
1000
0010
,
0100
0010
1000
0001
0010
0001
0100
0010
0100
0001
1000
0010
1000
0001
0100
0010
,
1000
0001
0010
0100
1000
0001
0010
0001
0100
0010
1000
0010
0100
0001
1000
0100
,
0010
0001
0100
0001
1000
0010
0100
0001
0100
0010
1000
0001
0010
0100
1000
0010
,
1000
0001
0100
0010
0100
0000
0001
1000
0000
0010
1000
0000
0001
0000
0200
0000
,
0310
1000
0001
0100
0001
1000
0100
0010
0001
0100
0010
1000
0001
0100
0001
1000
,
0010
0100
0010
1000
0001
0100
0001
0010
0100
1000
0001
0100
0010
0100
0001
1000
,
0100
1000
0010
0100
0001
1000
0100
0010
0001
0100
0001
1000
0010
0100
0010
1000
,
0001
0100
0001
1000
0100
0010
0001
0100
0010
0000
1000
0001
0100
0001
1000
0100
,
0010
0001
0100
0010
1000
0001
0100
0001
1000
0010
0100
0010
1000
0001
0010
0001
,
1000
0100
0010
0001
0100
0001
1000
0010
0100
0001
1000
0100
0010
0001
1000
0100
,
1000
0000
0000
0001
0000
0000
0100
0000
0000
0010
0000
0000
0100
0000
0000
0001
0000
0000
1000
0000
0000
0100
0000
0000
1000
0000
0000
0001
0000
0000
0100
0000
0000
0010
0000
0000
1000
0000
0001
0000
0100
0000
0001
0000
1000
0000
0010
0000
,
0100
0001
1000
0010
4000
0000
0000
0000
0000
0000
0000
0000
3001
0000
0020
0000
,
0130
1000
0001
0100
0010
0100
0001
1000
0010
1000
0001
0100
0001
0010
0100
1000
,
0001
0100
0010
1000
0001
0010
0100
1000
0010
0100
0001
1000
0100
1000
0010
0100
,
0001
0100
0010
1000
0001
0100
0001
0010
0100
1000
0001
1000
0010
0100
0001
0100
,
0010
0000
0000
1000
0000
0000
0001
0000
0000
0100
0000
0000
0010
0000
0000
0100
0000
0000
0001
0000
0000
1000
0000
0000
0010
0000
0000
0100
0000
0000
0010
0000
0000
1000
0000
0001
0000
0100
0000
0001
0000
0000
1000
0000
0010
0000
0100
0000
,
0001
1000
0010
1000
0001
0100
0010
1000
0001
0100
0010
0100
0001
1000
0100
1000
,
0010
0000
0000
0100
0000
0000
0001
0000
0000
1000
0000
0000
0100
0000
0000
0010
0000
0000
0001
0000
0000
0100
0000
0000
0010
0000
0000
1000
0000
0000
0001
0000
0000
0010
0000
0000
0001
0000
0000
0100
0000
0000
0010
0000
0000
1000
0000
0001
,
0000
1000
0000
0100
0000
0000
0010
0000
0000
0001
0000
0000
0100
0000
0000
0010
0000
0000
1000
0000
0000
0001
0000
0000
0100
0000
0000
0001
0000
0000
1000
0000
0000
0100
0000
0000
1000
0000
0000
0010
0000
0000
0100
0000
0000
0001
0000
0000
,
1000
0100
0010
0001
0100
0010
0100
0001
1000
0010
0100
0001
1000
0100
0010
0001
,
1000
0010
0100
0001
0100
0010
1000
0001
0010
0001
0100
0010
1000
0001
0100
0001
,
1000
0100
0010
0001
0100
0010
1000
0001
2000
0000
0000
0000
3020
0000
0000
0000
,
0130
0001
1000
0100
1000
0010
0100
0001
1000
0100
0010
0001
0100
0001
1000
0010
,
0100
0001
1000
0100
1000
0001
0100
0010
1000
0001
0010
0100
2000
0000
0000
0000
,
3001
0100
0010
0100
0001
1000
0010
1000
0100
0010
0001
0100
0010
1000
0001
0010
,
0001
1000
0100
1000
0010
0100
0010
1000
0002
0000
0000
0000
2003
0000
0000
0000
,
3100
0010
0001
0100
0010
1000
0001
0100
0001
0010
0100
1000
0001
0100
0010
1000
,
0001
0010
0001
1000
0100
1000
0001
0100
0010
0100
0001
1000
0020
0000
0000
0000
,
0130
0001
1000
0010
1000
0001
0100
0010
0100
0001
1000
0100
1000
0010
0100
0001
,
0100
0010
1000
0001
0010
0100
1000
0001
0020
0000
0000
0000
0032
0000
0000
0000
,
1003
0010
0100
0001
1000
0100
0010
0001
0100
0001
0010
0100
1000
0001
0100
0010
,
0100
0001
1000
0001
0010
0100
1000
0001
0200
0310
2000
3001
0200
0000
0000
0000
,
0310
1000
0001
0010
0001
0100
0010
0100
0001
1000
0010
1000
0001
0100
0010
1000
,
0010
0100
0001
1000
0100
1000
0010
0100
0002
0000
0000
0000
2003
0000
0000
0000
,
3100
0010
0001
1000
0010
0100
0001
1000
0100
1000
0001
0100
0010
0100
0001
1000
,
0010
1000
0001
0100
0010
1000
0001
0010
0200
0000
0000
0000
0000
0000
0000
0000
,
1300
0010
1000
0001
0100
0010
1000
0001
,
0010
0100
1000
0001
0100
0010
1000
0000
,
0001
0100
0010
0100
0001
1000
0010
1000
,
0001
0100
0010
1000
0010
0100
0001
0000
,
1000
0000
0100
0000
0010
0000
0001
0100
0001
0000
1000
0000
0010
0000
0100
0001
,
0100
0000
0010
0000
1000
0000
0001
0010
0001
0000
0100
0000
0010
0000
1000
0001
,
1000
0000
0010
0000
0100
0000
0001
0010
0001
0000
1000
0000
0010
0000
1000
0001
,
1000
0000
0010
0000
0100
0000
0010
1000
0010
0000
0100
0000
0001
0000
1000
0100
,
1000
0010
0100
0001
1000
0100
1000
0010
,
0100
0000
0001
0000
1000
0000
0100
0000
0010
0001
1000
0010
0100
0010
1000
0001
,
1000
0010
0100
0010
1000
0001
0100
0001
,
1000
0000
0100
0000
0010
0000
0001
0000
1000
0010
0100
0001
0100
0010
1000
0001
,
0100
0010
0100
0001
1000
0010
1000
0001
,
0100
0010
1000
0001
0010
0001
1000
0100
,
1000
0010
0100
0001
1000
0100
0010
0001
,
1000
0000
0000
0010
0000
0000
0100
0000
0000
0001
0000
0000
0100
0000
0010
0000
,
1000
0001
0100
0001
0010
0100
1000
0001
0100
0010
0100
0001
1000
0010
1000
0001
,
0100
0010
0100
0001
1000
0010
1000
0001
0100
0010
1000
0001
0010
0100
1000
0001
,
0010
0001
0100
0010
0100
0001
1000
0010
1000
0001
0100
0001
1000
0100
0010
0001
,
1000
0010
0100
0010
1000
0001
0010
0001
0100
0000
0010
1000
0010
0100
0001
1000
,
0100
0010
0001
0100
0010
1000
0001
0100
0001
1000
0010
0100
0010
1000
0001
0010
,
0001
0100
0010
0100
0001
1000
0010
1000
0001
0100
0010
1000
0001
0010
0100
1000
,
0010
0000
0000
0100
0000
0000
0010
0000
0000
1000
0000
0000
0001
0000
0000
0100
0000
0000
0001
0000
0000
0010
0000
0000
0100
0000
0000
1000
0000
0000
0001
0000
0000
0100
0000
0000
0010
0000
1000
0000
0010
0000
0100
0000
0001
0000
1000
0000
,
0001
0010
0100
1000
0040
0000
0000
0000
0000
0000
0000
0000
0230
0000
0000
0000
,
0301
1000
0010
0100
0010
1000
0001
0100
0001
1000
0010
0100
0010
1000
0001
0010
,
0001
1000
0100
0010
0001
0100
0010
1000
0001
0100
0001
1000
0010
0100
0010
1000
,
0001
0010
0001
0100
0010
0100
0001
1000
0100
0010
0001
0100
0010
1000
0001
0100
,
0001
0000
0000
1000
0000
0000
0100
0000
0000
1000
0000
0000
0010
0000
0000
0100
0000
0000
0001
0000
0000
1000
0000
0000
0100
0000
0000
0010
0000
0000
0001
0000
0000
1000
0000
0010
0000
0100
0000
0010
0000
0000
1000
0000
0001
0000
0100
0000
,
0001
1000
0010
0100
0010
1000
0001
0100
0001
1000
0100
0010
0001
1000
0100
1000
,
0010
0000
0000
0100
0000
0000
0001
0000
0000
1000
0000
0000
0100
0000
0000
0010
0000
0000
0001
0000
0000
0100
0000
0000
0001
0000
0000
1000
0000
0000
0010
0000
0000
0100
0000
0000
0001
0000
0000
1000
0000
0000
0010
0000
0100
0000
0010
0000
,
1000
0001
0010
0001
0100
0010
0100
0001
1000
0010
1000
0100
0010
0001
0100
0010
,
1000
0001
0100
0001
1000
0100
0010
0001
2000
0000
3010
0100
0010
1000
0002
0000
,
1003
0010
0100
0010
1000
0001
0010
0001
0100
0010
0100
0001
1000
0010
0100
0001
,
1000
0000
0000
0100
0000
0000
0010
0000
0000
0001
0000
0000
0100
0000
0000
0010
0000
0000
0100
0000
0000
0001
0000
0000
1000
0000
0000
0010
0000
0000
1000
0000
0000
0001
0000
0000
0100
0000
0000
0010
0000
0000
1000
0000
0010
0000
0100
0000
,
0001
1000
0100
1000
0010
0100
0001
0100
0010
1000
0001
0010
0100
1000
0001
0100
,
0010
1000
0001
0100
0001
1000
0100
0010
0001
1000
0001
0010
0100
1000
0001
0100
,
0010
0100
0001
1000
0010
0100
0010
1000
0001
0010
0001
1000
0010
0100
0010
1000
,
0001
0100
0001
1000
0100
0010
0001
0100
0010
1000
0001
0010
0001
1000
0100
1000
,
0010
0100
0001
0100
0010
1000
0001
1000
0010
0100
0001
1000
0100
0010
0001
0100
,
0001
1000
0100
0010
0001
0100
0010
1000
0001
0100
0001
0010
0100
1000
0001
0010
,
0001
1000
0010
0100
0010
1000
0001
0100
0001
1000
0100
1000
0010
0100
0001
1000
,
0100
0000
0000
1000
0000
0000
0001
0000
0000
0100
0000
0000
0010
0000
0000
0100
0000
0000
0001
0000
0000
1000
0000
0000
0010
0000
0100
0000
0010
0000
1000
0000
0001
0000
0100
0000
0001
0000
1000
0000
0010
0000
1000
0000
0000
0001
0000
0000
,
0100
0000
0000
0010
0000
0000
0100
0000
0000
0001
0000
0000
1000
0000
0000
0100
0000
0000
1000
0000
0000
0010
0000
0000
0100
0000
0000
0001
0000
0000
1000
0000
0000
0100
0000
0010
0000
0001
0000
1000
0000
0000
0010
0000
0000
0100
0000
0000
,
0010
1000
0001
0010
0001
0100
0010
1000
0010
0100
0001
1000
0100
0010
0001
1000
,
0001
0100
0010
1000
0001
0100
0001
1000
0100
0010
0001
1000
0010
1000
0001
0100
,
0010
0100
0001
1000
0100
1000
0001
0100
0010
1000
0001
0010
0001
0100
0010
0100
,
0001
1000
0010
1000
0001
0010
0100
1000
0010
0100
0001
1000
0100
1000
0010
0100
,
0010
1000
0001
0100
0001
1000
0100
0010
0001
0100
0001
1000
0010
0100
0010
1000
,
0001
0000
0010
0100
2000
0000
3010
0100
0020
0000
1030
0001
0100
0001
0040
0430
,
2300
0000
3010
0100
0020
0000
1030
0001
2000
0000
3100
0010
0001
0100
0004
4003
,
3020
0000
0130
0001
0200
0000
0310
1000
0002
0000
0013
0100
1000
0001
0400
0340
,
2030
0000
3001
0010
0002
0000
0103
0010
2000
0000
3001
0100
0010
0100
0004
4003
,
3020
0000
0130
0001
2000
0000
3010
0100
0020
0000
1030
0001
0100
0001
0040
0430
,
2300
0000
3010
0100
0020
0000
1030
0001
2000
0000
3100
0010
0001
0100
0004
4003
,
3020
0000
0130
0001
0200
0000
0310
1000
0002
0000
0013
0100
1000
0001
0400
0340
,
2030
0000
3001
0010
0002
0000
0103
0010
2000
0000
3001
0100
0010
0100
0004
4003
,
3010
0100
0010
1000
0001
0100
0001
0010
0100
1000
0001
0010
0001
1000
0010
0100
,
0010
1000
0001
0100
0001
1000
0100
0010
0001
1000
0010
1000
0001
0100
0010
0100
,
0001
1000
0010
1000
0001
0100
0010
1000
0001
0010
0001
0100
0010
0100
0001
1000
,
0010
1000
0001
0100
0010
1000
0001
0010
0001
1000
0100
1000
0010
0100
0001
1000
,
0100
0010
0001
1000
0010
0100
0001
0100
0010
1000
0001
1000
0100
0010
0001
1000
,
0010
0100
0010
1000
0001
0100
0001
1000
0100
0010
0001
1000
0010
0100
0010
1000
,
0001
0010
0001
1000
0100
0010
0001
1000
0010
1000
0001
0100
0010
1000
0001
0010
,
0200
0000
1300
0001
2000
0000
3010
0100
0001
0000
1000
0000
0010
0000
0200
0000
,
0301
1000
0010
1000
0001
0100
0010
0100
0001
1000
0100
0010
0001
1000
0010
0100
,
0001
1000
0100
0010
0001
1000
0100
1000
0001
0100
0010
1000
0001
0010
0001
0100
,
0010
0100
0001
1000
0100
1000
0010
0100
0010
1000
0001
0100
0001
0010
0100
1000
,
0001
0010
0001
0100
0010
1000
0001
0100
0001
1000
0100
0010
0001
1000
0010
0100
,
0010
1000
0001
0100
0001
1000
0100
0010
0001
0100
0010
1000
0001
0010
0001
1000
,
0100
1000
0001
0100
0010
1000
0001
0010
0001
1000
0100
0010
0001
1000
0010
1000
,
0001
0100
0001
1000
0010
0100
0010
1000
0001
0010
0001
1000
0100
1000
0010
0100
,
0001
1000
0100
1000
0001
0100
0010
1000
0004
0000
0000
0003
0004
0000
0000
0000
,
1003
0000
0010
0000
0100
0001
0010
0001
1000
0100
0010
0001
0100
0010
0100
0001
,
1000
0010
0100
0001
1000
0100
0010
0001
1000
0010
0100
0001
0100
0010
1000
0001
,
0010
0001
0100
0010
1000
0001
0100
0001
1000
0100
0010
0001
0100
0010
1000
0001
,
1000
0010
0100
0001
1000
0100
0010
0001
0100
0010
0100
0001
1000
0010
0100
0001
,
1000
0100
0010
0001
1000
0010
0100
0001
0100
0010
1000
0001
0010
0001
0100
0010
,
1000
0001
0100
0001
1000
0100
0010
0001
0100
0010
1000
0001
1000
0010
0100
0001
,
1000
0100
0010
0001
0100
0010
0100
0001
1000
0010
0100
0001
1000
0100
0010
0001
,
1000
0010
0100
0001
0100
0010
1000
0001
0400
0000
0000
0300
0400
0000
0000
0320
,
0000
0030
0000
0000
0000
0000
0000
0000
;

//---------------dance-single - ----------------
#NOTES:
     dance-single:
     :
     Medium:
     9:
     0.715,0.659,0.012,0.000,0.000,823.000,2.000,0.000,0.000,0.000:
0000
0000
0000
0000
,
0000
0000
0000
0000
,
0000
0000
0000
0000
,
0000
0000
0000
0000
,
1000
0001
0100
0010
,
1000
0001
0010
0100
,
1000
0001
0100
0010
,
1000
0001
0010
0100
,
1000
0001
0100
0010
,
1000
0100
1000
0100
1000
0100
1000
0000
,
0001
0100
0001
0100
0010
1000
0010
0100
,
0001
0010
0100
1000
0100
0010
0001
0000
,
0100
0010
1000
0010
0100
0010
1000
0010
,
0100
0001
0010
0100
1000
0100
0010
0000
,
0001
0100
0001
1000
0010
0100
0010
1000
,
0010
0100
0001
0010
0001
1000
0001
0000
,
1000
0010
1000
0001
0100
0010
1000
0001
,
1000
0010
0100
0001
0100
0001
0010
0000
,
1000
0010
1000
0100
,
0010
0100
0010
0100
0010
0100
0010
0000
,
0001
1000
0001
1000
0001
0100
0001
1000
,
0001
0010
0001
0100
0001
1000
0001
0010
,
0001
0100
0010
1000
0010
0100
0010
1000
,
0010
1000
0001
0100
,
0010
1000
0010
1000
0010
0100
0001
0010
,
0100
1000
0100
0010
0001
1000
0010
0100
,
0010
1000
0001
0010
0100
1000
0001
0100
,
0001
1000
0001
0100
,
0001
0010
0001
1000
0001
0010
0001
1000
,
0001
0100
0010
1000
0010
0100
0010
1000
,
0100
0010
0001
1000
0001
0100
0010
1000
,
0010
0010
0010
0010
,
1000
0001
0100
0001
1000
0001
0010
0001
,
1000
0001
0010
0001
1000
0001
0100
0001
,
1000
0100
1000
0001
1000
0001
0010
0001
,
1000
0001
0010
0001
1000
0000
0001
0000
,
0100
0010
0100
0010
0100
0010
0100
0010
,
1000
0010
1000
0010
1000
0010
1000
0000
,
0001
0100
0001
0100
0001
0100
0001
0000
,
1000
0010
1000
0010
1000
0000
1001
0000
,
0000
1000
0001
1000
0000
0000
0000
0000
,
0001
0100
0001
0100
0001
0100
0001
0000
,
1000
0010
0100
0001
,
0010
0100
1000
0001
,
0100
0000
0010
0000
1000
0000
0000
0001
,
0010
0000
0000
0100
1000
0000
0001
0000
,
0100
0100
0010
0010
,
1000
0001
0010
0100
,
1000
0000
0000
0000
,
0001
0000
0000
0000
,
0100
0000
0000
0000
,
0010
0000
0000
0000
,
1000
0001
0100
0010
,
1000
0100
0010
0001
,
0100
0010
0100
0010
0100
0010
0100
0000
,
0001
1000
0001
0000
0100
0010
0100
0000
,
0001
0010
0001
0010
0001
0010
0001
0000
,
0100
0010
0100
0010
0100
0010
0100
0000
,
0001
0010
0001
0010
0001
0010
0001
0000
,
1000
0001
1000
0001
1000
0001
1000
0000
,
0010
0100
0010
0100
0010
0100
0010
0000
,
1000
0100
1000
0100
1000
0100
1000
0000
,
0001
0000
0000
0000
,
0100
0000
0000
0000
,
0010
1000
0010
1000
0010
0100
0001
0010
,
0001
0100
0001
1000
0001
0010
0001
1000
,
0001
0100
0010
1000
0010
0100
0001
0010
,
0100
1000
0100
0010
0001
1000
0001
0000
,
0100
0010
0100
0010
0100
0010
1000
0010
,
0100
0001
0010
0100
1000
0100
0010
0001
,
0100
0001
1000
0001
0010
0001
1000
0001
,
0010
0100
1000
0100
,
0010
0001
0010
0001
0010
0001
0100
0001
,
1000
0010
0100
0010
1000
0001
0100
0001
,
1000
0001
0010
0100
1000
0100
0010
0001
,
1000
0001
0100
0010
,
1000
0010
1000
0010
0100
0001
0010
0100
,
1000
0000
0100
0010
1000
0001
0100
0001
,
1000
0001
0100
0010
1000
0010
0100
0010
,
1000
0010
0100
0001
1000
0001
0000
0000
,
1000
0001
1000
0001
1000
0001
1000
0001
,
0100
0010
0100
0010
0100
0010
0100
0010
,
1000
0100
1000
0100
1000
0100
1000
0100
,
0010
0001
0010
0001
0010
0001
0010
0000
,
0001
1000
0001
1000
0001
1000
0001
1000
,
0010
0100
0010
0100
0010
0100
0010
1000
,
0100
1000
0100
1000
0100
1000
0100
1000
,
0001
0100
0010
1000
0010
0000
0000
0000
,
1000
0100
0001
0100
1000
0010
1000
0010
,
1000
0010
0100
0010
0100
0010
0100
0000
,
0000
0011
0001
0010
0001
0010
0001
0000
,
0001
1000
0001
1000
0001
0100
0001
0000
,
0000
0000
0000
0000
,
0100
1000
0100
1000
0100
1000
0100
0000
,
0001
0100
0001
0100
0001
0100
0001
0000
,
1000
0001
1000
0001
1000
0001
1000
0000
,
0010
0100
0010
0100
0010
0100
0010
1000
,
0010
1000
0010
0100
0010
1000
0010
0100
,
0010
1000
0100
0010
0001
0100
0010
1000
,
0010
0100
0010
1000
0100
0010
0001
1000
,
0001
1000
0001
0100
0010
1000
0010
0100
,
0010
1000
0010
0100
0010
1000
0010
0100
,
0010
1000
0100
0010
0001
0010
0001
0010
,
0001
0010
0001
0010
0001
0010
0001
0010
,
0001
1000
0001
1000
0001
1000
0001
1000
,
0010
0100
0010
0100
0010
0100
0010
0100
,
0010
1000
0010
1000
0010
0100
0010
0100
,
0010
1000
0010
1000
0010
0100
0010
0100
,
0010
1000
0100
0010
0001
0100
0010
1000
,
0010
0100
0010
1000
0010
0100
0001
0010
,
0100
1000
0100
0010
0001
1000
0001
0010
,
0001
0010
0001
0010
0001
1000
0001
1000
,
0010
0100
0010
0100
0010
0100
0010
0100
,
0010
1000
0010
1000
0010
1000
0010
1000
,
0010
0100
0010
0100
0010
0100
0010
0100
,
0010
1000
0010
1000
0010
1000
0010
1000
,
0100
0010
0100
0010
0100
0010
0100
0010
,
0001
0010
0001
0010
0001
0010
0001
0010
,
0001
0100
0001
0100
0001
0100
0001
0100
,
0010
0100
0010
0100
0010
0100
0010
0100
,
0010
0100
0001
0100
0001
0100
0001
0010
,
0001
0100
0001
0010
0001
0100
0001
0010
,
0001
0100
0001
0010
0001
0100
0001
0010
,
0001
0100
0001
0010
0001
0100
0001
1000
,
0001
1000
0001
1000
0001
1000
0001
0100
,
0001
0100
0001
0100
0001
0100
0001
0100
,
0001
0010
0001
0010
0001
0010
0001
0010
,
0001
0100
0001
0100
0001
1000
0001
0000
;

//---------------dance-single - ----------------
#NOTES:
     dance-single:
     :
     Easy:
     6:
     0.403,0.349,0.006,0.000,0.000,464.000,1.000,0.000,0.000,0.000:
0000
0000
0000
0000
,
0000
0000
0000
0000
,
0000
0000
0000
0000
,
0000
0000
0000
0000
,
1000
0001
0100
0010
,
1000
0001
0010
0100
,
1000
0001
0100
0010
,
1000
0001
0010
0100
,
1000
0001
0100
0010
,
0010
1000
0100
1000
,
0010
1000
0001
1000
,
0010
1000
0100
1000
,
0100
1000
0001
1000
,
0001
1000
0001
1000
,
0010
1000
0001
1000
,
0100
1000
0100
0100
,
1000
0001
1000
0010
,
1000
1000
0100
0010
,
0100
1000
0010
1000
,
0010
0100
0010
0001
,
0100
0001
0010
0100
,
1000
0100
0010
0100
,
0001
1000
0001
1000
,
0100
1000
0010
1000
,
0100
1000
0100
1000
,
0001
0010
0001
1000
,
0001
0100
0010
0100
,
0010
1000
0100
1000
,
0001
0100
0010
0100
,
0001
0100
0010
1000
,
0100
0010
0001
1000
,
0010
1000
1000
0001
,
0100
1000
0100
0100
,
0001
0010
1000
0010
,
0010
0100
1000
0010
,
0100
0010
0100
1000
,
1000
0001
0100
0100
,
0001
0010
0001
0100
,
0010
1000
1000
0100
,
0100
0010
0001
0010
,
0000
0100
0100
0000
,
0100
0100
0010
0100
,
0100
0001
1000
1000
,
0001
1000
0010
1000
,
1000
0100
0100
0000
,
0010
0000
1000
0010
,
1000
0100
0100
1000
,
0010
1000
0100
1000
,
1000
0000
0000
0000
,
0100
0000
0000
0000
,
1000
0000
0000
0000
,
0010
0000
0000
0000
,
1000
0010
0100
0010
,
0100
0001
0010
0100
,
0100
1000
0010
1000
,
0010
0010
1000
0010
,
0000
0010
0100
1000
,
0001
0010
0001
1000
,
0100
0100
0010
0010
,
0001
0001
0100
0100
,
0001
0001
0010
0100
,
0100
1000
1000
1000
,
0100
0000
0000
0000
,
0100
0000
0000
0000
,
0010
1000
0001
1000
,
0100
0010
0001
0100
,
0001
0001
0010
0010
,
0001
1000
0100
1000
,
1000
0001
1000
1000
,
0010
1000
0000
1000
,
0010
0000
0010
0100
,
0100
0010
0100
0010
,
0010
1000
0001
1000
,
0001
0010
0001
1000
,
1000
0100
0100
1000
,
0100
0100
0010
0010
,
0001
0100
0010
1000
,
0010
1000
0010
0010
,
0010
0100
0010
1000
,
1000
0010
0010
1000
,
0100
0010
0001
0010
,
0100
0100
0010
0100
,
1000
1000
0100
1000
,
0100
0100
0010
0001
,
0010
0100
1000
0100
,
1000
1000
0100
0010
,
0001
0010
0100
1000
,
0010
0100
0010
0000
,
1000
1000
1000
0001
,
0001
0001
1000
0001
,
0000
1000
0100
0001
,
0100
1000
1000
0010
,
0000
0000
0000
0000
,
1000
0001
1000
0001
,
1000
0010
0010
1000
,
1000
0001
0100
0001
,
0100
0001
0010
0001
,
0100
0001
1000
0010
,
1000
0010
0100
0000
,
0001
1000
0100
1000
,
0100
0010
0001
0100
,
0010
1000
0100
0010
,
0001
1000
0010
1000
,
1000
0100
0010
0100
,
1000
1000
0100
0010
,
0001
0100
0001
0010
,
0100
1000
0010
0001
,
0010
1000
0010
0100
,
0001
0100
0010
1000
,
0001
0100
0001
0010
,
0010
0100
1000
0001
,
0010
0100
0010
0100
,
0010
0001
0010
0100
,
1000
0001
0100
0001
,
1000
0001
0010
0100
,
1000
0010
0100
0001
,
1000
0100
0010
0001
,
0010
0010
1000
0010
,
0010
0010
1000
0010
,
0001
1000
0010
0010
,
1000
1000
0010
0100
,
0100
0100
0010
0100
,
0001
0100
0001
0100
,
0001
1000
0100
0100
,
0001
0100
1000
0010
,
0100
0001
1000
0001
,
0010
0010
1000
0010
,
1000
0100
0001
1001
;

//---------------dance-single - ----------------
#NOTES:
     dance-single:
     :
     Beginner:
     1:
     0.097,0.113,0.000,0.000,0.000,112.000,0.000,0.000,0.000,0.000:

0000
0000
0000
0000
,
0000
0000
0000
0000
,
0000
0000
0000
0000
,
0000
0000
0000
0000
,
0000
0000
0000
0000
,
1000
0000
0000
0000
,
0010
0000
0000
0000
,
0100
0000
0000
0000
,
0001
0000
0000
0000
,
0010
0000
0000
0000
,
0100
0000
0000
0000
,
1000
0000
0000
0000
,
0010
0000
0000
0000
,
0100
0000
0000
0000
,
0001
0000
0000
0000
,
0100
0000
0000
0000
,
0010
0000
0000
0000
,
1000
0000
0000
0000
,
0010
0000
0000
0000
,
0100
0000
0000
0000
,
0001
0000
0000
0000
,
0100
0000
0000
0000
,
0010
0000
0000
0000
,
1000
0000
0000
0000
,
0010
0000
0000
0000
,
0100
0000
0000
0000
,
0001
0000
0000
0000
,
0100
0000
0000
0000
,
0010
0000
0000
0000
,
0100
0000
0000
0000
,
0010
0000
0000
0000
,
0100
0000
0000
0000
,
0010
0000
0000
0000
,
1000
0000
0000
0000
,
0010
0000
0000
0000
,
0100
0000
0000
0000
,
0001
0000
0000
0000
,
0100
0000
0000
0000
,
0010
0000
0000
0000
,
0100
0000
0000
0000
,
0010
0000
0000
0000
,
1000
0000
0000
0000
,
0010
0000
0000
0000
,
0100
0000
0000
0000
,
0100
0000
0000
0000
,
0010
0000
0000
0000
,
0100
0000
0000
0000
,
0010
0000
0000
0000
,
0100
0000
0000
0000
,
0000
0000
0000
0000
,
1000
0000
0000
0000
,
0000
0000
0000
0000
,
0001
0000
0000
0000
,
0000
0000
0000
0000
,
1000
0000
0000
0000
,
0000
0000
0000
0000
,
0010
0000
0000
0000
,
0000
0000
0000
0000
,
0100
0000
0000
0000
,
0000
0000
0000
0000
,
0010
0000
0000
0000
,
0000
0000
0000
0000
,
0100
0000
0000
0000
,
0000
0000
0000
0000
,
0010
0000
0000
0000
,
1000
0000
0000
0000
,
0001
0000
0000
0000
,
0100
0000
0000
0000
,
0010
0000
0000
0000
,
1000
0000
0000
0000
,
0001
0000
0000
0000
,
0100
0000
0000
0000
,
0010
0000
0000
0000
,
1000
0000
0000
0000
,
0001
0000
0000
0000
,
0100
0000
0000
0000
,
0010
0000
0000
0000
,
1000
0000
0000
0000
,
0010
0000
0000
0000
,
0100
0000
0000
0000
,
0010
0000
0000
0000
,
1000
0000
0000
0000
,
0010
0000
0000
0000
,
0100
0000
0000
0000
,
0001
0000
0000
0000
,
1000
0000
0000
0000
,
0100
0000
0000
0000
,
0010
0000
0000
0000
,
0100
0000
0000
0000
,
0001
0000
0000
0000
,
0100
0000
0000
0000
,
0010
0000
0000
0000
,
1000
0000
0000
0000
,
0001
0000
0000
0000
,
0100
0000
0000
0000
,
0010
0000
0000
0000
,
1000
0000
0000
0000
,
0001
0000
0000
0000
,
0100
0000
0000
0000
,
0010
0000
0000
0000
,
1000
0000
0000
0000
,
0010
0000
0000
0000
,
0100
0000
0000
0000
,
0010
0000
0000
0000
,
1000
0000
0000
0000
,
0100
0000
0000
0000
,
0010
0000
0000
0000
,
0100
0000
0000
0000
,
0010
0000
0000
0000
,
0100
0000
0000
0000
,
0010
0000
0000
0000
,
0100
0000
0000
0000
,
0010
0000
0000
0000
,
1000
0000
0000
0000
,
0001
0000
0000
0000
,
0100
0000
0000
0000
,
0010
0000
0000
0000
,
1000
0000
0000
0000
,
0100
0000
0000
0000
,
0010
0000
0000
0000
,
0100
0000
0000
0000
,
0010
0000
0000
0000
,
1000
0000
0000
0000
,
0001
0000
0000
0000
,
0100
0000
0000
0000
;
