#TITLE:Magus Night Fever;
#SUBTITLE:;
#ARTIST:UNDEAD CORPORATION;
#TITLETRANSLIT:;
#SUBTITLETRANSLIT:;
#ARTISTTRANSLIT:;
#CREDIT:WinDEU;
#BANNER:../Tachyon Delta-bn.png;
#BACKGROUND:../Tachyon Delta-bg.png;
#LYRICSPATH:;
#CDTITLE:;
#MUSIC:Magus Night Fever.ogg;
#OFFSET:-0.525;
#SAMPLESTART:21.441;
#SAMPLELENGTH:12.000;
#SELECTABLE:YES;
#BPMS:0.000=280.000;
#STOPS:;
#BGCHANGES:;
// cache tags:
#FIRSTBEAT:0.000;
#LASTBEAT:504.000;
#SONGFILENAME:Songs/Tachyon Delta/Magus Night Fever - [WinDEU]/Magus Night Fever.sm;
#HASMUSIC:1;
#HASBANNER:1;
#MUSICLENGTH:110.860;
// end cache tags

//---------------dance-single - WinDEU----------------
#NOTES:
     dance-single:
     WinDEU:
     Challenge:
     17:
     1.000,1.000,0.045,0.451,1.000,1158.000,5.000,50.000,0.000,0.000:

1000
0100
0010
0100
1000
0010
0100
0010
,
1000
0001
0010
0100
0010
0001
0100
0010
,
1000
0000
0010
0000
0100
0000
0001
0000
1000
0000
0100
0000
1000
0000
0001
1000
,
0100
0010
0001
1000
0100
1000
0001
0010
0001
1000
0100
0010
0002
0000
0000
0000
,
0103
0010
2000
3010
0100
0001
0020
0031
,
0100
0010
2000
3010
0100
0001
2000
3100
,
0010
0001
0020
0130
1000
0010
0200
0301
,
0020
0030
0110
0000
1100
0000
0000
0000
,
1000
0100
0010
0100
1000
0010
0100
0010
,
1000
0001
0010
0100
0010
0001
0100
0010
,
0100
0001
1000
0100
0010
0100
1000
0010
,
0100
0001
0100
0010
1000
0010
0100
0001
,
1000
0100
0010
0100
1000
0010
0100
0010
,
1000
0001
0010
0100
0010
0001
0100
0001
,
0100
0000
0001
1000
0010
0100
0001
1000
0010
1000
0001
0100
0001
1000
0010
0100
,
0002
0023
0230
0000
,
1300
0010
0100
0010
1000
0100
0010
0100
,
1000
0001
0010
0100
0010
0001
0100
0010
,
0100
0001
1000
0010
0100
0010
1000
0001
,
0100
0001
1000
0100
1000
0001
0010
0100
,
0010
0001
1000
0100
0010
0100
1000
0001
,
0100
0010
0100
0001
1000
0001
0100
0001
,
0100
0000
0001
0100
0001
0000
1000
0100
1000
0000
0100
0000
0010
0000
0001
0000
,
0200
0000
0300
0000
0001
0100
0001
1000
0020
0000
0030
0000
0000
0000
0000
0000
,
0100
0010
1000
0010
0100
0001
0010
0100
,
0010
0001
1000
0100
0010
0100
2000
0000
,
3010
0100
0001
0100
0010
1000
0001
0010
,
0100
0010
0001
1000
0010
0100
0002
0000
,
0103
0010
1000
0010
0100
0001
0010
0100
,
1000
0100
0010
0001
1000
0100
2000
0000
,
3001
0010
0100
1000
0001
0010
0001
1000
0100
1000
0001
0010
0100
1000
0001
0010
,
0001
1000
0100
0010
0001
1000
0001
0010
0100
1000
0001
0010
0001
1000
0100
1000
,
0001
1000
0010
0100
0001
0100
0010
1000
,
0001
1000
0010
1000
0001
0010
0200
0000
,
1300
0100
0010
0100
1000
0001
0010
0001
,
1000
0001
0100
0010
1000
0010
0200
0000
,
0301
1000
0100
1000
0001
0010
0100
0010
,
0001
1000
0010
1000
0001
0100
0002
0000
,
1003
0010
0100
0001
1000
0010
1000
0001
0100
0001
1000
0010
0100
0001
0100
0010
,
2000
0000
3002
0000
,
0013
0100
0010
0001
1000
0100
0010
0100
,
1000
0010
0100
0010
1000
0001
1000
0010
,
0100
0001
0100
0010
1000
0001
0010
0100
,
0010
0001
1000
0100
1000
0010
0100
0001
,
0010
0100
0010
0001
1000
0100
1000
0010
,
0100
0001
0100
0010
1000
0001
0100
0001
,
1000
0100
0010
0001
1000
0001
0010
0100
1000
0001
0010
0001
1000
0100
0010
0001
,
2000
3002
0203
0000
,
0310
0100
0001
1000
0001
0100
0010
1000
,
0010
0100
0001
1000
0100
1000
0002
0000
,
0013
0100
0010
0001
1000
0001
1000
0010
,
0100
0001
0100
0001
1000
0010
2000
0000
,
3001
0010
0100
0010
0001
1000
0100
1000
,
0010
0100
0001
1000
0001
0010
0200
0000
,
1300
0000
0100
0000
0010
0000
0100
0000
1000
0100
1000
0000
0001
0100
0001
0000
,
0100
0000
0010
0000
1000
0000
0010
0000
0100
0001
0100
0000
0001
1000
0001
0000
,
1000
0100
0010
0001
1000
0001
0100
0010
,
1000
0010
0100
0001
1000
0100
0020
0000
,
0031
0100
0010
0100
0001
1000
0100
1000
,
0010
0100
0001
0010
0100
1000
0020
0000
,
0130
0001
1000
0100
1000
0001
0010
0100
,
1000
0100
0010
0001
0100
0010
2000
0000
,
3001
0100
0001
1000
0010
0100
0001
1000
0010
1000
0001
0100
0001
1000
0010
0100
,
0002
0000
0000
0000
0000
0000
0000
0000
1003
0100
0010
0001
1000
0100
0010
0001
,
1000
0010
0100
0010
1000
0010
0100
0001
,
1000
0100
1000
0010
0100
0001
1000
0100
,
1000
0001
0010
0100
0010
0001
0100
0010
,
1000
0010
0100
0001
1000
0100
1000
0010
,
0100
0001
0010
0100
1000
0100
0010
0001
,
1000
0000
0001
0010
0100
1000
0100
0010
0001
1000
0001
0010
0100
1000
0001
1000
,
0001
0000
1000
0000
0001
0000
0100
0000
0001
1000
0010
0100
0001
1000
0010
1000
,
0001
0100
0001
1000
0010
0100
0001
0100
0010
1000
0002
0000
0000
0000
0000
0000
,
1003
0100
1000
0020
0000
1030
0001
0100
,
0001
0020
0000
0031
1000
0100
1000
0020
,
0000
1030
0001
0100
0001
0020
0000
0031
,
1000
0100
1000
0001
0100
0020
0000
0030
,
0100
0001
1000
0200
0000
1300
0001
0100
,
0010
0000
2000
0000
0000
0000
3010
0000
0100
0000
0001
0000
1000
0010
0100
0001
,
0100
0010
1000
0001
0100
0001
1000
0010
2000
0000
0000
0000
0000
0000
3002
0000
,
0000
0000
0000
0000
2003
0000
0000
0000
0000
0000
3100
0000
1000
0100
1000
0001
,
0010
0001
0010
0000
0001
1000
0001
1000
,
0000
0010
0000
0100
0010
0100
0001
0000
,
1000
0100
0010
0001
1000
0100
1000
0001
0010
0001
1000
0100
0010
0001
0010
0100
,
1000
0010
0100
0001
1000
0100
1000
0001
,
0010
0100
1000
0100
0010
0001
1000
0001
0100
0010
1000
0010
,
0100
0001
1000
0100
1000
0010
1000
0001
0100
0001
0010
0001
,
1000
0010
0100
0010
1000
0001
1000
0100
0010
0100
1000
0001
,
0010
0100
0010
0001
1000
0100
1000
0001
0100
0001
0010
0001
,
1000
0010
0100
0001
0100
0010
1000
0100
1000
0001
0010
0100
,
0010
0001
0100
0010
1000
0001
0100
0010
0100
0001
1000
0010
,
1000
0001
0010
0100
1000
0100
0010
0001
1000
0100
0010
0001
,
1000
0010
0100
0001
0100
0010
1000
0001
1000
0010
0100
0001
,
1000
0100
1000
0001
0010
0001
1000
0010
1000
0001
0100
0001
,
1000
0010
0100
0010
1000
0010
0100
0001
0010
0100
0010
0001
,
0010
0100
1000
0001
0100
0010
0100
0001
1000
0100
1000
0001
,
0010
0100
1000
0100
0010
0001
1000
0001
0100
0010
0100
0001
,
2000
0000
0000
3100
1000
0001
0010
0100
0010
0001
1000
0100
,
0010
0001
1000
0001
0100
0010
1000
0010
0100
0001
1000
0010
,
0200
0000
0301
0010
0100
0010
0001
1000
0100
1000
0010
0100
,
0001
0101
1001
1100
,
0100
1000
0010
0100
0001
0100
0010
1000
0001
0010
0100
1000
,
0010
0100
0010
1000
0100
0010
0001
1000
0001
0100
0010
1000
,
0001
1000
0010
0100
0001
1000
0100
1000
0001
0010
0001
1000
,
0010
0100
0001
1000
0100
1000
0001
0100
0010
1000
0001
0010
,
0100
0010
0001
1000
0100
0010
0001
0010
0100
1000
0001
0100
,
0010
1000
0001
0100
0010
0100
0001
1000
0010
0100
0001
1000
,
0100
1000
0001
0010
0100
0010
0001
1000
0001
0100
0010
1000
,
0001
1000
0100
0010
0001
0010
0100
1000
0001
0100
0010
1000
,
0010
0100
0001
1000
0100
1000
0010
1000
0001
0100
0001
0010
,
0001
1000
0010
0100
0010
1000
0001
1000
0100
0010
0001
0010
,
0100
0010
0001
1000
0010
0100
0010
1000
0001
0100
0001
1000
,
0100
0010
0100
1000
0001
0100
0001
1000
0010
0100
0001
1000
,
0200
0000
0000
0310
0001
0010
0100
1000
0001
0100
0010
1000
,
0010
0100
0001
1000
0100
0010
0002
0000
0000
0003
0000
0000
,
1000
0010
0100
0001
0100
0010
1000
0001
,
0010
0100
0010
0001
1000
0100
1000
0010
,
0100
0001
0100
0010
1000
0001
0010
0100
,
0010
0001
1000
0001
0100
0010
1000
0100
,
1000
0001
1000
0010
0100
0001
1000
0001
,
0010
0100
1000
0001
0100
0010
0100
0001
,
1000
0010
1000
0001
0100
0010
1000
0001
0100
0001
1000
0010
0100
0001
1000
0001
,
2000
0000
3200
0000
,
0310
0001
0100
0001
0010
0100
1000
0010
,
1000
0000
0001
0000
1000
0000
0100
0000
1000
0100
0010
0001
1000
0100
1000
0001
,
0010
0100
1000
0001
0010
0001
1000
0100
0010
0001
1000
0001
0010
0100
1000
0001
,
2000
0000
0000
0000
3001
1000
0001
0200
,
0300
0000
0000
0000
;
