#TITLE:Shooting Star;
#SUBTITLE:Itsuka Todoku, Ano Sora ni;
#ARTIST:Sakakibara Yui;
#TITLETRANSLIT:;
#SUBTITLETRANSLIT:;
#ARTISTTRANSLIT:;
#CREDIT:Sanjuro;
#BANNER:yui.jpg;
#BACKGROUND:Shooting Star.jpg;
#LYRICSPATH:;
#CDTITLE:Sanjuro.png;
#MUSIC:shooting star op.mp3;
#OFFSET:0.980;
#SAMPLESTART:68.680;
#SAMPLELENGTH:10.160;
#SELECTABLE:YES;
#BPMS:0.000=145.000;
#STOPS:;
#BGCHANGES:2.417=itsukatodoku_op2.avi=1.000=1=0=1,
332.000=Shooting Star.jpg=1.000=0=0=1,
99999=-nosongbg-=1.000=0=0=0 // don't automatically add -songbackground-
;
// cache tags:
#FIRSTBEAT:4.000;
#LASTBEAT:333.000;
#SONGFILENAME:Songs/new cedric/[Sanjuro] Shooting Star - Sakakibara Yui/shooting star op.sm;
#HASMUSIC:1;
#HASBANNER:1;
#MUSICLENGTH:145.092;
// end cache tags

//---------------dance-single - ----------------
#NOTES:
     dance-single:
     :
     Challenge:
     11:
     0.894,0.944,0.572,0.103,0.872,810.000,83.000,15.000,0.000,0.000:
0000
0000
0000
0000
,
0120
0000
0000
0000
0000
0000
0000
0000
0000
0000
0030
0000
0001
1000
0001
1000
,
1001
0001
1000
0000
1000
0100
0000
0100
1000
0000
0001
1000
0000
1000
0001
0000
,
0100
0010
0001
0000
0010
1000
0000
1000
0010
0000
0001
0010
0000
0010
0001
0000
,
0001
1000
0001
0000
0100
1000
0000
1000
0100
0000
0001
0100
0000
0100
0001
0000
,
0010
0100
0010
0000
1000
0100
0000
0100
1000
0000
0001
0010
0000
0010
0001
0000
,
0100
0001
0100
0000
0010
0100
0000
0100
0010
0000
1000
0001
0000
0001
1000
0000
,
1000
0100
0010
0000
1000
0100
0000
0100
1000
0000
0010
1000
0000
1000
0010
0000
,
0001
0010
0100
0000
0010
0001
0000
0010
0001
0000
0010
0001
0000
0010
0001
0000
,
1001
0000
0000
0000
2002
0000
0000
3003
2002
0000
0000
3003
2002
0000
0000
3003
,
1001
0000
0001
0000
1000
0010
0000
0010
1000
0000
0001
0000
0010
0100
0000
0010
,
0100
0000
1000
0000
0010
0100
0000
1000
0000
0010
0100
0000
0010
0001
0000
0010
,
0001
0000
0010
0000
0001
0100
0000
0001
0100
0000
0001
0000
1000
0100
0000
1000
,
0100
0000
0001
0000
0100
0010
0000
0001
0000
0010
0100
0000
0010
0001
0010
0100
,
1000
0000
1000
0000
0001
0100
0000
0100
0001
0000
0010
0000
0001
0100
0000
0100
,
0001
0000
0100
0000
0010
1000
0000
0100
0000
1000
0010
0000
0010
1000
0000
0001
,
1000
0000
0100
0000
0010
0001
0000
0010
0001
0000
0100
0000
1000
0001
0000
0001
,
1000
0000
1000
0000
0001
0100
0000
0100
0001
0000
0001
0000
1000
0100
0010
0001
,
0010
0000
0001
0000
1100
0000
0010
0000
0100
0000
0001
0010
0001
0000
1000
0000
,
0010
0000
0100
0000
0001
0000
1000
0000
0010
0001
0010
0000
1000
0000
0001
0000
,
0010
0000
1000
0100
1000
0000
0001
0000
1000
0000
0100
0010
0100
0000
0010
0000
,
0100
0000
0001
0000
1000
0000
0010
0000
1000
0001
1000
0000
1001
0000
0001
1000
,
1001
0001
1010
0100
0010
1000
0110
1000
,
0010
0100
0011
1000
0001
0100
0010
0100
,
1000
0100
1000
0000
1000
0100
0000
0100
1000
0000
1000
0100
0000
0100
1000
0000
,
1001
0000
0000
0000
0002
0000
0000
0003
0020
0000
0000
0030
0200
0000
0000
0300
,
1100
0000
0001
0000
0100
0010
0000
0010
0100
0000
0001
0000
0010
1000
0000
0010
,
1000
0000
0100
0000
0010
1000
0000
0100
0000
0010
1000
0000
0010
0001
0000
0010
,
0001
0000
0010
0000
0001
1000
0000
0001
1000
0000
0001
0000
0100
1000
0000
0100
,
1000
0000
0001
0000
1000
0010
0000
0001
0000
0010
1000
0000
0010
0001
0000
0001
,
0100
0000
0100
0000
0001
1000
0000
1000
0001
0000
0010
0000
0001
1000
0000
1000
,
0001
0000
1000
0000
0001
0010
0000
0010
0000
1000
0100
0000
0001
1000
0000
0001
,
0100
0000
1000
0000
0010
0001
0000
0010
0001
0000
1000
0000
0100
0001
0000
0001
,
0100
0000
0100
0000
0001
1000
0000
1000
0001
0010
0001
0010
0001
0010
0001
0000
,
1100
0000
0001
0000
1100
0000
0010
0000
1000
0000
0001
0010
0001
0000
0100
0000
,
0010
0000
1000
0000
0001
0000
0100
0000
0010
0001
0010
0000
0100
0000
0001
0000
,
0010
0000
0100
1000
0100
0000
0001
0000
0100
0000
1000
0010
1000
0000
0010
0000
,
1000
0000
0001
0000
0100
0000
0010
0000
0100
0001
0100
0000
0101
0000
0010
0000
,
0101
0001
0110
1000
0010
0100
1010
0100
,
0010
0000
1000
0000
0011
0000
0100
0000
0001
0000
1000
0000
0010
0000
1000
0100
,
1000
0000
0001
0010
0001
0000
0100
0000
0001
0010
0000
0000
0100
0000
0010
0100
,
0010
0000
0100
0000
0001
0010
0000
0000
1000
0000
0001
0010
0001
1000
0001
1000
,
0001
0000
0010
0000
1100
0000
0001
0010
0001
0000
1000
0000
0101
0000
1000
0000
,
0010
0000
0001
0000
1100
0000
0100
0001
0100
0000
0010
0000
1001
0000
0100
0000
,
0001
0000
1000
0000
0011
0000
1000
0100
1000
0000
0010
0000
1100
0000
0010
0000
,
1000
0000
0100
0000
0011
0000
1000
0100
1000
0000
0010
0000
1001
0000
0010
0000
,
0100
0000
1000
0000
0011
0000
0001
1000
0001
0000
0100
0000
1010
0000
0001
0000
,
1000
0000
0010
0000
1100
0000
0010
0001
0010
0000
0100
0000
0011
0000
0100
0000
,
1001
0000
0000
0001
1000
0010
0100
0101
,
0000
0000
1010
0000
1010
0000
1010
0000
0000
0000
0011
0000
0100
0001
0100
0001
,
0100
0000
1000
0000
0100
0000
0010
0100
0010
0000
0100
0000
1000
0000
0010
0000
,
1001
0100
0011
0011
0100
1001
0001
1100
,
1000
1001
1002
1000
1000
0100
0100
0100
,
0010
0000
0010
0000
0013
0000
1000
0000
0001
0010
0000
0010
0001
0000
0011
0000
,
0011
0100
1100
1001
0010
0110
0001
0010
,
0100
0001
1100
1100
0010
0100
0010
1001
,
0100
0001
0100
1001
1001
0110
0110
1001
,
0000
0000
0002
0000
2000
0000
0000
0000
3003
0000
0010
0000
0100
0010
0100
0010
,
0100
0000
0010
0000
0001
0000
0100
0001
0100
0000
0001
0000
0010
0000
0100
0000
,
1010
0001
1100
1100
0001
1010
1000
0011
,
0010
1010
2010
0010
0010
0001
0001
0001
,
0100
0000
0100
0000
3100
0000
0010
0000
1000
0100
0000
0100
1000
0000
1100
0000
,
1100
0001
0011
1010
0100
0101
1000
0100
,
0001
1000
0011
0011
0100
0001
0100
2010
,
0010
0000
0010
0000
0010
3000
0011
1010
,
0001
0000
0100
0000
0011
0000
0100
0010
0000
0100
0010
0000
1000
0100
0010
0001
,
1000
0100
0010
0000
0010
0001
0000
0001
0010
0000
1000
0010
0000
0010
1000
0000
,
0001
0100
1000
0000
0100
0010
0000
0010
0100
0000
1000
0100
0000
0100
1000
0000
,
1000
0010
1000
0000
0001
0010
0000
0010
0001
0000
1000
0001
0000
0001
1000
0000
,
0100
0001
0100
0000
0010
0001
0000
0001
0010
0000
1000
0100
0000
0100
1000
0000
,
0001
0100
0001
0100
0010
1000
0010
1000
0100
0010
0001
0010
0100
1000
0001
1000
,
0001
0010
0100
1000
0001
1000
0001
0010
0100
1000
0010
0100
0001
0010
0100
1000
,
0001
0001
1000
0000
1000
1000
0000
0001
0001
0000
1000
1000
0000
0001
0001
0000
,
1001
0000
1010
0001
1010
0001
1010
0001
,
1000
0001
1000
0000
0001
0010
0000
1000
0100
0000
0001
0010
0000
1000
0100
0000
,
0001
0100
0001
0000
0001
0100
0000
0100
0001
0000
0001
0100
0000
0100
0001
0000
,
0100
1000
0100
0000
0100
0001
0000
0010
1000
0000
0100
0001
0000
0010
1000
0000
,
0010
0100
1000
0000
0001
1000
0000
0100
1000
0000
0001
1000
0000
0100
1000
0000
,
0001
0010
0001
0010
0001
0010
0001
0000
0000
0000
0000
0000
1000
0100
1000
0100
1000
0100
1000
0000
0000
0000
0000
0000
,
1000
0100
0010
0001
1000
0100
0010
0001
1000
0100
0010
0001
1000
0100
0010
0001
,
1000
0100
0010
0001
1000
0100
0010
0001
1000
0100
0010
0001
1000
0100
0010
0001
,
1000
0100
0010
0001
1000
0100
0010
0001
1000
0100
0010
0001
1000
0100
0010
0001
,
1000
0001
1000
0001
1000
0001
1000
0001
1000
0001
1000
0001
1000
0001
1000
0001
,
1001
0000
0000
0000
;

//---------------dance-single - ----------------
#NOTES:
     dance-single:
     :
     Hard:
     9:
     0.638,0.715,0.737,0.214,0.279,510.000,107.000,31.000,0.000,0.000:
0000
0000
0000
0000
,
2002
0000
0000
3003
,
0002
0003
0000
0000
0000
0000
0000
0000
2000
3000
0000
0000
0000
0000
0000
0000
,
0020
0030
0000
0000
0000
0000
0000
0000
0200
0300
0000
0000
0000
0000
0000
0000
,
2000
3000
0000
0000
0000
0000
0000
0000
0000
0000
0000
0000
0020
0030
0000
0000
,
0200
0300
0000
0000
0000
0000
0000
0000
0002
0003
0000
0000
0000
0000
0000
0000
,
0200
0300
0000
0000
0000
0000
0000
0000
0000
0000
0000
0000
0000
0000
0200
0320
,
0032
0003
0000
0000
0020
0030
0000
0000
2000
3000
0000
0000
0002
0003
0000
0000
,
0002
1003
0001
0000
0001
1000
0000
0001
1000
0000
0001
1000
0000
0001
1000
0000
,
1001
0000
0000
0000
2000
0000
0000
3000
0200
0000
0000
0300
0020
0000
0000
0030
,
1001
0001
1001
1000
0000
0100
1010
0001
,
0000
0000
0001
0000
1010
0000
1000
0000
0000
0010
0100
0000
0110
0000
0100
0000
,
0000
0010
1100
0010
0000
0001
0101
0100
,
0000
0000
1000
0000
0101
0000
0010
0000
0000
0010
0100
0000
0011
0000
0000
0000
,
0101
0100
0101
0001
0000
0010
1001
0100
,
0000
0000
0100
0000
1001
0000
0001
0000
0000
1000
0010
0000
1010
0000
0010
0000
,
0000
1000
0011
1000
0000
0100
0110
0010
,
0000
0000
0001
0000
0110
0000
1000
0000
0000
1000
0010
0000
1100
0000
0001
0010
,
0001
0000
0000
0000
1002
0000
1003
0000
0000
0000
1000
0100
1000
0000
0000
0000
,
0001
0000
0000
0000
1100
0000
0000
0000
0001
0010
0001
0000
0000
0000
1001
0000
,
1000
0000
0010
0100
0010
0000
0000
0000
0000
0000
0001
0010
0100
0000
0000
0000
,
1000
0000
0000
0000
0101
0000
0000
0000
0010
0000
0000
0000
1100
0000
1000
0100
,
1100
1001
0100
0011
,
1000
1010
0100
0011
,
1000
0010
1000
0000
1000
0010
0000
1000
0010
0000
1000
0010
0000
1000
0010
0000
,
1010
0000
0000
0000
0002
0000
0000
0003
2000
0000
0000
3000
0002
0000
0000
0003
,
1001
1000
1001
1000
0000
1000
0101
0010
,
0000
0000
0010
0000
0101
0000
0100
0000
0000
0001
1000
0000
1001
0000
1000
0000
,
0000
0001
1100
0001
0000
0010
1010
1000
,
0000
0000
0100
0000
1010
0000
0001
0000
0000
0001
1000
0000
0011
0000
0000
0000
,
1010
1000
1010
0010
0000
0001
0110
1000
,
0000
0000
1000
0000
0110
0000
0010
0000
0000
0100
0001
0000
0101
0000
0001
0000
,
0000
0100
0011
0100
0000
1000
1001
0001
,
0000
0000
0010
0000
1001
0000
0100
0000
0000
0100
0001
0000
1100
0000
0010
0001
,
0010
0000
0000
0000
0120
0000
0130
0000
0000
0000
0100
1000
0100
0000
0000
0000
,
0010
0000
0000
0000
1100
0000
0000
0000
0010
0001
0010
0000
0000
0000
0110
0000
,
0100
0000
0001
1000
0001
0000
0000
0000
0000
0000
0001
0010
0100
0000
0000
0000
,
0100
0000
1010
0000
0001
0000
1100
0100
,
1100
0110
1000
0011
,
0100
0000
0000
0000
0101
0000
0000
0000
1000
0000
0000
0000
0011
0000
1000
0010
,
1000
0000
1000
0010
0000
0000
0010
0000
1000
0010
0000
0000
0100
0000
0100
0010
,
0000
0000
1000
0000
0001
0100
0000
0000
1000
0000
0001
0010
0000
0000
0000
0000
,
1001
0000
0000
0000
1001
0000
0000
1000
0001
0000
0000
0000
1001
0000
0000
0000
,
1010
0000
0000
0000
0011
0000
0000
1000
0100
0000
0000
0000
0011
0000
0000
0000
,
1010
0000
0000
0000
0110
0000
0000
0001
1000
0000
0000
0000
0011
0000
0000
0000
,
1100
0000
0000
0000
0110
0000
0000
0001
0100
0000
0000
0000
1001
0000
0000
0000
,
1100
0000
0000
0000
0101
0000
0000
1000
0010
0000
0000
0000
0101
0000
0000
0000
,
1100
0000
0000
0000
0011
0000
0000
0010
0100
0000
0000
0000
0011
0000
0000
0000
,
1001
0000
0000
0100
1001
0100
0100
1001
,
0000
0000
1001
0000
1001
0000
1001
0000
0000
0000
0100
0000
0001
1000
0001
1000
,
0002
0000
0103
0010
0100
0010
0001
1000
,
0010
0100
1000
0100
0010
0001
1000
0100
,
0010
0100
0002
0000
0100
0000
0100
0000
,
0100
0000
0000
0000
0103
0000
0000
0000
1000
0100
1000
0000
1100
0000
0000
0000
,
1001
0001
0100
0001
0010
0100
1000
0100
,
0010
0100
0001
1000
0010
0100
0001
1000
,
0010
0100
0010
1000
0001
0100
0001
1001
,
0000
0000
1001
0000
1001
0000
0001
0000
0000
0000
1000
0000
1000
0001
1000
0001
,
2000
0000
3010
0100
0010
0100
1000
0001
,
0100
0010
0001
0010
0100
1000
0001
0010
,
0100
0010
2000
0000
0010
0000
0010
0000
,
0010
0000
0000
0000
3010
0000
0000
0000
0001
0010
0001
0000
0011
0000
0000
0000
,
1001
1000
0010
1000
0100
0010
0001
0010
,
0100
0010
1000
0001
0100
0010
1000
0002
,
0003
0000
1100
0000
1000
0000
1100
1100
,
0000
0000
0000
0000
1001
0000
0000
0000
0010
0000
0000
0000
1000
0001
1000
0000
,
0001
0000
0000
0000
1100
0000
0000
0000
0001
0000
0000
1000
0000
0000
0010
0000
,
0100
0000
0000
0000
0101
0000
0000
0000
1000
0000
0000
0010
0000
0000
0100
0000
,
0001
0000
0000
0000
1010
0000
0000
0000
0100
0000
0000
1000
0000
0000
0001
0000
,
0010
0000
0000
0000
1100
0000
0000
0000
0100
0000
0000
0010
0000
0000
1000
0000
,
0100
0000
0000
0000
0011
0000
0000
0000
0010
0000
0000
0010
0000
0000
1000
0000
,
0001
0000
0000
0000
0110
0000
0000
0000
0001
0000
0000
0100
0000
0000
0010
0000
,
1000
0001
1000
0000
1000
0001
1000
0000
1000
0001
1000
0000
1000
0001
1000
0000
,
0001
1000
0001
0000
0001
1000
0001
0000
0001
1000
0001
0000
0001
1000
0001
0000
,
0010
0000
0000
0000
1100
0000
0000
0000
0010
0000
0000
0100
0000
0000
0001
0000
,
1000
0000
0000
0000
1010
0000
0000
0000
0100
0000
0000
0001
0000
0000
1000
0000
,
0010
0000
0000
0000
0101
0000
0000
0000
1000
0000
0000
0100
0000
0000
0010
0000
,
0001
0000
0000
0000
1100
0000
0000
0000
1000
0000
0000
0001
0000
0000
0100
0000
,
1000
0000
0000
0000
0011
0000
0000
0000
0001
0000
0000
0001
0000
0000
0100
0000
,
0010
0000
0000
0000
1001
0000
0000
0000
0010
0000
0000
1000
0000
0000
0001
0000
,
0100
0010
0100
0000
0100
0010
0100
0000
0100
0010
0100
0000
0100
0010
0100
0000
,
0010
0100
0010
0000
0010
0100
0010
0000
0010
0100
0010
0000
0010
0100
0010
0000
,
0001
0100
0001
0000
0001
0100
0001
0000
0001
0100
0001
0000
0001
0100
0001
0000
,
0101
0000
0000
0000
;

//---------------dance-single - ----------------
#NOTES:
     dance-single:
     :
     Medium:
     8:
     0.580,0.689,0.365,0.227,0.190,503.000,53.000,33.000,0.000,0.000:
0000
0000
0000
0000
,
0020
0000
0000
0000
0000
0030
0000
0000
,
1000
0001
1000
0001
1000
0001
1000
0001
,
1000
0010
1000
0010
1000
0010
1000
0010
,
1000
0100
1000
0100
1000
0100
1000
0100
,
1000
0100
0010
0001
1000
0100
0010
0001
,
1000
0001
1000
0001
1000
0001
1000
0001
,
1000
0100
0010
0001
1000
0100
0010
0001
,
0002
0000
1000
0000
1000
0003
1000
0000
,
2002
3003
0000
0000
0000
0000
0000
0000
,
0001
0010
0001
0000
1000
0100
1000
0000
,
0010
0000
0100
0000
0010
0000
0000
0000
0001
1000
0000
0000
1001
0000
0000
0000
,
0010
0001
0010
0000
1000
0001
1000
0000
,
0010
0000
1000
0000
0010
0000
0000
0000
0010
0100
0000
0000
0110
0000
0000
0000
,
0010
0100
0010
0000
0001
1000
0001
0000
,
0100
0000
1000
0000
0100
0000
0000
0000
0010
0001
0000
0000
0011
0000
0000
0000
,
0100
0010
0100
0000
0001
0010
0001
0000
,
0100
0000
0001
0000
0100
0000
0000
0000
0100
1000
0000
0000
1100
0000
0000
0000
,
1100
0000
0000
0000
0001
0000
0000
0000
0000
0000
1000
0100
1000
0000
0000
0000
,
0010
0000
0000
0000
1000
0000
0000
0000
0001
0010
0000
0000
0011
0000
0000
0000
,
0000
0000
0100
0001
0100
0000
0000
0000
0000
0000
0010
1000
0010
0000
0000
0000
,
1000
0000
0000
0000
0001
0000
0000
0000
1000
0001
0000
0000
1001
0000
0000
0000
,
0110
1100
0101
1001
,
0011
1010
1100
0011
,
0010
0000
0100
0000
0000
0010
0000
0000
0100
0000
0000
0010
0000
0000
0100
0000
,
0010
0000
0002
0003
2000
3000
0002
0003
,
0010
0100
0010
0000
0001
1000
0001
0000
,
0100
0000
1000
0000
0100
0000
0000
0000
0010
0001
0000
0000
0011
0000
0000
0000
,
0100
0010
0100
0000
0001
0010
0001
0000
,
0100
0000
0001
0000
0100
0000
0000
0000
0100
1000
0000
0000
1100
0000
0000
0000
,
0100
1000
0100
0000
0010
0001
0010
0000
,
1000
0000
0001
0000
1000
0000
0000
0000
0100
0010
0000
0000
0110
0000
0000
0000
,
1000
0100
1000
0000
0010
0100
0010
0000
,
1000
0000
0010
0000
1000
0000
0000
0000
1000
0001
0000
0000
1001
0000
0000
0000
,
1001
0000
0000
0000
0010
0000
0000
0000
0000
0000
0001
1000
0001
0000
0000
0000
,
0100
0000
0000
0000
0001
0000
0000
0000
0010
0100
0000
0000
0110
0000
0000
0000
,
0000
0000
1000
0010
1000
0000
0000
0000
0000
0000
0100
0001
0100
0000
0000
0000
,
0001
0000
0000
0000
0010
0000
0000
0000
0001
0010
0000
0000
0011
0000
0000
0000
,
1100
1001
1010
0011
,
0110
0101
1001
0110
,
0000
0000
0001
1000
0001
0000
0000
0000
0001
0100
0000
0000
0000
0000
1000
0100
,
0000
0000
0000
0000
0010
1000
0000
0000
0000
0000
0100
0001
0000
0000
0000
0000
,
1010
0000
0010
1000
0000
1000
0010
0000
0000
0000
0100
0001
0000
0001
0100
0000
,
0000
0000
1000
0001
0000
0001
1000
0000
0000
0000
0001
0010
0000
0010
0001
0000
,
0000
0000
0010
0100
0000
0100
0010
0000
0000
0000
1000
0100
0000
0100
1000
0000
,
0000
0000
0001
1000
0000
1000
0001
0000
0000
0000
0100
0010
0000
0100
0010
0000
,
0000
0000
0100
0001
0000
0001
0100
0000
0000
0000
0010
1000
0000
1000
0010
0000
,
0000
0000
0001
1000
0000
1000
0001
0000
0000
0000
1000
0100
0000
0100
1000
0000
,
1100
0000
0000
0001
1000
0001
1000
1001
,
0000
1001
1001
1001
0000
0000
0000
0000
,
0001
0100
0010
1000
0001
0100
0010
0001
,
1000
0100
0010
0001
0100
0010
1000
0001
,
0100
0010
2000
0000
0010
0000
0010
0000
,
0010
0000
0000
0000
3010
0000
0000
0000
0100
1000
0000
0000
1100
0000
0000
0000
,
0011
0001
0100
0010
0001
0100
0010
1000
,
0100
0001
1000
0010
0100
1000
0001
0010
,
0100
0000
1000
0000
0010
0000
0100
0000
0010
0000
1000
0000
0001
0000
2200
3300
,
0000
0000
0022
0033
0000
0000
2020
3030
0000
0000
0202
0303
0000
0000
0000
0000
,
0001
0100
0010
1000
0001
0100
0010
0001
,
1000
0100
0010
0001
0100
0010
1000
0001
,
0100
0010
2000
0000
0010
0000
0010
0000
,
0010
0000
0000
0000
3010
0000
0000
0000
0100
1000
0000
0000
1100
0000
0000
0000
,
0011
0001
0100
0010
0001
0100
0010
1000
,
0100
0001
1000
0010
0100
1000
0001
2000
,
0001
0000
0001
0000
0001
3000
0001
2000
,
0001
0001
0001
3001
,
1000
0001
1000
0001
1000
0001
1000
0001
,
1000
0010
1000
0010
1000
0010
1000
0010
,
1000
0100
1000
0100
1000
0100
1000
0100
,
1000
0100
0010
0001
1000
0100
0010
0001
,
1000
0001
1000
0001
1000
0001
1000
0001
,
1000
0100
0010
0001
1000
0100
0010
0001
,
0002
0000
1000
0000
1000
0003
1000
0000
,
2002
3003
2002
3003
2002
3003
2002
3003
,
0100
0001
0100
0001
0100
0001
0100
0001
,
0100
1000
0100
1000
0100
1000
0100
1000
,
0100
0010
0100
0010
0100
0010
0100
0010
,
0100
0010
1000
0001
0100
0010
1000
0001
,
0100
0010
0100
0010
0100
0000
0000
0000
0001
0100
0001
0100
0001
0000
0000
0000
,
1000
1100
1000
1100
,
0002
0000
0100
0000
0100
0003
0100
0000
,
0100
0100
0100
0100
,
0220
0000
0000
0000
0000
0000
0000
0330
,
2002
3003
0000
0000
;
