#TITLE:Breaking the Habit;
#SUBTITLE:Candles = EZ;
#ARTIST:Linkin Park;
#TITLETRANSLIT:;
#SUBTITLETRANSLIT:;
#ARTISTTRANSLIT:;
#CREDIT:;
#BANNER:Breaking the Habit - bn.png;
#BACKGROUND:Breaking the Habit - bg.png;
#LYRICSPATH:;
#CDTITLE:../CDa.png;
#MUSIC:breakingthehabit.ogg;
#OFFSET:-0.068;
#SAMPLESTART:47.722;
#SAMPLELENGTH:25.780;
#SELECTABLE:YES;
#BPMS:0.000=200.068;
#STOPS:;
#BGCHANGES:0.625=breakingthehabit.avi=1.000=0=0=1,
639.000=breakingthehabit-bg.png=1.000=0=0=1,
99999=-nosongbg-=1.000=0=0=0 // don't automatically add -songbackground-
;
// cache tags:
#FIRSTBEAT:0.000;
#LASTBEAT:644.000;
#SONGFILENAME:Songs/Aoreo's Index Jawn 2/Breaking the Habit - [Aoreo]/breakingthehabit.sm;
#HASMUSIC:1;
#HASBANNER:1;
#MUSICLENGTH:196.249;
// end cache tags

//---------------dance-single - J. Nero----------------
#NOTES:
     dance-single:
     J. Nero:
     Challenge:
     33:
     1.000,1.000,0.000,0.005,1.000,3097.000,0.000,1.000,0.000,0.000:
1000
0100
0010
0001
,
1000
0000
0010
0100
0001
0000
1000
0000
,
0001
0010
0100
1000
,
0001
0100
0010
1000
,
0001
0100
0001
0010
0100
1000
0010
0100
,
0001
0000
1000
0100
1000
0000
0010
0000
0100
0000
0001
0000
1000
0000
0000
0000
,
0001
0000
0000
0000
0010
0100
1000
0001
1000
0000
0000
0000
0001
0000
0000
0000
,
1000
0000
0010
0100
0001
0000
1000
0000
,
0001
0100
0001
1000
0100
0010
0001
1000
0010
0100
0001
1000
0100
0010
0100
1000
0001
0100
0010
1000
0010
0100
0001
1000
,
0100
0010
0001
0100
0001
1000
0100
0010
0100
1000
0001
0100
0010
1000
0010
0100
0001
1000
0100
0010
0001
0100
0001
1000
,
0010
1000
0010
0100
0001
1000
0010
0100
0001
1000
0001
0010
0100
1000
0001
0100
0010
1000
0001
1000
0100
0010
0001
1000
,
0001
0100
0010
1000
0010
0100
0001
1000
0100
0010
0001
1000
0001
0100
0010
0100
0001
1000
0100
0010
0100
1000
0001
0100
,
0010
1000
0001
1000
0100
0010
0001
0100
0001
1000
0010
1000
0001
0100
0010
1000
0010
0100
0001
1000
0100
0010
0001
1000
,
0001
0100
0010
1000
0001
0010
0100
0010
0001
1000
0001
0100
0010
1000
0010
0100
0001
1000
0001
0010
0100
1000
0001
1000
,
0010
0100
0001
1000
0010
0100
0001
0100
0010
1000
0001
1000
0100
0010
0001
1000
0001
0100
0010
1000
0010
0100
0001
1000
,
0100
1000
0001
0100
0010
1000
0010
0100
0001
1000
0001
0010
0100
1000
0001
1000
0010
0100
0001
1000
0100
0010
0001
1000
,
0001
0000
1000
0001
0100
0001
0010
0000
,
0100
1000
0001
1000
0010
0000
0100
0000
0001
0000
0010
0000
0100
0000
1000
0000
,
0010
0100
0001
1000
0000
0001
0010
0000
,
0100
1000
0001
1000
0010
0000
0100
0000
0000
0000
0001
0000
0010
0000
0001
0000
,
0100
0010
1000
0100
0000
1000
0001
0000
,
1000
0001
1000
0100
0010
0000
0001
0000
0100
0000
0010
0000
1000
0000
0100
0000
,
1000
0000
0010
0100
0000
0001
1000
0000
,
0001
0100
0001
0010
0100
0000
1000
0000
0001
0000
0100
0000
0010
0000
1000
0000
,
0100
0000
1000
0001
0100
0001
0010
0000
,
0100
1000
0001
1000
0010
0000
0100
0000
0001
0000
0010
0000
0100
0000
1000
0000
,
0010
0000
0100
0001
0000
1000
0001
0000
,
0100
0001
0010
0100
0010
0000
0100
0000
0000
0000
1000
0000
0001
0000
0100
0000
,
0010
0000
1000
0100
0000
1000
0001
0000
,
1000
0001
1000
0100
0010
0000
0001
0000
0100
0000
0001
0000
0010
0000
0100
0000
,
1000
0000
0000
0010
0000
0000
0100
0000
0000
0010
0000
0000
1000
0001
1000
0100
0010
0001
1000
0001
0100
0010
0100
0001
,
1000
0100
0010
0100
1000
0001
0100
0010
1000
0001
0100
0010
1000
0000
0000
0100
0000
0000
0010
0000
0000
0100
0000
0000
,
1000
0001
1000
0100
0010
0001
1000
0001
0100
0010
1000
0010
0100
0001
0100
0001
1000
0010
0100
0001
1000
0100
0010
0100
,
1000
0001
1000
0010
0100
0001
1000
0001
0010
0100
1000
0001
1000
0010
0100
0001
1000
0100
0010
0001
1000
0001
0100
0010
,
0100
0001
1000
0100
0010
0100
1000
0001
1000
0010
0100
0001
1000
0001
0010
0100
1000
0001
1000
0010
0100
0001
1000
0100
,
1000
0001
0100
0010
1000
0010
0100
0001
1000
0001
0010
0100
1000
0001
1000
0010
0100
0001
0100
0010
1000
0001
1000
0100
,
0010
0001
1000
0001
0100
0010
1000
0010
0100
0001
1000
0100
0010
0100
1000
0001
1000
0010
0100
0001
1000
0010
0100
0001
,
0100
0010
1000
0001
0010
0100
1000
0001
1000
0010
0100
0001
1000
0100
1000
0001
0100
0010
1000
0010
0100
0001
1000
0100
,
0010
0001
0100
0001
1000
0100
1000
0010
0100
0010
1000
0001
1000
0100
0010
0001
1000
0001
0010
0100
1000
0001
0100
0010
,
1000
0001
0000
1000
,
0001
0100
0001
1000
0100
0010
0001
1000
0010
0100
0010
1000
0001
0010
0100
0010
0001
0100
0010
1000
0010
0100
0001
1000
,
0100
0010
0001
1000
0001
0100
0010
0100
0001
1000
0100
0010
0100
1000
0001
0100
0010
1000
0010
0100
0001
1000
0100
0010
,
0001
1000
0001
0100
0010
0100
0001
1000
0100
1000
0001
0100
0010
1000
0010
0100
0001
0100
0001
1000
0100
0010
0001
1000
,
0010
0100
0001
1000
0001
0010
0100
1000
0001
1000
0010
0100
0001
0100
0010
1000
0001
1000
0100
1000
0001
0100
0010
1000
,
0010
0100
0001
1000
0001
0010
0100
1000
0001
1000
0010
0100
0001
1000
0100
1000
0001
0100
0010
1000
0010
0100
0001
1000
,
0100
0010
0001
1000
0001
0100
0010
0100
0001
1000
0001
0010
0100
1000
0001
1000
0010
0100
0001
1000
0100
0010
0100
1000
,
0001
1000
0010
0100
0001
1000
0100
0010
0001
1000
0001
0100
0010
0100
0001
1000
0001
0010
0100
1000
0001
1000
0010
0100
,
0001
1000
0100
1000
0001
0100
0010
1000
0010
0100
0001
1000
0100
0010
0001
1000
0001
0100
0010
0100
0001
1000
0100
1000
,
0010
0100
0001
1000
0001
0010
0100
1000
0001
1000
0010
0100
0001
1000
0100
1000
0001
0100
0010
1000
0010
0100
0001
1000
,
0001
0010
0100
1000
0001
1000
0010
0100
0001
1000
0100
0010
0100
1000
0001
1000
0010
0100
0001
0100
0010
1000
0001
1000
,
0100
0010
0001
1000
0001
0100
0010
0100
0001
1000
0100
0010
0100
1000
0001
1000
0010
0100
0010
1000
0001
1000
0100
0010
,
0001
1000
0001
0100
0010
0100
0001
1000
0010
0100
0001
0100
0010
1000
0001
1000
0100
0010
0001
1000
0010
0100
0010
1000
,
0001
0100
0010
1000
0010
0100
0001
1000
0100
0010
0001
1000
0001
0100
0010
0100
0001
1000
0100
0010
0100
1000
0001
1000
,
0010
0100
0001
0100
0010
1000
0001
1000
0100
0010
0001
1000
0001
0100
0010
0100
0001
1000
0100
0010
0100
1000
0001
0100
,
0010
1000
0010
0100
0001
1000
0100
0010
0001
1000
0001
0100
0010
0100
0001
1000
0100
1000
0001
0100
0010
1000
0010
0100
,
0001
1000
0001
0010
0100
1000
0001
1000
0010
0100
0001
1000
0100
0010
0001
1000
0001
0100
0010
0100
0001
1000
0100
0010
,
0100
1000
0010
0100
0001
1000
0100
1000
0010
0100
0001
0010
0100
1000
0001
0010
0001
0100
0010
1000
0001
1000
0100
0010
,
0001
0100
0001
1000
0100
0010
0100
1000
0010
0100
0001
1000
0100
0010
0001
0100
0001
1000
0010
0100
0010
1000
0100
0010
,
0001
1000
0010
1000
0100
0010
0001
0100
0001
1000
0100
0010
0100
1000
0010
0100
0001
1000
0100
0010
0001
0100
0001
1000
,
0100
0010
0100
1000
0010
0100
0001
1000
0100
0010
0001
0100
0001
1000
0100
1000
0010
0100
0001
0010
0100
1000
0010
0100
,
0001
0000
1000
0100
1000
0001
0010
0000
,
0100
0000
1000
0001
0100
0001
0010
0000
,
0100
0000
1000
0001
0000
1000
0001
0100
,
0001
0010
0100
1000
0010
0100
0001
1000
0100
0010
0001
0100
,
0001
1000
0001
0010
0100
1000
0001
1000
0010
0100
0001
1000
0001
0100
0010
1000
0010
0100
0001
0100
0001
1000
0010
0100
,
0001
1000
0100
0010
0100
1000
0001
1000
0010
0100
0001
1000
0001
0010
0100
1000
0001
0100
0010
1000
0001
1000
0100
0010
,
0001
1000
0001
0100
0010
1000
0010
0100
0001
1000
0001
0010
0100
1000
0001
0100
0001
0100
0010
1000
0001
1000
0100
0010
,
0100
1000
0001
1000
0010
0100
0001
1000
0001
0100
0010
0100
0001
1000
0010
0100
0001
1000
0001
0100
0010
1000
0001
1000
,
0100
0010
0001
1000
0100
1000
0001
0100
0010
1000
0001
0100
0010
0100
0001
1000
0100
1000
0001
0100
0010
0100
0001
1000
,
0100
0010
0001
0100
0001
1000
0100
0010
0100
1000
0001
0100
0010
1000
0001
1000
0100
0010
0001
0100
0001
1000
0100
1000
,
0010
0100
0001
1000
0100
0010
0001
0100
0001
1000
0010
1000
0100
0010
0001
1000
0001
0010
0100
1000
0010
0100
0001
1000
,
0001
0100
0010
1000
0010
0100
0001
1000
0100
1000
0001
0100
0010
1000
0001
1000
0100
0010
0001
1000
0010
0100
0001
0100
,
0010
1000
0001
0100
0001
1000
0100
1000
0010
0100
0001
0010
0001
1000
0010
0100
0001
0100
0010
1000
0001
1000
0100
0010
,
0001
1000
0001
0100
0010
0100
0001
1000
0100
1000
0001
0100
0010
1000
0010
0100
0001
1000
0100
0010
0001
1000
0010
0100
,
0001
1000
0001
0100
0010
1000
0010
0100
0001
1000
0001
0010
0100
1000
0001
1000
0010
0100
0001
1000
0100
1000
0001
0100
,
0010
1000
0010
0100
0001
1000
0001
0010
0100
1000
0001
0100
0001
1000
0010
0100
0001
0100
0010
1000
0001
1000
0001
0010
,
0100
1000
0001
0100
0001
0100
0010
1000
0010
0100
0001
1000
0100
1000
0001
0100
0010
0100
0001
1000
0100
1000
0001
0100
,
0010
1000
0010
0100
0001
1000
0001
0100
0010
1000
0001
1000
0100
0010
0001
1000
0001
0100
0010
1000
0010
0100
0001
1000
,
0001
0010
0100
1000
0001
0100
0010
1000
0010
0100
0001
1000
0100
0010
0001
1000
0001
0100
0010
0100
0001
1000
0100
0010
,
0100
1000
0001
1000
0010
0100
0001
0100
0010
1000
0001
1000
0100
0010
0001
1000
0001
0100
0010
1000
0001
1000
0100
0010
,
0001
1000
0001
0100
0010
1000
0010
0100
0001
1000
0001
0010
0100
1000
0001
0100
0010
1000
0010
0100
0001
1000
0100
0010
,
0001
1000
0001
0100
0010
1000
0001
0100
0001
0100
0010
1000
0001
1000
0100
0010
0001
1000
0001
0100
0010
1000
0001
0010
,
0100
0010
0001
1000
0001
0100
0010
1000
0010
0100
0001
1000
0001
1000
0100
0010
0001
1000
0001
0100
0010
1000
0010
0100
,
0001
1000
0001
0100
0010
1000
0010
0100
0001
1000
0001
0010
0100
1000
0001
1000
0010
0100
0001
0100
0010
1000
0001
1000
,
0100
0010
0001
1000
0001
0100
0010
1000
0010
0100
0001
1000
0001
0010
0100
0010
0001
1000
0001
0100
0010
1000
0010
0100
,
0001
1000
0001
0010
0100
1000
0001
1000
0010
0100
0001
0100
0010
1000
0001
1000
0100
0010
0001
1000
0001
0100
0010
0100
,
0001
1000
0001
0010
0100
1000
0001
1000
0010
0100
0001
1000
0100
0010
0001
1000
0001
0100
0010
1000
0010
0100
0001
1000
,
0001
1000
0000
0001
,
1000
0010
1000
0001
0010
0100
1000
0001
0100
0010
0100
0001
1000
0100
0010
0100
1000
0010
0100
0001
0100
0010
1000
0001
,
0010
0100
1000
0001
1000
0010
0100
0010
1000
0001
0010
0100
0010
0001
1000
0010
0100
0001
0100
0010
1000
0001
0010
0100
,
1000
0001
1000
0010
0100
0010
1000
0001
0010
0001
1000
0010
0100
0001
0100
0010
1000
0010
1000
0001
0010
0100
1000
0001
,
0100
0010
1000
0001
1000
0100
0010
0001
1000
0001
0100
0010
1000
0010
0100
0001
1000
0001
0010
0001
1000
0010
0100
0001
,
0100
0010
1000
0001
1000
0100
0010
0001
1000
0001
0100
0010
1000
0001
0010
0001
1000
0010
0100
0001
0100
0010
1000
0001
,
0010
0100
1000
0001
1000
0010
0100
0010
1000
0001
1000
0100
0010
0001
1000
0001
0100
0010
1000
0001
0010
0100
0010
0001
,
1000
0001
0100
0010
1000
0001
0010
0100
1000
0001
1000
0010
0100
0010
1000
0001
1000
0100
0010
0001
1000
0001
0100
0010
,
1000
0001
0010
0001
1000
0010
0100
0001
0100
0010
1000
0001
0010
0100
1000
0001
1000
0010
0100
0010
1000
0001
0010
0001
,
0100
0010
1000
0001
1000
0100
0010
0001
1000
0001
0100
0010
1000
0001
0010
0001
1000
0010
0100
0001
0100
0010
1000
0001
,
1000
0100
0010
0001
1000
0001
0100
0010
1000
0001
0010
0100
0010
0001
1000
0001
0100
0010
1000
0010
0100
0001
1000
0001
,
0010
0100
1000
0001
1000
0010
0100
0010
1000
0001
0010
0100
0010
0001
1000
0001
0100
0010
0100
0001
1000
0001
0010
0100
,
1000
0001
1000
0010
0100
0010
1000
0001
0100
0010
1000
0010
0100
0001
1000
0001
0010
0100
1000
0001
0100
0010
0100
0001
,
1000
0010
0100
0001
0100
0010
1000
0001
0010
0100
1000
0001
1000
0010
0100
0010
1000
0001
0010
0100
0010
0001
1000
0001
,
0100
0010
1000
0010
0100
0001
1000
0001
0010
0100
1000
0001
1000
0010
0100
0010
1000
0001
0010
0100
0010
0001
1000
0010
,
0100
0001
0100
0010
1000
0001
0010
0100
1000
0001
1000
0010
0100
0010
1000
0001
0010
0001
1000
0010
0100
0001
0100
0010
,
1000
0001
1000
0100
0010
0001
1000
0001
0100
0010
1000
0001
0010
0100
1000
0001
1000
0010
0100
0010
1000
0001
0010
0100
,
0010
0001
0100
0010
1000
0001
0010
0001
0100
0010
1000
0100
0010
0001
1000
0100
1000
0010
0100
0001
1000
0001
0010
0100
,
1000
0010
1000
0001
0010
0100
0010
0001
0100
0010
1000
0001
0010
0100
1000
0010
1000
0001
0100
0010
0100
0001
0010
0100
,
1000
0001
0100
0001
0010
0100
1000
0010
1000
0001
0010
0100
0010
0001
0100
0010
1000
0001
0010
0100
1000
0010
1000
0001
,
0010
0100
0010
0001
0100
0010
1000
0001
0010
0100
1000
0010
1000
0001
0010
0001
0100
0010
1000
0100
0010
0001
0100
0010
,
1000
0100
1000
0010
0100
0001
1000
0100
0010
0001
0100
0001
1000
0010
1000
0100
0010
0001
0100
0001
1000
0100
0010
0100
,
1000
0001
0100
0010
1000
0010
0100
0001
1000
0100
0010
0001
0100
0001
1000
0010
0100
0001
1000
0001
0100
0010
1000
0100
,
0010
0001
0100
0010
1000
0100
0010
0001
0100
0010
1000
0100
0010
0001
0100
0010
1000
0100
0010
0001
0100
0010
1000
0100
,
0010
0001
0100
0010
1000
0100
0010
0001
0100
0010
1000
0100
0010
0001
0100
0010
1000
0100
0010
0001
0100
0010
1000
0100
,
0010
0001
1000
0001
0100
0010
0100
0001
1000
0100
1000
0001
0100
0010
1000
0010
0100
0001
1000
0001
0100
0010
0100
0001
,
1000
0001
0010
0100
1000
0010
0100
0001
1000
0100
0010
0001
0100
0001
1000
0100
1000
0001
0100
0010
1000
0010
0100
0001
,
1000
0100
0010
0001
0100
0010
1000
0100
0010
0001
0100
0010
1000
0100
0010
0001
0100
0010
1000
0100
0010
0001
0100
0010
,
1000
0100
0010
0001
0100
0010
1000
0100
0010
0001
0100
0010
1000
0100
0010
0001
0100
0010
1000
0100
0010
0001
0100
0010
,
1000
0001
0100
0001
1000
0010
0100
0001
1000
0100
0010
0001
0100
0001
1000
0100
0010
0100
1000
0001
0100
0010
1000
0001
,
0100
0010
1000
0010
0100
0001
1000
0100
0010
0001
0100
0001
1000
0100
1000
0001
0100
0010
1000
0001
0010
0100
1000
0001
,
0100
0010
1000
0100
0010
0001
0100
0010
1000
0100
0010
0001
0100
0010
1000
0100
0010
0001
0100
0010
1000
0100
0010
0001
,
0100
0010
1000
0100
0010
0001
0100
0010
1000
0100
0010
0001
0100
0010
1000
0100
0010
0001
0100
0010
1000
0100
0010
0001
,
1000
0001
0100
0010
1000
0001
0100
0010
0100
0001
1000
0100
0010
0100
1000
0001
0100
0010
1000
0010
0100
0001
1000
0100
,
0010
0001
1000
0001
0100
0010
1000
0010
0100
0001
1000
0100
0010
0001
1000
0001
0100
0010
0100
0001
1000
0100
0010
0001
,
0100
0010
1000
0100
0010
0001
0100
0010
1000
0100
0010
0001
0100
0010
1000
0100
0010
0001
0100
0010
1000
0100
0010
0001
,
0100
0010
1000
0100
0010
0001
0100
0010
1000
0100
0010
0001
0100
0010
1000
0100
0010
0001
0100
0010
1000
0100
0010
0001
,
0100
0010
1000
0001
0010
0100
1000
0001
0100
0010
0100
0001
1000
0100
0010
0100
1000
0010
0100
0001
0100
0010
1000
0001
,
0010
0100
1000
0001
1000
0010
0100
0010
1000
0001
0010
0100
0010
0001
1000
0010
0100
0001
0100
0010
1000
0001
0010
0100
,
1000
0001
1000
0010
0100
0010
1000
0001
0010
0001
1000
0010
0100
0001
0100
0010
1000
0010
1000
0001
0010
0100
1000
0001
,
0100
0010
1000
0001
1000
0100
0010
0001
1000
0001
0100
0010
1000
0010
0100
0001
1000
0001
0010
0001
1000
0010
0100
0001
,
0100
0010
1000
0001
1000
0100
0010
0001
1000
0001
0100
0010
1000
0001
0010
0001
1000
0010
0100
0001
0100
0010
1000
0001
,
0010
0100
1000
0001
1000
0010
0100
0010
1000
0001
1000
0100
0010
0001
1000
0001
0100
0010
1000
0001
0010
0100
0010
0001
,
1000
0001
0100
0010
1000
0001
0010
0100
1000
0001
1000
0010
0100
0010
1000
0001
1000
0100
0010
0001
1000
0001
0100
0010
,
1000
0001
0010
0001
1000
0010
0100
0001
0100
0010
1000
0001
0010
0100
1000
0001
1000
0010
0100
0010
1000
0001
0010
0001
,
0100
0010
1000
0001
1000
0100
0010
0001
1000
0001
0100
0010
1000
0001
0010
0001
1000
0010
0100
0001
0100
0010
1000
0001
,
1000
0100
0010
0001
1000
0001
0100
0010
1000
0001
0010
0100
0010
0001
1000
0001
0100
0010
1000
0010
0100
0001
1000
0001
,
0010
0100
1000
0001
1000
0010
0100
0010
1000
0001
0010
0100
0010
0001
1000
0001
0100
0010
0100
0001
1000
0001
0010
0100
,
1000
0001
1000
0010
0100
0010
1000
0001
0100
0010
1000
0010
0100
0001
1000
0001
0010
0100
1000
0001
0100
0010
0100
0001
,
1000
0010
0100
0001
0100
0010
1000
0001
0010
0100
1000
0001
1000
0010
0100
0010
1000
0001
0010
0100
0010
0001
1000
0001
,
0100
0010
1000
0010
0100
0001
1000
0001
0010
0100
1000
0001
1000
0010
0100
0010
1000
0001
0010
0100
0010
0001
1000
0010
,
0100
0001
0100
0010
1000
0001
0010
0100
1000
0001
1000
0010
0100
0010
1000
0001
0010
0001
1000
0010
0100
0001
0100
0010
,
1000
0001
1000
0100
0010
0001
1000
0001
0100
0010
1000
0001
0010
0100
1000
0001
1000
0010
0100
0010
1000
0001
0010
0100
,
0010
0001
0100
0010
1000
0001
0010
0001
0100
0010
1000
0100
0010
0001
1000
0100
1000
0010
0100
0001
1000
0001
0010
0100
,
1000
0010
1000
0001
0010
0100
0010
0001
0100
0010
1000
0001
0010
0100
1000
0010
1000
0001
0100
0010
0100
0001
0010
0100
,
1000
0001
0100
0001
0010
0100
1000
0010
1000
0001
0010
0100
0010
0001
0100
0010
1000
0001
0010
0100
1000
0010
1000
0001
,
0010
0100
0010
0001
0100
0010
1000
0001
0010
0100
1000
0010
1000
0001
0010
0001
0100
0010
1000
0100
0010
0001
0100
0010
,
1000
0100
1000
0010
0100
0001
0010
0001
0100
0010
1000
0100
0010
0001
0100
0001
1000
0100
0010
0100
1000
0010
0100
0001
,
1000
0100
0010
0001
0100
0001
1000
0010
1000
0100
0010
0001
0100
0001
0010
0100
1000
0010
0100
0001
0010
0001
0100
0010
,
1000
0100
1000
0010
0100
0001
0010
0100
1000
0010
0100
0001
1000
0100
0010
0001
0100
0001
1000
0100
0010
0100
1000
0010
,
0100
0001
1000
0100
0010
0001
0100
0001
1000
0010
1000
0100
0010
0001
0100
0001
0010
0100
1000
0010
0100
0001
1000
0010
,
1000
0100
0010
0001
,
1000
0010
0100
0001
,
1000
0100
0010
0001
,
1000
0010
0100
0001
,
1000
0100
0010
0001
,
1000
0010
0100
0001
,
1000
0100
0010
0001
,
1000
0010
0100
0001
,
1000
0100
0010
0001
,
1000
0010
0100
0001
,
1000
0100
0010
0001
,
2000
0000
0000
0000
,
0000
0000
0000
0000
,
3000
0000
0000
0000
;

//---------------dance-single - J. Nero----------------
#NOTES:
     dance-single:
     J. Nero:
     Hard:
     32:
     1.000,1.000,0.000,0.005,1.000,2881.000,0.000,1.000,0.000,0.000:
1000
0100
0010
0001
,
1000
0000
0010
0100
0001
0000
1000
0000
,
0001
0010
0100
1000
,
0001
0100
0010
1000
,
0001
0100
0001
0010
0100
1000
0010
0100
,
0001
0000
1000
0100
1000
0000
0010
0000
0100
0000
0001
0000
1000
0000
0000
0000
,
0001
0000
0000
0000
0010
0100
1000
0001
1000
0000
0000
0000
0001
0000
0000
0000
,
1000
0000
0010
0100
0001
0000
1000
0000
,
0001
0100
0001
1000
0100
0010
0001
1000
0010
0100
0001
1000
0100
0010
0100
1000
0001
0100
0010
1000
0010
0100
0001
1000
,
0100
0010
0001
0100
0001
1000
0100
0010
0100
1000
0001
0100
0010
1000
0010
0100
0001
1000
0100
0010
0001
0100
0001
1000
,
0010
1000
0010
0100
0001
1000
0010
0100
0001
1000
0001
0010
0100
1000
0001
0100
0010
1000
0001
1000
0100
0010
0001
1000
,
0001
0100
0010
1000
0010
0100
0001
1000
0100
0010
0001
1000
0001
0100
0010
0100
0001
1000
0100
0010
0100
1000
0001
0100
,
0010
1000
0001
1000
0100
0010
0001
0100
0001
1000
0010
1000
0001
0100
0010
1000
0010
0100
0001
1000
0100
0010
0001
1000
,
0001
0100
0010
1000
0001
0010
0100
0010
0001
1000
0001
0100
0010
1000
0010
0100
0001
1000
0001
0010
0100
1000
0001
1000
,
0010
0100
0001
1000
0010
0100
0001
0100
0010
1000
0001
1000
0100
0010
0001
1000
0001
0100
0010
1000
0010
0100
0001
1000
,
0100
1000
0001
0100
0010
1000
0010
0100
0001
1000
0001
0010
0100
1000
0001
1000
0010
0100
0001
1000
0100
0010
0001
1000
,
0001
0000
1000
0001
0100
0001
0010
0000
,
0100
1000
0001
1000
0010
0000
0100
0000
0001
0000
0010
0000
0100
0000
1000
0000
,
0010
0100
0001
1000
0000
0001
0010
0000
,
0100
1000
0001
1000
0010
0000
0100
0000
0000
0000
0001
0000
0010
0000
0001
0000
,
0100
0010
1000
0100
0000
1000
0001
0000
,
1000
0001
1000
0100
0010
0000
0001
0000
0100
0000
0010
0000
1000
0000
0100
0000
,
1000
0000
0010
0100
0000
0001
1000
0000
,
0001
0100
0001
0010
0100
0000
1000
0000
0001
0000
0100
0000
0010
0000
1000
0000
,
0100
0000
1000
0001
0100
0001
0010
0000
,
0100
1000
0001
1000
0010
0000
0100
0000
0001
0000
0010
0000
0100
0000
1000
0000
,
0010
0000
0100
0001
0000
1000
0001
0000
,
0100
0001
0010
0100
0010
0000
0100
0000
0000
0000
1000
0000
0001
0000
0100
0000
,
0010
0000
1000
0100
0000
1000
0001
0000
,
1000
0001
1000
0100
0010
0000
0001
0000
0100
0000
0001
0000
0010
0000
0100
0000
,
1000
0000
0000
0010
0000
0000
0100
0000
0000
0010
0000
0000
1000
0001
1000
0100
0010
0001
1000
0001
0100
0010
0100
0001
,
1000
0100
0010
0100
1000
0001
0100
0010
1000
0001
0100
0010
1000
0000
0000
0100
0000
0000
0010
0000
0000
0100
0000
0000
,
1000
0001
0100
0001
0010
0100
1000
0001
1000
0010
0100
0001
0010
0001
1000
0010
,
1000
0100
0010
0001
0100
0001
1000
0010
0100
0010
1000
0001
1000
0010
0100
0001
,
0010
0100
1000
0001
1000
0010
0100
0001
0010
0001
1000
0010
0100
0010
1000
0001
,
0010
0100
1000
0001
1000
0010
0100
0001
1000
0010
0100
0001
0010
0100
0010
0001
,
0100
0010
1000
0001
0100
0010
0100
0001
1000
0001
0010
0100
1000
0001
0100
0001
,
1000
0100
0010
0100
1000
0010
0100
0001
1000
0001
1000
0100
0010
0001
0100
0001
,
1000
0010
0100
0010
1000
0100
0010
0100
1000
0001
1000
0001
0100
0010
1000
0001
,
0100
0001
0000
1000
,
0001
0100
0001
1000
0100
0010
0001
1000
0010
0100
0010
1000
0001
0010
0100
0010
0001
0100
0010
1000
0010
0100
0001
1000
,
0100
0010
0001
1000
0001
0100
0010
0100
0001
1000
0100
0010
0100
1000
0001
0100
0010
1000
0010
0100
0001
1000
0100
0010
,
0001
1000
0001
0100
0010
0100
0001
1000
0100
1000
0001
0100
0010
1000
0010
0100
0001
0100
0001
1000
0100
0010
0001
1000
,
0010
0100
0001
1000
0001
0010
0100
1000
0001
1000
0010
0100
0001
0100
0010
1000
0001
1000
0100
1000
0001
0100
0010
1000
,
0010
0100
0001
1000
0001
0010
0100
1000
0001
1000
0010
0100
0001
1000
0100
1000
0001
0100
0010
1000
0010
0100
0001
1000
,
0100
0010
0001
1000
0001
0100
0010
0100
0001
1000
0001
0010
0100
1000
0001
1000
0010
0100
0001
1000
0100
0010
0100
1000
,
0001
1000
0010
0100
0001
1000
0100
0010
0001
1000
0001
0100
0010
0100
0001
1000
0001
0010
0100
1000
0001
1000
0010
0100
,
0001
1000
0100
1000
0001
0100
0010
1000
0010
0100
0001
1000
0100
0010
0001
1000
0001
0100
0010
0100
0001
1000
0100
1000
,
0010
0100
0001
1000
0001
0010
0100
1000
0001
1000
0010
0100
0001
1000
0100
1000
0001
0100
0010
1000
0010
0100
0001
1000
,
0001
0010
0100
1000
0001
1000
0010
0100
0001
1000
0100
0010
0100
1000
0001
1000
0010
0100
0001
0100
0010
1000
0001
1000
,
0100
0010
0001
1000
0001
0100
0010
0100
0001
1000
0100
0010
0100
1000
0001
1000
0010
0100
0010
1000
0001
1000
0100
0010
,
0001
1000
0001
0100
0010
0100
0001
1000
0010
0100
0001
0100
0010
1000
0001
1000
0100
0010
0001
1000
0010
0100
0010
1000
,
0001
0100
0010
1000
0010
0100
0001
1000
0100
0010
0001
1000
0001
0100
0010
0100
0001
1000
0100
0010
0100
1000
0001
1000
,
0010
0100
0001
0100
0010
1000
0001
1000
0100
0010
0001
1000
0001
0100
0010
0100
0001
1000
0100
0010
0100
1000
0001
0100
,
0010
1000
0010
0100
0001
1000
0100
0010
0001
1000
0001
0100
0010
0100
0001
1000
0100
1000
0001
0100
0010
1000
0010
0100
,
0001
1000
0001
0010
0100
1000
0001
1000
0010
0100
0001
1000
0100
0010
0001
1000
0001
0100
0010
0100
0001
1000
0100
0010
,
0100
1000
0010
0100
0001
1000
0100
1000
0010
0100
0001
0010
0100
1000
0001
0010
0001
0100
0010
1000
0001
1000
0100
0010
,
0001
0100
0001
1000
0100
0010
0100
1000
0010
0100
0001
1000
0100
0010
0001
0100
0001
1000
0010
0100
0010
1000
0100
0010
,
0001
1000
0010
1000
0100
0010
0001
0100
0001
1000
0100
0010
0100
1000
0010
0100
0001
1000
0100
0010
0001
0100
0001
1000
,
0100
0010
0100
1000
0010
0100
0001
1000
0100
0010
0001
0100
0001
1000
0100
1000
0010
0100
0001
0010
0100
1000
0010
0100
,
0001
0000
1000
0100
1000
0001
0010
0000
,
0100
0000
1000
0001
0100
0001
0010
0000
,
0100
0000
1000
0001
0000
1000
0001
0100
,
0001
0010
0100
1000
0010
0100
0001
1000
0100
0010
0001
0100
,
0001
1000
0100
1000
0010
0100
0001
1000
0100
0010
0001
0100
0001
1000
0100
0010
,
0001
1000
0010
1000
0100
0010
0001
1000
0001
0100
0010
1000
0100
1000
0001
0100
,
0010
1000
0001
1000
0100
0010
0001
0100
0001
1000
0010
0100
0010
1000
0100
0010
,
0001
1000
0001
0100
0001
0010
0100
1000
0001
1000
0100
1000
0010
0100
0010
1000
,
0100
0010
0001
0100
0001
1000
0001
0100
0010
1000
0010
0100
0001
1000
0100
0010
,
0001
1000
0100
1000
0010
0100
0001
0010
0001
0100
0010
1000
0100
0010
0001
0100
,
0001
0000
0000
0010
0000
0000
0100
0000
0000
1000
0000
0000
0001
0000
0100
0000
0001
0000
1000
0000
0010
0000
1000
0000
0100
0000
0010
0000
0001
0000
1000
0000
0001
0000
0010
0000
0100
0000
1000
0000
0010
0000
0100
0000
0001
0000
1000
0000
,
0001
0000
0100
0000
0010
0000
1000
0000
0010
0000
0100
0000
0001
0000
1000
0000
0100
0000
1000
0000
0001
0000
0100
0000
0010
0000
0000
1000
0000
0000
0010
0000
0000
0100
0000
0000
0001
0000
0000
0010
0000
0000
0100
0000
0000
1000
0000
0000
,
0001
0000
0000
1000
0000
0000
0100
0000
0000
0010
0000
0000
0001
0000
1000
0000
0001
0000
0010
0000
0100
0000
1000
0000
0001
0000
0000
0100
0000
0000
0010
0000
0000
1000
0000
0000
0010
0000
0000
0100
0000
0000
0001
0000
0000
1000
0000
0000
,
0100
0010
0001
0100
0001
1000
0010
0100
0010
1000
0001
0010
0100
1000
0010
0100
,
0001
1000
0100
1000
0001
1000
0100
0010
0001
0100
0001
1000
0010
0100
0010
1000
,
0100
1000
0100
0010
0001
0100
0001
1000
0001
0100
0010
0100
0001
0010
0100
1000
,
0010
1000
0001
1000
0010
0100
0001
1000
0100
1000
0010
0100
0010
1000
0001
0010
,
0001
0100
0010
1000
0010
0100
0001
0010
0100
1000
0010
1000
0001
0100
0001
1000
,
0100
0000
0000
0010
0000
0000
0100
0000
0000
1000
0000
0000
0001
0000
1000
0000
0010
0000
0100
0000
0001
0000
1000
0000
0100
0000
0010
0000
0001
0000
1000
0000
0001
0000
0100
0000
0010
0000
0100
0000
0001
0000
1000
0000
0100
0000
0010
0000
,
0100
0000
1000
0000
0001
0000
1000
0000
0010
0000
0100
0000
0001
0000
0100
0000
0010
0000
1000
0000
0001
0000
1000
0000
0100
0000
0010
0000
0001
0000
0100
0000
0001
0000
1000
0000
0010
0000
0000
0100
0000
0000
0010
0000
0000
1000
0000
0000
,
0001
1000
0100
0010
0001
0100
0001
1000
0100
0010
0100
1000
0010
1000
0001
0100
,
0010
1000
0001
1000
0001
0010
0100
1000
0010
0100
0010
1000
0001
1000
0100
0010
,
0001
0100
0010
1000
0010
0100
0001
1000
0100
1000
0001
0010
0100
0010
0001
1000
,
0010
0100
0010
1000
0001
0100
0001
1000
0100
1000
0010
0100
0010
1000
0001
0010
,
0100
1000
0010
1000
0001
0100
0001
1000
0001
0010
0100
1000
0010
0100
0001
0100
,
0010
1000
0001
0010
0100
0010
0001
0100
0010
1000
0010
0100
0001
1000
0100
0010
,
0001
0100
0001
1000
0001
0010
0100
1000
0001
0100
0010
1000
0100
0010
0001
0100
,
0001
1000
0000
0001
,
1000
0010
1000
0001
0010
0100
1000
0001
0100
0010
0100
0001
1000
0100
0010
0100
1000
0010
0100
0001
0100
0010
1000
0001
,
0010
0100
1000
0001
1000
0010
0100
0010
1000
0001
0010
0100
0010
0001
1000
0010
0100
0001
0100
0010
1000
0001
0010
0100
,
1000
0001
1000
0010
0100
0010
1000
0001
0010
0001
1000
0010
0100
0001
0100
0010
1000
0010
1000
0001
0010
0100
1000
0001
,
0100
0010
1000
0001
1000
0100
0010
0001
1000
0001
0100
0010
1000
0010
0100
0001
1000
0001
0010
0001
1000
0010
0100
0001
,
0100
0010
1000
0001
1000
0100
0010
0001
1000
0001
0100
0010
1000
0001
0010
0001
1000
0010
0100
0001
0100
0010
1000
0001
,
0010
0100
1000
0001
1000
0010
0100
0010
1000
0001
1000
0100
0010
0001
1000
0001
0100
0010
1000
0001
0010
0100
0010
0001
,
1000
0001
0100
0010
1000
0001
0010
0100
1000
0001
1000
0010
0100
0010
1000
0001
1000
0100
0010
0001
1000
0001
0100
0010
,
1000
0001
0010
0001
1000
0010
0100
0001
0100
0010
1000
0001
0010
0100
1000
0001
1000
0010
0100
0010
1000
0001
0010
0001
,
0100
0010
1000
0001
1000
0100
0010
0001
1000
0001
0100
0010
1000
0001
0010
0001
1000
0010
0100
0001
0100
0010
1000
0001
,
1000
0100
0010
0001
1000
0001
0100
0010
1000
0001
0010
0100
0010
0001
1000
0001
0100
0010
1000
0010
0100
0001
1000
0001
,
0010
0100
1000
0001
1000
0010
0100
0010
1000
0001
0010
0100
0010
0001
1000
0001
0100
0010
0100
0001
1000
0001
0010
0100
,
1000
0001
1000
0010
0100
0010
1000
0001
0100
0010
1000
0010
0100
0001
1000
0001
0010
0100
1000
0001
0100
0010
0100
0001
,
1000
0010
0100
0001
0100
0010
1000
0001
0010
0100
1000
0001
1000
0010
0100
0010
1000
0001
0010
0100
0010
0001
1000
0001
,
0100
0010
1000
0010
0100
0001
1000
0001
0010
0100
1000
0001
1000
0010
0100
0010
1000
0001
0010
0100
0010
0001
1000
0010
,
0100
0001
0100
0010
1000
0001
0010
0100
1000
0001
1000
0010
0100
0010
1000
0001
0010
0001
1000
0010
0100
0001
0100
0010
,
1000
0001
1000
0100
0010
0001
1000
0001
0100
0010
1000
0001
0010
0100
1000
0001
1000
0010
0100
0010
1000
0001
0010
0100
,
0010
0001
0100
0010
1000
0001
0010
0001
0100
0010
1000
0100
0010
0001
1000
0100
1000
0010
0100
0001
1000
0001
0010
0100
,
1000
0010
1000
0001
0010
0100
0010
0001
0100
0010
1000
0001
0010
0100
1000
0010
1000
0001
0100
0010
0100
0001
0010
0100
,
1000
0001
0100
0001
0010
0100
1000
0010
1000
0001
0010
0100
0010
0001
0100
0010
1000
0001
0010
0100
1000
0010
1000
0001
,
0010
0100
0010
0001
0100
0010
1000
0001
0010
0100
1000
0010
1000
0001
0010
0001
0100
0010
1000
0100
0010
0001
0100
0010
,
1000
0100
1000
0010
0100
0001
1000
0100
0010
0001
0100
0001
1000
0010
1000
0100
0010
0001
0100
0001
1000
0100
0010
0100
,
1000
0001
0100
0010
1000
0010
0100
0001
1000
0100
0010
0001
0100
0001
1000
0010
0100
0001
1000
0001
0100
0010
1000
0100
,
0010
0001
0100
0010
1000
0100
0010
0001
0100
0010
1000
0100
0010
0001
0100
0010
1000
0100
0010
0001
0100
0010
1000
0100
,
0010
0001
0100
0010
1000
0100
0010
0001
0100
0010
1000
0100
0010
0001
0100
0010
1000
0100
0010
0001
0100
0010
1000
0100
,
0010
0001
1000
0001
0100
0010
0100
0001
1000
0100
1000
0001
0100
0010
1000
0010
0100
0001
1000
0001
0100
0010
0100
0001
,
1000
0001
0010
0100
1000
0010
0100
0001
1000
0100
0010
0001
0100
0001
1000
0100
1000
0001
0100
0010
1000
0010
0100
0001
,
1000
0100
0010
0001
0100
0010
1000
0100
0010
0001
0100
0010
1000
0100
0010
0001
0100
0010
1000
0100
0010
0001
0100
0010
,
1000
0100
0010
0001
0100
0010
1000
0100
0010
0001
0100
0010
1000
0100
0010
0001
0100
0010
1000
0100
0010
0001
0100
0010
,
1000
0001
0100
0001
1000
0010
0100
0001
1000
0100
0010
0001
0100
0001
1000
0100
0010
0100
1000
0001
0100
0010
1000
0001
,
0100
0010
1000
0010
0100
0001
1000
0100
0010
0001
0100
0001
1000
0100
1000
0001
0100
0010
1000
0001
0010
0100
1000
0001
,
0100
0010
1000
0100
0010
0001
0100
0010
1000
0100
0010
0001
0100
0010
1000
0100
0010
0001
0100
0010
1000
0100
0010
0001
,
0100
0010
1000
0100
0010
0001
0100
0010
1000
0100
0010
0001
0100
0010
1000
0100
0010
0001
0100
0010
1000
0100
0010
0001
,
1000
0001
0100
0010
1000
0001
0100
0010
0100
0001
1000
0100
0010
0100
1000
0001
0100
0010
1000
0010
0100
0001
1000
0100
,
0010
0001
1000
0001
0100
0010
1000
0010
0100
0001
1000
0100
0010
0001
1000
0001
0100
0010
0100
0001
1000
0100
0010
0001
,
0100
0010
1000
0100
0010
0001
0100
0010
1000
0100
0010
0001
0100
0010
1000
0100
0010
0001
0100
0010
1000
0100
0010
0001
,
0100
0010
1000
0100
0010
0001
0100
0010
1000
0100
0010
0001
0100
0010
1000
0100
0010
0001
0100
0010
1000
0100
0010
0001
,
0100
0010
1000
0001
0010
0100
1000
0001
0100
0010
0100
0001
1000
0100
0010
0100
1000
0010
0100
0001
0100
0010
1000
0001
,
0010
0100
1000
0001
1000
0010
0100
0010
1000
0001
0010
0100
0010
0001
1000
0010
0100
0001
0100
0010
1000
0001
0010
0100
,
1000
0001
1000
0010
0100
0010
1000
0001
0010
0001
1000
0010
0100
0001
0100
0010
1000
0010
1000
0001
0010
0100
1000
0001
,
0100
0010
1000
0001
1000
0100
0010
0001
1000
0001
0100
0010
1000
0010
0100
0001
1000
0001
0010
0001
1000
0010
0100
0001
,
0100
0010
1000
0001
1000
0100
0010
0001
1000
0001
0100
0010
1000
0001
0010
0001
1000
0010
0100
0001
0100
0010
1000
0001
,
0010
0100
1000
0001
1000
0010
0100
0010
1000
0001
1000
0100
0010
0001
1000
0001
0100
0010
1000
0001
0010
0100
0010
0001
,
1000
0001
0100
0010
1000
0001
0010
0100
1000
0001
1000
0010
0100
0010
1000
0001
1000
0100
0010
0001
1000
0001
0100
0010
,
1000
0001
0010
0001
1000
0010
0100
0001
0100
0010
1000
0001
0010
0100
1000
0001
1000
0010
0100
0010
1000
0001
0010
0001
,
0100
0010
1000
0001
1000
0100
0010
0001
1000
0001
0100
0010
1000
0001
0010
0001
1000
0010
0100
0001
0100
0010
1000
0001
,
1000
0100
0010
0001
1000
0001
0100
0010
1000
0001
0010
0100
0010
0001
1000
0001
0100
0010
1000
0010
0100
0001
1000
0001
,
0010
0100
1000
0001
1000
0010
0100
0010
1000
0001
0010
0100
0010
0001
1000
0001
0100
0010
0100
0001
1000
0001
0010
0100
,
1000
0001
1000
0010
0100
0010
1000
0001
0100
0010
1000
0010
0100
0001
1000
0001
0010
0100
1000
0001
0100
0010
0100
0001
,
1000
0010
0100
0001
0100
0010
1000
0001
0010
0100
1000
0001
1000
0010
0100
0010
1000
0001
0010
0100
0010
0001
1000
0001
,
0100
0010
1000
0010
0100
0001
1000
0001
0010
0100
1000
0001
1000
0010
0100
0010
1000
0001
0010
0100
0010
0001
1000
0010
,
0100
0001
0100
0010
1000
0001
0010
0100
1000
0001
1000
0010
0100
0010
1000
0001
0010
0001
1000
0010
0100
0001
0100
0010
,
1000
0001
1000
0100
0010
0001
1000
0001
0100
0010
1000
0001
0010
0100
1000
0001
1000
0010
0100
0010
1000
0001
0010
0100
,
0010
0001
0100
0010
1000
0001
0010
0001
0100
0010
1000
0100
0010
0001
1000
0100
1000
0010
0100
0001
1000
0001
0010
0100
,
1000
0010
1000
0001
0010
0100
0010
0001
0100
0010
1000
0001
0010
0100
1000
0010
1000
0001
0100
0010
0100
0001
0010
0100
,
1000
0001
0100
0001
0010
0100
1000
0010
1000
0001
0010
0100
0010
0001
0100
0010
1000
0001
0010
0100
1000
0010
1000
0001
,
0010
0100
0010
0001
0100
0010
1000
0001
0010
0100
1000
0010
1000
0001
0010
0001
0100
0010
1000
0100
0010
0001
0100
0010
,
1000
0100
1000
0010
0100
0001
0010
0001
0100
0010
1000
0100
0010
0001
0100
0001
1000
0100
0010
0100
1000
0010
0100
0001
,
1000
0100
0010
0001
0100
0001
1000
0010
1000
0100
0010
0001
0100
0001
0010
0100
1000
0010
0100
0001
0010
0001
0100
0010
,
1000
0100
1000
0010
0100
0001
0010
0100
1000
0010
0100
0001
1000
0100
0010
0001
0100
0001
1000
0100
0010
0100
1000
0010
,
0100
0001
1000
0100
0010
0001
0100
0001
1000
0010
1000
0100
0010
0001
0100
0001
0010
0100
1000
0010
0100
0001
1000
0010
,
1000
0100
0010
0001
,
1000
0010
0100
0001
,
1000
0100
0010
0001
,
1000
0010
0100
0001
,
1000
0100
0010
0001
,
1000
0010
0100
0001
,
1000
0100
0010
0001
,
1000
0010
0100
0001
,
1000
0100
0010
0001
,
1000
0010
0100
0001
,
1000
0100
0010
0001
,
2000
0000
0000
0000
,
0000
0000
0000
0000
,
3000
0000
0000
0000
;

//---------------dance-single - J. Nero----------------
#NOTES:
     dance-single:
     J. Nero:
     Medium:
     30:
     1.000,1.000,0.000,0.005,1.000,2817.000,0.000,1.000,0.000,0.000:
1000
0100
0010
0001
,
1000
0000
0010
0100
0001
0000
1000
0000
,
0001
0010
0100
1000
,
0001
0100
0010
1000
,
0001
0100
0001
0010
0100
1000
0010
0100
,
0001
0000
1000
0100
1000
0000
0010
0000
0100
0000
0001
0000
1000
0000
0000
0000
,
0001
0000
0000
0000
0010
0100
1000
0001
1000
0000
0000
0000
0001
0000
0000
0000
,
1000
0000
0010
0100
0001
0000
1000
0000
,
0001
0100
0001
1000
0100
0010
0001
1000
0010
0100
0001
1000
0100
0010
0100
1000
0001
0100
0010
1000
0010
0100
0001
1000
,
0100
0010
0001
0100
0001
1000
0100
0010
0100
1000
0001
0100
0010
1000
0010
0100
0001
1000
0100
0010
0001
0100
0001
1000
,
0010
1000
0010
0100
0001
1000
0010
0100
0001
1000
0001
0010
0100
1000
0001
0100
0010
1000
0001
1000
0100
0010
0001
1000
,
0001
0100
0010
1000
0010
0100
0001
1000
0100
0010
0001
1000
0001
0100
0010
0100
0001
1000
0100
0010
0100
1000
0001
0100
,
0010
1000
0001
1000
0100
0010
0001
0100
0001
1000
0010
1000
0001
0100
0010
1000
0010
0100
0001
1000
0100
0010
0001
1000
,
0001
0100
0010
1000
0001
0010
0100
0010
0001
1000
0001
0100
0010
1000
0010
0100
0001
1000
0001
0010
0100
1000
0001
1000
,
0010
0100
0001
1000
0010
0100
0001
0100
0010
1000
0001
1000
0100
0010
0001
1000
0001
0100
0010
1000
0010
0100
0001
1000
,
0100
1000
0001
0100
0010
1000
0010
0100
0001
1000
0001
0010
0100
1000
0001
1000
0010
0100
0001
1000
0100
0010
0001
1000
,
0001
0000
1000
0001
0100
0001
0010
0000
,
0100
1000
0001
1000
0010
0000
0100
0000
0001
0000
0010
0000
0100
0000
1000
0000
,
0010
0100
0001
1000
0000
0001
0010
0000
,
0100
1000
0001
1000
0010
0000
0100
0000
0000
0000
0001
0000
0010
0000
0001
0000
,
0100
0010
1000
0100
0000
1000
0001
0000
,
1000
0001
1000
0100
0010
0000
0001
0000
0100
0000
0010
0000
1000
0000
0100
0000
,
1000
0000
0010
0100
0000
0001
1000
0000
,
0001
0100
0001
0010
0100
0000
1000
0000
0001
0000
0100
0000
0010
0000
1000
0000
,
0100
0000
1000
0001
0100
0001
0010
0000
,
0100
1000
0001
1000
0010
0000
0100
0000
0001
0000
0010
0000
0100
0000
1000
0000
,
0010
0000
0100
0001
0000
1000
0001
0000
,
0100
0001
0010
0100
0010
0000
0100
0000
0000
0000
1000
0000
0001
0000
0100
0000
,
0010
0000
1000
0100
0000
1000
0001
0000
,
1000
0001
1000
0100
0010
0000
0001
0000
0100
0000
0001
0000
0010
0000
0100
0000
,
1000
0000
0000
0010
0000
0000
0100
0000
0000
0010
0000
0000
1000
0001
1000
0100
0010
0001
1000
0001
0100
0010
0100
0001
,
1000
0100
0010
0100
1000
0001
0100
0010
1000
0001
0100
0010
1000
0000
0000
0100
0000
0000
0010
0000
0000
0100
0000
0000
,
1000
0001
0100
0001
0010
0100
1000
0001
1000
0010
0100
0001
0010
0001
1000
0010
,
1000
0100
0010
0001
0100
0001
1000
0010
0100
0010
1000
0001
1000
0010
0100
0001
,
0010
0100
1000
0001
1000
0010
0100
0001
0010
0001
1000
0010
0100
0010
1000
0001
,
0010
0100
1000
0001
1000
0010
0100
0001
1000
0010
0100
0001
0010
0100
0010
0001
,
0100
0010
1000
0001
0100
0010
0100
0001
1000
0001
0010
0100
1000
0001
0100
0001
,
1000
0100
0010
0100
1000
0010
0100
0001
1000
0001
1000
0100
0010
0001
0100
0001
,
1000
0010
0100
0010
1000
0100
0010
0100
1000
0001
1000
0001
0100
0010
1000
0001
,
0100
0001
0000
1000
,
0001
0100
0001
1000
0100
0010
0001
1000
0010
0100
0010
1000
0001
0010
0100
0010
0001
0100
0010
1000
0010
0100
0001
1000
,
0100
0010
0001
1000
0001
0100
0010
0100
0001
1000
0100
0010
0100
1000
0001
0100
0010
1000
0010
0100
0001
1000
0100
0010
,
0001
1000
0001
0100
0010
0100
0001
1000
0100
1000
0001
0100
0010
1000
0010
0100
0001
0100
0001
1000
0100
0010
0001
1000
,
0010
0100
0001
1000
0001
0010
0100
1000
0001
1000
0010
0100
0001
0100
0010
1000
0001
1000
0100
1000
0001
0100
0010
1000
,
0010
0100
0001
1000
0001
0010
0100
1000
0001
1000
0010
0100
0001
1000
0100
1000
0001
0100
0010
1000
0010
0100
0001
1000
,
0100
0010
0001
1000
0001
0100
0010
0100
0001
1000
0001
0010
0100
1000
0001
1000
0010
0100
0001
1000
0100
0010
0100
1000
,
0001
1000
0010
0100
0001
1000
0100
0010
0001
1000
0001
0100
0010
0100
0001
1000
0001
0010
0100
1000
0001
1000
0010
0100
,
0001
1000
0100
1000
0001
0100
0010
1000
0010
0100
0001
1000
0100
0010
0001
1000
0001
0100
0010
0100
0001
1000
0100
1000
,
0010
0100
0001
1000
0001
0010
0100
1000
0001
1000
0010
0100
0001
1000
0100
1000
0001
0100
0010
1000
0010
0100
0001
1000
,
0001
0010
0100
1000
0001
1000
0010
0100
0001
1000
0100
0010
0100
1000
0001
1000
0010
0100
0001
0100
0010
1000
0001
1000
,
0100
0010
0001
1000
0001
0100
0010
0100
0001
1000
0100
0010
0100
1000
0001
1000
0010
0100
0010
1000
0001
1000
0100
0010
,
0001
1000
0001
0100
0010
0100
0001
1000
0010
0100
0001
0100
0010
1000
0001
1000
0100
0010
0001
1000
0010
0100
0010
1000
,
0001
0100
0010
1000
0010
0100
0001
1000
0100
0010
0001
1000
0001
0100
0010
0100
0001
1000
0100
0010
0100
1000
0001
1000
,
0010
0100
0001
0100
0010
1000
0001
1000
0100
0010
0001
1000
0001
0100
0010
0100
0001
1000
0100
0010
0100
1000
0001
0100
,
0010
1000
0010
0100
0001
1000
0100
0010
0001
1000
0001
0100
0010
0100
0001
1000
0100
1000
0001
0100
0010
1000
0010
0100
,
0001
1000
0001
0010
0100
1000
0001
1000
0010
0100
0001
1000
0100
0010
0001
1000
0001
0100
0010
0100
0001
1000
0100
0010
,
0100
1000
0010
0100
0001
1000
0100
1000
0010
0100
0001
0010
0100
1000
0001
0010
0001
0100
0010
1000
0001
1000
0100
0010
,
0001
0100
0001
1000
0100
0010
0100
1000
0010
0100
0001
1000
0100
0010
0001
0100
0001
1000
0010
0100
0010
1000
0100
0010
,
0001
1000
0010
1000
0100
0010
0001
0100
0001
1000
0100
0010
0100
1000
0010
0100
0001
1000
0100
0010
0001
0100
0001
1000
,
0100
0010
0100
1000
0010
0100
0001
1000
0100
0010
0001
0100
0001
1000
0100
1000
0010
0100
0001
0010
0100
1000
0010
0100
,
0001
0000
1000
0100
1000
0001
0010
0000
,
0100
0000
1000
0001
0100
0001
0010
0000
,
0100
0000
1000
0001
0000
1000
0001
0100
,
0001
0010
0100
1000
0010
0100
0001
1000
0100
0010
0001
0100
,
0001
1000
0100
1000
0010
0100
0001
1000
0100
0010
0001
0100
0001
1000
0100
0010
,
0001
1000
0010
1000
0100
0010
0001
1000
0001
0100
0010
1000
0100
1000
0001
0100
,
0010
1000
0001
1000
0100
0010
0001
0100
0001
1000
0010
0100
0010
1000
0100
0010
,
0001
1000
0001
0100
0001
0010
0100
1000
0001
1000
0100
1000
0010
0100
0010
1000
,
0100
0010
0001
0100
0001
1000
0001
0100
0010
1000
0010
0100
0001
1000
0100
0010
,
0001
1000
0100
1000
0010
0100
0001
0010
0001
0100
0010
1000
0100
0010
0001
0100
,
0001
0000
0000
0010
0000
0000
0100
0000
0000
1000
0000
0000
0001
0000
0100
0000
0001
0000
1000
0000
0010
0000
1000
0000
0100
0000
0010
0000
0001
0000
1000
0000
0001
0000
0010
0000
0100
0000
1000
0000
0010
0000
0100
0000
0001
0000
1000
0000
,
0001
0000
0100
0000
0010
0000
1000
0000
0010
0000
0100
0000
0001
0000
1000
0000
0100
0000
1000
0000
0001
0000
0100
0000
0010
0000
0000
1000
0000
0000
0010
0000
0000
0100
0000
0000
0001
0000
0000
0010
0000
0000
0100
0000
0000
1000
0000
0000
,
0001
0000
0000
1000
0000
0000
0100
0000
0000
0010
0000
0000
0001
0000
1000
0000
0001
0000
0010
0000
0100
0000
1000
0000
0001
0000
0000
0100
0000
0000
0010
0000
0000
1000
0000
0000
0010
0000
0000
0100
0000
0000
0001
0000
0000
1000
0000
0000
,
0100
0010
0001
0100
0001
1000
0010
0100
0010
1000
0001
0010
0100
1000
0010
0100
,
0001
1000
0100
1000
0001
1000
0100
0010
0001
0100
0001
1000
0010
0100
0010
1000
,
0100
1000
0100
0010
0001
0100
0001
1000
0001
0100
0010
0100
0001
0010
0100
1000
,
0010
1000
0001
1000
0010
0100
0001
1000
0100
1000
0010
0100
0010
1000
0001
0010
,
0001
0100
0010
1000
0010
0100
0001
0010
0100
1000
0010
1000
0001
0100
0001
1000
,
0100
0000
0000
0010
0000
0000
0100
0000
0000
1000
0000
0000
0001
0000
1000
0000
0010
0000
0100
0000
0001
0000
1000
0000
0100
0000
0010
0000
0001
0000
1000
0000
0001
0000
0100
0000
0010
0000
0100
0000
0001
0000
1000
0000
0100
0000
0010
0000
,
0100
0000
1000
0000
0001
0000
1000
0000
0010
0000
0100
0000
0001
0000
0100
0000
0010
0000
1000
0000
0001
0000
1000
0000
0100
0000
0010
0000
0001
0000
0100
0000
0001
0000
1000
0000
0010
0000
0000
0100
0000
0000
0010
0000
0000
1000
0000
0000
,
0001
1000
0100
0010
0001
0100
0001
1000
0100
0010
0100
1000
0010
1000
0001
0100
,
0010
1000
0001
1000
0001
0010
0100
1000
0010
0100
0010
1000
0001
1000
0100
0010
,
0001
0100
0010
1000
0010
0100
0001
1000
0100
1000
0001
0010
0100
0010
0001
1000
,
0010
0100
0010
1000
0001
0100
0001
1000
0100
1000
0010
0100
0010
1000
0001
0010
,
0100
1000
0010
1000
0001
0100
0001
1000
0001
0010
0100
1000
0010
0100
0001
0100
,
0010
1000
0001
0010
0100
0010
0001
0100
0010
1000
0010
0100
0001
1000
0100
0010
,
0001
0100
0001
1000
0001
0010
0100
1000
0001
0100
0010
1000
0100
0010
0001
0100
,
0001
1000
0000
0001
,
1000
0010
1000
0001
0010
0100
1000
0001
0100
0010
0100
0001
1000
0100
0010
0100
1000
0010
0100
0001
0100
0010
1000
0001
,
0010
0100
1000
0001
1000
0010
0100
0010
1000
0001
0010
0100
0010
0001
1000
0010
0100
0001
0100
0010
1000
0001
0010
0100
,
1000
0001
1000
0010
0100
0010
1000
0001
0010
0001
1000
0010
0100
0001
0100
0010
1000
0010
1000
0001
0010
0100
1000
0001
,
0100
0010
1000
0001
1000
0100
0010
0001
1000
0001
0100
0010
1000
0010
0100
0001
1000
0001
0010
0001
1000
0010
0100
0001
,
0100
0010
1000
0001
1000
0100
0010
0001
1000
0001
0100
0010
1000
0001
0010
0001
1000
0010
0100
0001
0100
0010
1000
0001
,
0010
0100
1000
0001
1000
0010
0100
0010
1000
0001
1000
0100
0010
0001
1000
0001
0100
0010
1000
0001
0010
0100
0010
0001
,
1000
0001
0100
0010
1000
0001
0010
0100
1000
0001
1000
0010
0100
0010
1000
0001
1000
0100
0010
0001
1000
0001
0100
0010
,
1000
0001
0010
0001
1000
0010
0100
0001
0100
0010
1000
0001
0010
0100
1000
0001
1000
0010
0100
0010
1000
0001
0010
0001
,
0100
0010
1000
0001
1000
0100
0010
0001
1000
0001
0100
0010
1000
0001
0010
0001
1000
0010
0100
0001
0100
0010
1000
0001
,
1000
0100
0010
0001
1000
0001
0100
0010
1000
0001
0010
0100
0010
0001
1000
0001
0100
0010
1000
0010
0100
0001
1000
0001
,
0010
0100
1000
0001
1000
0010
0100
0010
1000
0001
0010
0100
0010
0001
1000
0001
0100
0010
0100
0001
1000
0001
0010
0100
,
1000
0001
1000
0010
0100
0010
1000
0001
0100
0010
1000
0010
0100
0001
1000
0001
0010
0100
1000
0001
0100
0010
0100
0001
,
1000
0010
0100
0001
0100
0010
1000
0001
0010
0100
1000
0001
1000
0010
0100
0010
1000
0001
0010
0100
0010
0001
1000
0001
,
0100
0010
1000
0010
0100
0001
1000
0001
0010
0100
1000
0001
1000
0010
0100
0010
1000
0001
0010
0100
0010
0001
1000
0010
,
0100
0001
0100
0010
1000
0001
0010
0100
1000
0001
1000
0010
0100
0010
1000
0001
0010
0001
1000
0010
0100
0001
0100
0010
,
1000
0001
1000
0100
0010
0001
1000
0001
0100
0010
1000
0001
0010
0100
1000
0001
1000
0010
0100
0010
1000
0001
0010
0100
,
0010
0001
0100
0010
1000
0001
0010
0001
0100
0010
1000
0100
0010
0001
1000
0100
1000
0010
0100
0001
1000
0001
0010
0100
,
1000
0010
1000
0001
0010
0100
0010
0001
0100
0010
1000
0001
0010
0100
1000
0010
1000
0001
0100
0010
0100
0001
0010
0100
,
1000
0001
0100
0001
0010
0100
1000
0010
1000
0001
0010
0100
0010
0001
0100
0010
1000
0001
0010
0100
1000
0010
1000
0001
,
0010
0100
0010
0001
0100
0010
1000
0001
0010
0100
1000
0010
1000
0001
0010
0001
0100
0010
1000
0100
0010
0001
0100
0010
,
1000
0001
0010
0100
1000
0010
0100
0001
1000
0001
0010
0100
1000
0010
0100
0010
,
1000
0100
0010
0001
0100
0001
1000
0100
1000
0010
0100
0001
1000
0100
0010
0001
,
1000
0001
0100
0010
1000
0100
0010
0001
0100
0010
1000
0100
0010
0001
0100
0010
1000
0100
0010
0001
0100
0010
1000
0100
,
0010
0001
0100
0010
1000
0100
0010
0001
0100
0010
1000
0100
0010
0001
0100
0010
1000
0100
0010
0001
0100
0010
1000
0001
,
1000
0100
0010
0001
0100
0001
1000
0100
0010
0100
1000
0010
0100
0001
1000
0010
,
0100
0001
0010
0100
1000
0010
0100
0010
1000
0100
0010
0001
1000
0001
0100
0010
,
1000
0100
0010
0001
0100
0010
1000
0100
0010
0001
0100
0010
1000
0100
0010
0001
0100
0010
1000
0100
0010
0001
0100
0010
,
1000
0100
0010
0001
0100
0010
1000
0100
0010
0001
0100
0010
1000
0100
0010
0001
0100
0010
1000
0100
0010
0001
0100
0010
,
1000
0010
0100
0001
1000
0001
0010
0100
1000
0010
0100
0010
1000
0001
1000
0100
,
0010
0001
0100
0001
1000
0100
0010
0100
1000
0010
0100
0001
0010
0100
1000
0010
,
0100
0010
1000
0100
0010
0001
0100
0010
1000
0100
0010
0001
0100
0010
1000
0100
0010
0001
0100
0010
1000
0100
0010
0001
,
0100
0010
1000
0100
0010
0001
0100
0010
1000
0100
0010
0001
0100
0010
1000
0100
0010
0001
0100
0010
1000
0100
0010
0001
,
0100
0010
1000
0100
0010
0001
0100
0001
1000
0100
0010
0100
1000
0010
0100
0010
,
1000
0001
0100
0001
0010
0100
1000
0010
0100
0001
0010
0100
1000
0010
0100
0001
,
0100
0010
1000
0100
0010
0001
0100
0010
1000
0100
0010
0001
0100
0010
1000
0100
0010
0001
0100
0010
1000
0100
0010
0001
,
0100
0010
1000
0100
0010
0001
0100
0010
1000
0100
0010
0001
0100
0010
1000
0100
0010
0001
0100
0010
1000
0100
0010
0001
,
0100
0010
1000
0001
0010
0100
1000
0001
0100
0010
0100
0001
1000
0100
0010
0100
1000
0010
0100
0001
0100
0010
1000
0001
,
0010
0100
1000
0001
1000
0010
0100
0010
1000
0001
0010
0100
0010
0001
1000
0010
0100
0001
0100
0010
1000
0001
0010
0100
,
1000
0001
1000
0010
0100
0010
1000
0001
0010
0001
1000
0010
0100
0001
0100
0010
1000
0010
1000
0001
0010
0100
1000
0001
,
0100
0010
1000
0001
1000
0100
0010
0001
1000
0001
0100
0010
1000
0010
0100
0001
1000
0001
0010
0001
1000
0010
0100
0001
,
0100
0010
1000
0001
1000
0100
0010
0001
1000
0001
0100
0010
1000
0001
0010
0001
1000
0010
0100
0001
0100
0010
1000
0001
,
0010
0100
1000
0001
1000
0010
0100
0010
1000
0001
1000
0100
0010
0001
1000
0001
0100
0010
1000
0001
0010
0100
0010
0001
,
1000
0001
0100
0010
1000
0001
0010
0100
1000
0001
1000
0010
0100
0010
1000
0001
1000
0100
0010
0001
1000
0001
0100
0010
,
1000
0001
0010
0001
1000
0010
0100
0001
0100
0010
1000
0001
0010
0100
1000
0001
1000
0010
0100
0010
1000
0001
0010
0001
,
0100
0010
1000
0001
1000
0100
0010
0001
1000
0001
0100
0010
1000
0001
0010
0001
1000
0010
0100
0001
0100
0010
1000
0001
,
1000
0100
0010
0001
1000
0001
0100
0010
1000
0001
0010
0100
0010
0001
1000
0001
0100
0010
1000
0010
0100
0001
1000
0001
,
0010
0100
1000
0001
1000
0010
0100
0010
1000
0001
0010
0100
0010
0001
1000
0001
0100
0010
0100
0001
1000
0001
0010
0100
,
1000
0001
1000
0010
0100
0010
1000
0001
0100
0010
1000
0010
0100
0001
1000
0001
0010
0100
1000
0001
0100
0010
0100
0001
,
1000
0010
0100
0001
0100
0010
1000
0001
0010
0100
1000
0001
1000
0010
0100
0010
1000
0001
0010
0100
0010
0001
1000
0001
,
0100
0010
1000
0010
0100
0001
1000
0001
0010
0100
1000
0001
1000
0010
0100
0010
1000
0001
0010
0100
0010
0001
1000
0010
,
0100
0001
0100
0010
1000
0001
0010
0100
1000
0001
1000
0010
0100
0010
1000
0001
0010
0001
1000
0010
0100
0001
0100
0010
,
1000
0001
1000
0100
0010
0001
1000
0001
0100
0010
1000
0001
0010
0100
1000
0001
1000
0010
0100
0010
1000
0001
0010
0100
,
0010
0001
0100
0010
1000
0001
0010
0001
0100
0010
1000
0100
0010
0001
1000
0100
1000
0010
0100
0001
1000
0001
0010
0100
,
1000
0010
1000
0001
0010
0100
0010
0001
0100
0010
1000
0001
0010
0100
1000
0010
1000
0001
0100
0010
0100
0001
0010
0100
,
1000
0001
0100
0001
0010
0100
1000
0010
1000
0001
0010
0100
0010
0001
0100
0010
1000
0001
0010
0100
1000
0010
1000
0001
,
0010
0100
0010
0001
0100
0010
1000
0001
0010
0100
1000
0010
1000
0001
0010
0001
0100
0010
1000
0100
0010
0001
0100
0010
,
1000
0100
1000
0010
0100
0001
0010
0001
0100
0010
1000
0100
0010
0001
0100
0001
1000
0100
0010
0100
1000
0010
0100
0001
,
1000
0100
0010
0001
0100
0001
1000
0010
1000
0100
0010
0001
0100
0001
0010
0100
1000
0010
0100
0001
0010
0001
0100
0010
,
1000
0100
1000
0010
0100
0001
0010
0100
1000
0010
0100
0001
1000
0100
0010
0001
0100
0001
1000
0100
0010
0100
1000
0010
,
0100
0001
1000
0100
0010
0001
0100
0001
1000
0010
1000
0100
0010
0001
0100
0001
0010
0100
1000
0010
0100
0001
1000
0010
,
1000
0100
0010
0001
,
1000
0010
0100
0001
,
1000
0100
0010
0001
,
1000
0010
0100
0001
,
1000
0100
0010
0001
,
1000
0010
0100
0001
,
1000
0100
0010
0001
,
1000
0010
0100
0001
,
1000
0100
0010
0001
,
1000
0010
0100
0001
,
1000
0100
0010
0001
,
2000
0000
0000
0000
,
0000
0000
0000
0000
,
3000
0000
0000
0000
;

//---------------dance-single - J. Nero----------------
#NOTES:
     dance-single:
     J. Nero:
     Easy:
     28:
     1.000,1.000,0.000,0.005,1.000,2545.000,0.000,1.000,0.000,0.000:
1000
0100
0010
0001
,
1000
0000
0010
0100
0001
0000
1000
0000
,
0001
0010
0100
1000
,
0001
0100
0010
1000
,
0001
0100
0001
0010
0100
1000
0010
0100
,
0001
0000
1000
0100
1000
0000
0010
0000
0100
0000
0001
0000
1000
0000
0000
0000
,
0001
0000
0000
0000
0010
0100
1000
0001
1000
0000
0000
0000
0001
0000
0000
0000
,
1000
0000
0010
0100
0001
0000
1000
0000
,
0001
1000
0100
1000
0010
0100
0001
1000
0001
0100
0010
1000
0100
1000
0001
0100
,
0001
0010
0100
1000
0010
0100
0001
1000
0001
0010
0100
1000
0010
1000
0001
0100
,
0010
1000
0001
0010
0001
0100
0010
1000
0010
0100
0001
0010
0100
1000
0001
0100
,
0010
1000
0100
0010
0001
1000
0010
1000
0001
0010
0001
0100
0010
1000
0010
0100
,
0001
1000
0100
1000
0010
0100
0010
1000
0001
0100
0001
0010
0100
1000
0001
1000
,
0010
0100
0010
1000
0100
0010
0001
1000
0001
0100
0010
1000
0100
1000
0001
0100
,
0001
1000
0100
0010
0001
0100
0001
0010
0100
1000
0010
1000
0001
0100
0010
1000
,
0001
0010
0100
1000
0001
0100
0010
1000
0001
0010
0100
1000
0001
0100
0010
1000
,
0001
0000
1000
0001
0100
0001
0010
0000
,
0100
1000
0001
1000
0010
0000
0100
0000
0001
0000
0010
0000
0100
0000
1000
0000
,
0010
0100
0001
1000
0000
0001
0010
0000
,
0100
1000
0001
1000
0010
0000
0100
0000
0000
0000
0001
0000
0010
0000
0001
0000
,
0100
0010
1000
0100
0000
1000
0001
0000
,
1000
0001
1000
0100
0010
0000
0001
0000
0100
0000
0010
0000
1000
0000
0100
0000
,
1000
0000
0010
0100
0000
0001
1000
0000
,
0001
0100
0001
0010
0100
0000
1000
0000
0001
0000
0100
0000
0010
0000
1000
0000
,
0100
0000
1000
0001
0100
0001
0010
0000
,
0100
1000
0001
1000
0010
0000
0100
0000
0001
0000
0010
0000
0100
0000
1000
0000
,
0010
0000
0100
0001
0000
1000
0001
0000
,
0100
0001
0010
0100
0010
0000
0100
0000
0000
0000
1000
0000
0001
0000
0100
0000
,
0010
0000
1000
0100
0000
1000
0001
0000
,
1000
0001
1000
0100
0010
0000
0001
0000
0100
0000
0001
0000
0010
0000
0100
0000
,
1000
0000
0000
0010
0000
0000
0100
0000
0000
0010
0000
0000
1000
0001
1000
0100
0010
0001
1000
0001
0100
0010
0100
0001
,
1000
0100
0010
0100
1000
0001
0100
0010
1000
0001
0100
0010
1000
0000
0000
0100
0000
0000
0010
0000
0000
0100
0000
0000
,
1000
0001
0100
0001
0010
0100
1000
0001
1000
0010
0100
0001
0010
0001
1000
0010
,
1000
0100
0010
0001
0100
0001
1000
0010
0100
0010
1000
0001
1000
0010
0100
0001
,
0010
0100
1000
0001
1000
0010
0100
0001
0010
0001
1000
0010
0100
0010
1000
0001
,
0010
0100
1000
0001
1000
0010
0100
0001
1000
0010
0100
0001
0010
0100
0010
0001
,
0100
0010
1000
0001
0100
0010
0100
0001
1000
0001
0010
0100
1000
0001
0100
0001
,
1000
0100
0010
0100
1000
0010
0100
0001
1000
0001
1000
0100
0010
0001
0100
0001
,
1000
0010
0100
0010
1000
0100
0010
0100
1000
0001
1000
0001
0100
0010
1000
0001
,
0100
0001
0000
1000
,
0001
1000
0100
1000
0010
0100
0001
0100
0010
1000
0001
0010
0001
0100
0010
1000
,
0001
1000
0100
0010
0001
0100
0001
1000
0001
0010
0100
1000
0001
0100
0010
0100
,
0001
0010
0100
1000
0001
1000
0010
0100
0001
0100
0010
1000
0100
0010
0100
1000
,
0001
1000
0010
1000
0001
0010
0100
1000
0001
0100
0010
1000
0100
1000
0001
0100
,
0010
1000
0010
0100
0001
0010
0100
1000
0001
0100
0010
1000
0100
1000
0001
0100
,
0010
1000
0001
0100
0001
0010
0100
1000
0001
1000
0010
0100
0001
1000
0100
1000
,
0010
0100
0010
1000
0100
1000
0010
0100
0001
0100
0010
1000
0100
0010
0001
1000
,
0001
1000
0100
1000
0010
0100
0001
0010
0001
0100
0010
1000
0010
0100
0001
1000
,
0001
0010
0100
1000
0001
1000
0010
0100
0001
1000
0001
0010
0001
0100
0010
1000
,
0001
0010
0100
1000
0001
0100
0010
1000
0001
0010
0100
1000
0001
0100
0001
1000
,
0100
0010
0100
1000
0010
0100
0010
1000
0001
1000
0100
0010
0001
0100
0001
1000
,
0100
1000
0001
0100
0010
1000
0001
1000
0100
0010
0001
0100
0001
1000
0010
0100
,
0001
0100
0010
1000
0010
0100
0001
1000
0100
0010
0001
1000
0001
0100
0010
0100
0001
1000
0100
0010
0100
1000
0001
1000
,
0010
0100
0001
0100
0010
1000
0001
1000
0100
0010
0001
1000
0001
0100
0010
0100
0001
1000
0100
0010
0100
1000
0001
0100
,
0010
1000
0010
0100
0001
1000
0100
0010
0001
1000
0001
0100
0010
0100
0001
1000
0100
1000
0001
0100
0010
1000
0010
0100
,
0001
0000
1000
0000
0001
0000
0010
0000
0100
0000
1000
0000
0001
0000
1000
0000
0010
0000
0100
0000
0001
0000
1000
0000
0001
0000
0000
1000
0000
0000
0100
0000
0000
0010
0000
0000
0100
0000
0000
1000
0000
0000
0010
0000
0000
0100
0000
0000
,
0001
1000
0010
0100
0001
1000
0100
1000
0010
0100
0001
0010
0100
1000
0001
0010
0001
0100
0010
1000
0001
1000
0100
0010
,
0001
0100
0001
1000
0100
0010
0100
1000
0010
0100
0001
1000
0100
0010
0001
0100
0001
1000
0010
0100
0010
1000
0100
0010
,
0001
1000
0010
1000
0100
0010
0001
0100
0001
1000
0100
0010
0100
1000
0010
0100
0001
1000
0100
0010
0001
0100
0001
1000
,
0100
0000
0010
0000
0100
0000
1000
0000
0010
0000
0100
0000
0001
0000
1000
0000
0010
0000
0100
0000
0001
0000
1000
0000
0001
0000
0000
1000
0000
0000
0100
0000
0000
0010
0000
0000
0001
0000
0000
0100
0000
0000
0001
0000
0000
1000
0000
0000
,
0010
0000
1000
0100
1000
0001
0010
0000
,
0100
0000
1000
0001
0100
0001
0010
0000
,
0100
0000
1000
0001
0000
1000
0001
0100
,
0001
0010
0100
1000
0010
0100
0001
1000
0100
0010
0001
0100
,
0001
1000
0100
1000
0010
0100
0001
1000
0100
0010
0001
0100
0001
1000
0100
0010
,
0001
1000
0010
1000
0100
0010
0001
1000
0001
0100
0010
1000
0100
1000
0001
0100
,
0010
1000
0001
1000
0100
0010
0001
0100
0001
1000
0010
0100
0010
1000
0100
0010
,
0001
1000
0001
0100
0001
0010
0100
1000
0001
1000
0100
1000
0010
0100
0010
1000
,
0100
0010
0001
0100
0001
1000
0001
0100
0010
1000
0010
0100
0001
1000
0100
0010
,
0001
1000
0100
1000
0010
0100
0001
0010
0001
0100
0010
1000
0100
0010
0001
0100
,
0001
0000
0000
0010
0000
0000
0100
0000
0000
1000
0000
0000
0001
0000
0100
0000
0001
0000
1000
0000
0010
0000
1000
0000
0100
0000
0010
0000
0001
0000
1000
0000
0001
0000
0010
0000
0100
0000
1000
0000
0010
0000
0100
0000
0001
0000
1000
0000
,
0001
0000
0100
0000
0010
0000
1000
0000
0010
0000
0100
0000
0001
0000
1000
0000
0100
0000
1000
0000
0001
0000
0100
0000
0010
0000
0000
1000
0000
0000
0010
0000
0000
0100
0000
0000
0001
0000
0000
0010
0000
0000
0100
0000
0000
1000
0000
0000
,
0001
0000
0000
1000
0000
0000
0100
0000
0000
0010
0000
0000
0001
0000
1000
0000
0001
0000
0010
0000
0100
0000
1000
0000
0001
0000
0000
0100
0000
0000
0010
0000
0000
1000
0000
0000
0010
0000
0000
0100
0000
0000
0001
0000
0000
1000
0000
0000
,
0100
0010
0001
0100
0001
1000
0010
0100
0010
1000
0001
0010
0100
1000
0010
0100
,
0001
1000
0100
1000
0001
1000
0100
0010
0001
0100
0001
1000
0010
0100
0010
1000
,
0100
1000
0100
0010
0001
0100
0001
1000
0001
0100
0010
0100
0001
0010
0100
1000
,
0010
1000
0001
1000
0010
0100
0001
1000
0100
1000
0010
0100
0010
1000
0001
0010
,
0001
0100
0010
1000
0010
0100
0001
0010
0100
1000
0010
1000
0001
0100
0001
1000
,
0100
0000
0000
0010
0000
0000
0100
0000
0000
1000
0000
0000
0001
0000
1000
0000
0010
0000
0100
0000
0001
0000
1000
0000
0100
0000
0010
0000
0001
0000
1000
0000
0001
0000
0100
0000
0010
0000
0100
0000
0001
0000
1000
0000
0100
0000
0010
0000
,
0100
0000
1000
0000
0001
0000
1000
0000
0010
0000
0100
0000
0001
0000
0100
0000
0010
0000
1000
0000
0001
0000
1000
0000
0100
0000
0010
0000
0001
0000
0100
0000
0001
0000
1000
0000
0010
0000
0000
0100
0000
0000
0010
0000
0000
1000
0000
0000
,
0001
1000
0100
0010
0001
0100
0001
1000
0100
0010
0100
1000
0010
1000
0001
0100
,
0010
1000
0001
1000
0001
0010
0100
1000
0010
0100
0010
1000
0001
1000
0100
0010
,
0001
0100
0010
1000
0010
0100
0001
1000
0100
1000
0001
0010
0100
0010
0001
1000
,
0010
0100
0010
1000
0001
0100
0001
1000
0100
1000
0010
0100
0010
1000
0001
0010
,
0100
1000
0010
1000
0001
0100
0001
1000
0001
0010
0100
1000
0010
0100
0001
0100
,
0010
1000
0001
0010
0100
0010
0001
0100
0010
1000
0010
0100
0001
1000
0100
0010
,
0001
0100
0001
1000
0001
0010
0100
1000
0001
0100
0010
1000
0100
0010
0001
0100
,
0001
1000
0000
0001
,
1000
0001
0010
0001
0100
0010
1000
0010
0100
0001
1000
0100
1000
0010
0100
0001
,
1000
0001
0010
0100
1000
0010
1000
0001
1000
0100
0010
0001
1000
0010
0100
0010
,
1000
0100
0010
0001
1000
0001
0100
0010
1000
0010
0100
0001
0010
0100
0010
0001
,
1000
0001
0100
0001
1000
0100
0010
0001
1000
0010
0100
0001
0010
0001
1000
0010
,
0100
0001
0100
0010
1000
0100
0010
0001
1000
0010
0100
0001
0010
0001
1000
0010
,
0100
0001
1000
0010
1000
0100
0010
0001
1000
0001
0100
0010
1000
0001
0010
0001
,
0100
0010
0100
0001
0010
0001
0100
0010
1000
0010
0100
0001
0010
0100
1000
0001
,
1000
0001
0010
0001
0100
0010
1000
0100
1000
0010
0100
0001
0100
0010
1000
0001
,
1000
0100
0010
0001
1000
0001
0100
0010
1000
0001
1000
0100
1000
0010
0100
0001
,
1000
0100
0010
0001
1000
0010
0100
0001
1000
0100
0010
0001
1000
0010
1000
0001
,
0010
0100
0010
0001
0100
0010
0100
0001
1000
0001
0010
0100
1000
0010
1000
0001
,
0010
0001
1000
0010
0100
0001
1000
0001
0010
0100
1000
0010
1000
0001
0100
0010
,
1000
0010
0100
0001
0100
0010
1000
0001
0010
0100
1000
0001
1000
0010
0100
0010
1000
0001
0010
0100
0010
0001
1000
0001
,
0100
0010
1000
0010
0100
0001
1000
0001
0010
0100
1000
0001
1000
0010
0100
0010
1000
0001
0010
0100
0010
0001
1000
0010
,
0100
0001
0100
0010
1000
0001
0010
0100
1000
0001
1000
0010
0100
0010
1000
0001
0010
0001
1000
0010
0100
0001
0100
0010
,
1000
0000
0001
0000
1000
0000
0100
0000
0010
0000
0001
0000
1000
0000
0001
0000
0100
0000
0010
0000
1000
0000
0001
0000
1000
0000
0000
0001
0000
0000
0010
0000
0000
0100
0000
0000
0010
0000
0000
0001
0000
0000
0100
0000
0000
0010
0000
0000
,
1000
0001
0100
0010
1000
0001
0010
0001
0100
0010
1000
0100
0010
0001
1000
0100
1000
0010
0100
0001
1000
0001
0010
0100
,
1000
0010
1000
0001
0010
0100
0010
0001
0100
0010
1000
0001
0010
0100
1000
0010
1000
0001
0100
0010
0100
0001
0010
0100
,
1000
0001
0100
0001
0010
0100
1000
0010
1000
0001
0010
0100
0010
0001
0100
0010
1000
0001
0010
0100
1000
0010
1000
0001
,
0010
0000
0100
0000
0010
0000
0001
0000
0100
0000
0010
0000
1000
0000
0001
0000
0010
0000
0100
0000
1000
0000
0010
0000
1000
0000
0000
0001
0000
0000
0010
0000
0000
0100
0000
0000
1000
0000
0000
0010
0000
0000
1000
0000
0000
0001
0000
0000
,
0100
0001
0010
0100
1000
0010
0100
0001
1000
0001
0010
0100
1000
0010
0100
0010
,
1000
0100
0010
0001
0100
0001
1000
0100
1000
0010
0100
0001
1000
0100
0010
0001
,
1000
0001
0100
0010
1000
0100
0010
0001
0100
0010
1000
0100
0010
0001
0100
0010
1000
0100
0010
0001
0100
0010
1000
0100
,
0010
0001
0100
0010
1000
0100
0010
0001
0100
0010
1000
0100
0010
0001
0100
0010
1000
0100
0010
0001
0100
0010
1000
0001
,
1000
0100
0010
0001
0100
0001
1000
0100
0010
0100
1000
0010
0100
0001
1000
0010
,
0100
0001
0010
0100
1000
0010
0100
0010
1000
0100
0010
0001
1000
0001
0100
0010
,
1000
0100
0010
0001
0100
0010
1000
0100
0010
0001
0100
0010
1000
0100
0010
0001
0100
0010
1000
0100
0010
0001
0100
0010
,
1000
0100
0010
0001
0100
0010
1000
0100
0010
0001
0100
0010
1000
0100
0010
0001
0100
0010
1000
0100
0010
0001
0100
0010
,
1000
0010
0100
0001
1000
0001
0010
0100
1000
0010
0100
0010
1000
0001
1000
0100
,
0010
0001
0100
0001
1000
0100
0010
0100
1000
0010
0100
0001
0010
0100
1000
0010
,
0100
0010
1000
0100
0010
0001
0100
0010
1000
0100
0010
0001
0100
0010
1000
0100
0010
0001
0100
0010
1000
0100
0010
0001
,
0100
0010
1000
0100
0010
0001
0100
0010
1000
0100
0010
0001
0100
0010
1000
0100
0010
0001
0100
0010
1000
0100
0010
0001
,
0100
0010
1000
0100
0010
0001
0100
0001
1000
0100
0010
0100
1000
0010
0100
0010
,
1000
0001
0100
0001
0010
0100
1000
0010
0100
0001
0010
0100
1000
0010
0100
0001
,
0100
0010
1000
0100
0010
0001
0100
0010
1000
0100
0010
0001
0100
0010
1000
0100
0010
0001
0100
0010
1000
0100
0010
0001
,
0100
0010
1000
0100
0010
0001
0100
0010
1000
0100
0010
0001
0100
0010
1000
0100
0010
0001
0100
0010
1000
0100
0010
0001
,
0100
0010
1000
0001
0010
0100
1000
0001
0100
0010
0100
0001
1000
0100
0010
0100
1000
0010
0100
0001
0100
0010
1000
0001
,
0010
0100
1000
0001
1000
0010
0100
0010
1000
0001
0010
0100
0010
0001
1000
0010
0100
0001
0100
0010
1000
0001
0010
0100
,
1000
0001
1000
0010
0100
0010
1000
0001
0010
0001
1000
0010
0100
0001
0100
0010
1000
0010
1000
0001
0010
0100
1000
0001
,
0100
0010
1000
0001
1000
0100
0010
0001
1000
0001
0100
0010
1000
0010
0100
0001
1000
0001
0010
0001
1000
0010
0100
0001
,
0100
0010
1000
0001
1000
0100
0010
0001
1000
0001
0100
0010
1000
0001
0010
0001
1000
0010
0100
0001
0100
0010
1000
0001
,
0010
0100
1000
0001
1000
0010
0100
0010
1000
0001
1000
0100
0010
0001
1000
0001
0100
0010
1000
0001
0010
0100
0010
0001
,
1000
0001
0100
0010
1000
0001
0010
0100
1000
0001
1000
0010
0100
0010
1000
0001
1000
0100
0010
0001
1000
0001
0100
0010
,
1000
0001
0010
0001
1000
0010
0100
0001
0100
0010
1000
0001
0010
0100
1000
0001
1000
0010
0100
0010
1000
0001
0010
0001
,
0100
0010
1000
0001
1000
0100
0010
0001
1000
0001
0100
0010
1000
0001
0010
0001
1000
0010
0100
0001
0100
0010
1000
0001
,
1000
0100
0010
0001
1000
0001
0100
0010
1000
0001
0010
0100
0010
0001
1000
0001
0100
0010
1000
0010
0100
0001
1000
0001
,
0010
0100
1000
0001
1000
0010
0100
0010
1000
0001
0010
0100
0010
0001
1000
0001
0100
0010
0100
0001
1000
0001
0010
0100
,
1000
0001
1000
0010
0100
0010
1000
0001
0100
0010
1000
0010
0100
0001
1000
0001
0010
0100
1000
0001
0100
0010
0100
0001
,
1000
0010
0100
0001
0100
0010
1000
0001
0010
0100
1000
0001
1000
0010
0100
0010
1000
0001
0010
0100
0010
0001
1000
0001
,
0100
0010
1000
0010
0100
0001
1000
0001
0010
0100
1000
0001
1000
0010
0100
0010
1000
0001
0010
0100
0010
0001
1000
0010
,
0100
0001
0100
0010
1000
0001
0010
0100
1000
0001
1000
0010
0100
0010
1000
0001
0010
0001
1000
0010
0100
0001
0100
0010
,
1000
0001
1000
0100
0010
0001
1000
0001
0100
0010
1000
0001
0010
0100
1000
0001
1000
0010
0100
0010
1000
0001
0010
0100
,
0010
0001
0100
0010
1000
0001
0010
0001
0100
0010
1000
0100
0010
0001
1000
0100
1000
0010
0100
0001
1000
0001
0010
0100
,
1000
0010
1000
0001
0010
0100
0010
0001
0100
0010
1000
0001
0010
0100
1000
0010
1000
0001
0100
0010
0100
0001
0010
0100
,
1000
0001
0100
0001
0010
0100
1000
0010
1000
0001
0010
0100
0010
0001
0100
0010
1000
0001
0010
0100
1000
0010
1000
0001
,
0010
0100
0010
0001
0100
0010
1000
0001
0010
0100
1000
0010
1000
0001
0010
0001
0100
0010
1000
0100
0010
0001
0100
0010
,
1000
0100
1000
0010
0100
0001
0010
0001
0100
0010
1000
0100
0010
0001
0100
0001
1000
0100
0010
0100
1000
0010
0100
0001
,
1000
0100
0010
0001
0100
0001
1000
0010
1000
0100
0010
0001
0100
0001
0010
0100
1000
0010
0100
0001
0010
0001
0100
0010
,
1000
0100
1000
0010
0100
0001
0010
0100
1000
0010
0100
0001
1000
0100
0010
0001
0100
0001
1000
0100
0010
0100
1000
0010
,
0100
0001
1000
0100
0010
0001
0100
0001
1000
0010
1000
0100
0010
0001
0100
0001
0010
0100
1000
0010
0100
0001
1000
0010
,
1000
0100
0010
0001
,
1000
0010
0100
0001
,
1000
0100
0010
0001
,
1000
0010
0100
0001
,
1000
0100
0010
0001
,
1000
0010
0100
0001
,
1000
0100
0010
0001
,
1000
0010
0100
0001
,
1000
0100
0010
0001
,
1000
0010
0100
0001
,
1000
0100
0010
0001
,
2000
0000
0000
0000
,
0000
0000
0000
0000
,
3000
0000
0000
0000
;

//---------------dance-single - J. Nero----------------
#NOTES:
     dance-single:
     J. Nero:
     Beginner:
     27:
     1.000,1.000,0.000,0.005,1.000,2441.000,0.000,1.000,0.000,0.000:
1000
0100
0010
0001
,
1000
0000
0010
0100
0001
0000
1000
0000
,
0001
0010
0100
1000
,
0001
0100
0010
1000
,
0001
0100
0001
0010
0100
1000
0010
0100
,
0001
0000
1000
0100
1000
0000
0010
0000
0100
0000
0001
0000
1000
0000
0000
0000
,
0001
0000
0000
0000
0010
0100
1000
0001
1000
0000
0000
0000
0001
0000
0000
0000
,
1000
0000
0010
0100
0001
0000
1000
0000
,
0001
1000
0100
1000
0010
0100
0001
1000
0001
0100
0010
1000
0100
1000
0001
0100
,
0001
0010
0100
1000
0010
0100
0001
1000
0001
0010
0100
1000
0010
1000
0001
0100
,
0010
1000
0001
0010
0001
0100
0010
1000
0010
0100
0001
0010
0100
1000
0001
0100
,
0010
1000
0100
0010
0001
1000
0010
1000
0001
0010
0001
0100
0010
1000
0010
0100
,
0001
1000
0100
1000
0010
0100
0010
1000
0001
0100
0001
0010
0100
1000
0001
1000
,
0010
0100
0010
1000
0100
0010
0001
1000
0001
0100
0010
1000
0100
1000
0001
0100
,
0001
1000
0100
0010
0001
0100
0001
0010
0100
1000
0010
1000
0001
0100
0010
1000
,
0001
0010
0100
1000
0001
0100
0010
1000
0001
0010
0100
1000
0001
0100
0010
1000
,
0001
0000
1000
0001
0100
0001
0010
0000
,
0100
1000
0001
1000
0010
0000
0100
0000
0001
0000
0010
0000
0100
0000
1000
0000
,
0010
0100
0001
1000
0000
0001
0010
0000
,
0100
1000
0001
1000
0010
0000
0100
0000
0000
0000
0001
0000
0010
0000
0001
0000
,
0100
0010
1000
0100
0000
1000
0001
0000
,
1000
0001
1000
0100
0010
0000
0001
0000
0100
0000
0010
0000
1000
0000
0100
0000
,
1000
0000
0010
0100
0000
0001
1000
0000
,
0001
0100
0001
0010
0100
0000
1000
0000
0001
0000
0100
0000
0010
0000
1000
0000
,
0100
0000
1000
0001
0100
0001
0010
0000
,
0100
1000
0001
1000
0010
0000
0100
0000
0001
0000
0010
0000
0100
0000
1000
0000
,
0010
0000
0100
0001
0000
1000
0001
0000
,
0100
0001
0010
0100
0010
0000
0100
0000
0000
0000
1000
0000
0001
0000
0100
0000
,
0010
0000
1000
0100
0000
1000
0001
0000
,
1000
0001
1000
0100
0010
0000
0001
0000
0100
0000
0001
0000
0010
0000
0100
0000
,
1000
0000
0000
0010
0000
0000
0100
0000
0000
0010
0000
0000
1000
0001
1000
0100
0010
0001
1000
0001
0100
0010
0100
0001
,
1000
0100
0010
0100
1000
0001
0100
0010
1000
0001
0100
0010
1000
0000
0000
0100
0000
0000
0010
0000
0000
0100
0000
0000
,
1000
0001
0100
0001
0010
0100
1000
0001
1000
0010
0100
0001
0010
0001
1000
0010
,
1000
0100
0010
0001
0100
0001
1000
0010
0100
0010
1000
0001
1000
0010
0100
0001
,
0010
0100
1000
0001
1000
0010
0100
0001
0010
0001
1000
0010
0100
0010
1000
0001
,
0010
0100
1000
0001
1000
0010
0100
0001
1000
0010
0100
0001
0010
0100
0010
0001
,
0100
0010
1000
0001
0100
0010
0100
0001
1000
0001
0010
0100
1000
0001
0100
0001
,
1000
0100
0010
0100
1000
0010
0100
0001
1000
0001
1000
0100
0010
0001
0100
0001
,
1000
0010
0100
0010
1000
0100
0010
0100
1000
0001
1000
0001
0100
0010
1000
0001
,
0100
0001
0000
1000
,
0001
1000
0100
1000
0010
0100
0001
0100
0010
1000
0001
0010
0001
0100
0010
1000
,
0001
1000
0100
0010
0001
0100
0001
1000
0001
0010
0100
1000
0001
0100
0010
0100
,
0001
0010
0100
1000
0001
1000
0010
0100
0001
0100
0010
1000
0100
0010
0100
1000
,
0001
1000
0010
1000
0001
0010
0100
1000
0001
0100
0010
1000
0100
1000
0001
0100
,
0010
1000
0010
0100
0001
0010
0100
1000
0001
0100
0010
1000
0100
1000
0001
0100
,
0010
1000
0001
0100
0001
0010
0100
1000
0001
1000
0010
0100
0001
1000
0100
1000
,
0010
0100
0010
1000
0100
1000
0010
0100
0001
0100
0010
1000
0100
0010
0001
1000
,
0001
1000
0100
1000
0010
0100
0001
0010
0001
0100
0010
1000
0010
0100
0001
1000
,
0001
0010
0100
1000
0001
1000
0010
0100
0001
1000
0001
0010
0001
0100
0010
1000
,
0001
0010
0100
1000
0001
0100
0010
1000
0001
0010
0100
1000
0001
0100
0001
1000
,
0100
0010
0100
1000
0010
0100
0010
1000
0001
1000
0100
0010
0001
0100
0001
1000
,
0100
1000
0001
0100
0010
1000
0001
1000
0100
0010
0001
0100
0001
1000
0010
0100
,
0001
0100
0010
1000
0010
0100
0001
1000
0100
0010
0001
1000
0001
0100
0010
0100
0001
1000
0100
0010
0100
1000
0001
1000
,
0010
0100
0001
0100
0010
1000
0001
1000
0100
0010
0001
1000
0001
0100
0010
0100
0001
1000
0100
0010
0100
1000
0001
0100
,
0010
1000
0010
0100
0001
1000
0100
0010
0001
1000
0001
0100
0010
0100
0001
1000
0100
1000
0001
0100
0010
1000
0010
0100
,
0001
0000
1000
0000
0001
0000
0010
0000
0100
0000
1000
0000
0001
0000
1000
0000
0010
0000
0100
0000
0001
0000
1000
0000
0001
0000
0000
1000
0000
0000
0100
0000
0000
0010
0000
0000
0100
0000
0000
1000
0000
0000
0010
0000
0000
0100
0000
0000
,
0001
1000
0010
0100
0001
1000
0100
1000
0010
0100
0001
0010
0100
1000
0001
0010
0001
0100
0010
1000
0001
1000
0100
0010
,
0001
0100
0001
1000
0100
0010
0100
1000
0010
0100
0001
1000
0100
0010
0001
0100
0001
1000
0010
0100
0010
1000
0100
0010
,
0001
1000
0010
1000
0100
0010
0001
0100
0001
1000
0100
0010
0100
1000
0010
0100
0001
1000
0100
0010
0001
0100
0001
1000
,
0100
0000
0010
0000
0100
0000
1000
0000
0010
0000
0100
0000
0001
0000
1000
0000
0010
0000
0100
0000
0001
0000
1000
0000
0001
0000
0000
1000
0000
0000
0100
0000
0000
0010
0000
0000
0001
0000
0000
0100
0000
0000
0001
0000
0000
1000
0000
0000
,
0010
0000
1000
0100
1000
0001
0010
0000
,
0100
0000
1000
0001
0100
0001
0010
0000
,
0100
0000
1000
0001
0000
1000
0001
0100
,
0001
0010
0100
1000
0010
0100
0001
1000
0100
0010
0001
0100
,
0001
1000
0100
1000
0010
0100
0001
1000
0100
0010
0001
0100
0001
1000
0100
0010
,
0001
1000
0010
1000
0100
0010
0001
1000
0001
0100
0010
1000
0100
1000
0001
0100
,
0010
1000
0001
1000
0100
0010
0001
0100
0001
1000
0010
0100
0010
1000
0100
0010
,
0001
1000
0001
0100
0001
0010
0100
1000
0001
1000
0100
1000
0010
0100
0010
1000
,
0100
0010
0001
0100
0001
1000
0001
0100
0010
1000
0010
0100
0001
1000
0100
0010
,
0001
1000
0100
1000
0010
0100
0001
0010
0001
0100
0010
1000
0100
0010
0001
0100
,
0001
0000
0000
0010
0000
0000
0100
0000
0000
1000
0000
0000
0001
0000
0100
0000
0001
0000
1000
0000
0010
0000
1000
0000
0100
0000
0010
0000
0001
0000
1000
0000
0001
0000
0010
0000
0100
0000
1000
0000
0010
0000
0100
0000
0001
0000
1000
0000
,
0001
0000
0100
0000
0010
0000
1000
0000
0010
0000
0100
0000
0001
0000
1000
0000
0100
0000
1000
0000
0001
0000
0100
0000
0010
0000
0000
1000
0000
0000
0010
0000
0000
0100
0000
0000
0001
0000
0000
0010
0000
0000
0100
0000
0000
1000
0000
0000
,
0001
0000
0000
1000
0000
0000
0100
0000
0000
0010
0000
0000
0001
0000
1000
0000
0001
0000
0010
0000
0100
0000
1000
0000
0001
0000
0000
0100
0000
0000
0010
0000
0000
1000
0000
0000
0010
0000
0000
0100
0000
0000
0001
0000
0000
1000
0000
0000
,
0100
0010
0001
0100
0001
1000
0010
0100
0010
1000
0001
0010
0100
1000
0010
0100
,
0001
1000
0100
1000
0001
1000
0100
0010
0001
0100
0001
1000
0010
0100
0010
1000
,
0100
1000
0100
0010
0001
0100
0001
1000
0001
0100
0010
0100
0001
0010
0100
1000
,
0010
1000
0001
1000
0010
0100
0001
1000
0100
1000
0010
0100
0010
1000
0001
0010
,
0001
0100
0010
1000
0010
0100
0001
0010
0100
1000
0010
1000
0001
0100
0001
1000
,
0100
0000
0000
0010
0000
0000
0100
0000
0000
1000
0000
0000
0001
0000
1000
0000
0010
0000
0100
0000
0001
0000
1000
0000
0100
0000
0010
0000
0001
0000
1000
0000
0001
0000
0100
0000
0010
0000
0100
0000
0001
0000
1000
0000
0100
0000
0010
0000
,
0100
0000
1000
0000
0001
0000
1000
0000
0010
0000
0100
0000
0001
0000
0100
0000
0010
0000
1000
0000
0001
0000
1000
0000
0100
0000
0010
0000
0001
0000
0100
0000
0001
0000
1000
0000
0010
0000
0000
0100
0000
0000
0010
0000
0000
1000
0000
0000
,
0001
1000
0100
0010
0001
0100
0001
1000
0100
0010
0100
1000
0010
1000
0001
0100
,
0010
1000
0001
1000
0001
0010
0100
1000
0010
0100
0010
1000
0001
1000
0100
0010
,
0001
0100
0010
1000
0010
0100
0001
1000
0100
1000
0001
0010
0100
0010
0001
1000
,
0010
0100
0010
1000
0001
0100
0001
1000
0100
1000
0010
0100
0010
1000
0001
0010
,
0100
1000
0010
1000
0001
0100
0001
1000
0001
0010
0100
1000
0010
0100
0001
0100
,
0010
1000
0001
0010
0100
0010
0001
0100
0010
1000
0010
0100
0001
1000
0100
0010
,
0001
0100
0001
1000
0001
0010
0100
1000
0001
0100
0010
1000
0100
0010
0001
0100
,
0001
1000
0000
0001
,
1000
0001
0010
0001
0100
0010
1000
0010
0100
0001
1000
0100
1000
0010
0100
0001
,
1000
0001
0010
0100
1000
0010
1000
0001
1000
0100
0010
0001
1000
0010
0100
0010
,
1000
0100
0010
0001
1000
0001
0100
0010
1000
0010
0100
0001
0010
0100
0010
0001
,
1000
0001
0100
0001
1000
0100
0010
0001
1000
0010
0100
0001
0010
0001
1000
0010
,
0100
0001
0100
0010
1000
0100
0010
0001
1000
0010
0100
0001
0010
0001
1000
0010
,
0100
0001
1000
0010
1000
0100
0010
0001
1000
0001
0100
0010
1000
0001
0010
0001
,
0100
0010
0100
0001
0010
0001
0100
0010
1000
0010
0100
0001
0010
0100
1000
0001
,
1000
0001
0010
0001
0100
0010
1000
0100
1000
0010
0100
0001
0100
0010
1000
0001
,
1000
0100
0010
0001
1000
0001
0100
0010
1000
0001
1000
0100
1000
0010
0100
0001
,
1000
0100
0010
0001
1000
0010
0100
0001
1000
0100
0010
0001
1000
0010
1000
0001
,
0010
0100
0010
0001
0100
0010
0100
0001
1000
0001
0010
0100
1000
0010
1000
0001
,
0010
0001
1000
0010
0100
0001
1000
0001
0010
0100
1000
0010
1000
0001
0100
0010
,
1000
0010
0100
0001
0100
0010
1000
0001
0010
0100
1000
0001
1000
0010
0100
0010
1000
0001
0010
0100
0010
0001
1000
0001
,
0100
0010
1000
0010
0100
0001
1000
0001
0010
0100
1000
0001
1000
0010
0100
0010
1000
0001
0010
0100
0010
0001
1000
0010
,
0100
0001
0100
0010
1000
0001
0010
0100
1000
0001
1000
0010
0100
0010
1000
0001
0010
0001
1000
0010
0100
0001
0100
0010
,
1000
0000
0001
0000
1000
0000
0100
0000
0010
0000
0001
0000
1000
0000
0001
0000
0100
0000
0010
0000
1000
0000
0001
0000
1000
0000
0000
0001
0000
0000
0010
0000
0000
0100
0000
0000
0010
0000
0000
0001
0000
0000
0100
0000
0000
0010
0000
0000
,
1000
0001
0100
0010
1000
0001
0010
0001
0100
0010
1000
0100
0010
0001
1000
0100
1000
0010
0100
0001
1000
0001
0010
0100
,
1000
0010
1000
0001
0010
0100
0010
0001
0100
0010
1000
0001
0010
0100
1000
0010
1000
0001
0100
0010
0100
0001
0010
0100
,
1000
0001
0100
0001
0010
0100
1000
0010
1000
0001
0010
0100
0010
0001
0100
0010
1000
0001
0010
0100
1000
0010
1000
0001
,
0010
0000
0100
0000
0010
0000
0001
0000
0100
0000
0010
0000
1000
0000
0001
0000
0010
0000
0100
0000
1000
0000
0010
0000
1000
0000
0000
0001
0000
0000
0010
0000
0000
0100
0000
0000
1000
0000
0000
0010
0000
0000
1000
0000
0000
0001
0000
0000
,
0100
0001
0010
0100
1000
0010
0100
0001
1000
0001
0010
0100
1000
0010
0100
0010
,
1000
0100
0010
0001
0100
0001
1000
0100
1000
0010
0100
0001
1000
0100
0010
0001
,
1000
0001
0100
0010
1000
0100
0010
0001
0100
0010
1000
0100
0010
0001
0100
0010
1000
0100
0010
0001
0100
0010
1000
0100
,
0010
0001
0100
0010
1000
0100
0010
0001
0100
0010
1000
0100
0010
0001
0100
0010
1000
0100
0010
0001
0100
0010
1000
0001
,
1000
0100
0010
0001
0100
0001
1000
0100
0010
0100
1000
0010
0100
0001
1000
0010
,
0100
0001
0010
0100
1000
0010
0100
0010
1000
0100
0010
0001
1000
0001
0100
0010
,
1000
0100
0010
0001
0100
0010
1000
0100
0010
0001
0100
0010
1000
0100
0010
0001
0100
0010
1000
0100
0010
0001
0100
0010
,
1000
0100
0010
0001
0100
0010
1000
0100
0010
0001
0100
0010
1000
0100
0010
0001
0100
0010
1000
0100
0010
0001
0100
0010
,
1000
0010
0100
0001
1000
0001
0010
0100
1000
0010
0100
0010
1000
0001
1000
0100
,
0010
0001
0100
0001
1000
0100
0010
0100
1000
0010
0100
0001
0010
0100
1000
0010
,
0100
0010
1000
0100
0010
0001
0100
0010
1000
0100
0010
0001
0100
0010
1000
0100
0010
0001
0100
0010
1000
0100
0010
0001
,
0100
0010
1000
0100
0010
0001
0100
0010
1000
0100
0010
0001
0100
0010
1000
0100
0010
0001
0100
0010
1000
0100
0010
0001
,
0100
0010
1000
0100
0010
0001
0100
0001
1000
0100
0010
0100
1000
0010
0100
0010
,
1000
0001
0100
0001
0010
0100
1000
0010
0100
0001
0010
0100
1000
0010
0100
0001
,
0100
0010
1000
0100
0010
0001
0100
0010
1000
0100
0010
0001
0100
0010
1000
0100
0010
0001
0100
0010
1000
0100
0010
0001
,
0100
0010
1000
0100
0010
0001
0100
0010
1000
0100
0010
0001
0100
0010
1000
0100
0010
0001
0100
0010
1000
0100
0010
0001
,
1000
0001
0010
0001
0100
0010
1000
0010
0100
0001
1000
0100
1000
0010
0100
0001
,
1000
0001
0010
0100
1000
0010
1000
0001
1000
0100
0010
0001
1000
0010
0100
0010
,
1000
0100
0010
0001
1000
0001
0100
0010
1000
0010
0100
0001
0010
0100
0010
0001
,
1000
0001
0100
0001
1000
0100
0010
0001
1000
0010
0100
0001
0010
0001
1000
0010
,
0100
0001
0100
0010
1000
0100
0010
0001
1000
0010
0100
0001
0010
0001
1000
0010
,
0100
0001
1000
0010
1000
0100
0010
0001
1000
0001
0100
0010
1000
0001
0010
0001
,
0100
0010
0100
0001
0010
0001
0100
0010
1000
0010
0100
0001
0010
0100
1000
0001
,
1000
0001
0010
0001
0100
0010
1000
0100
1000
0010
0100
0001
0100
0010
1000
0001
,
1000
0100
0010
0001
1000
0001
0100
0010
1000
0001
1000
0100
1000
0010
0100
0001
,
1000
0100
0010
0001
1000
0010
0100
0001
1000
0100
0010
0001
1000
0010
1000
0001
,
0010
0100
0010
0001
0100
0010
0100
0001
1000
0001
0010
0100
1000
0010
1000
0001
,
0010
0001
1000
0010
0100
0001
1000
0001
0010
0100
1000
0010
1000
0001
0100
0010
,
1000
0010
0100
0001
0100
0010
1000
0001
0010
0100
1000
0001
1000
0010
0100
0010
1000
0001
0010
0100
0010
0001
1000
0001
,
0100
0010
1000
0010
0100
0001
1000
0001
0010
0100
1000
0001
1000
0010
0100
0010
1000
0001
0010
0100
0010
0001
1000
0010
,
0100
0001
0100
0010
1000
0001
0010
0100
1000
0001
1000
0010
0100
0010
1000
0001
0010
0001
1000
0010
0100
0001
0100
0010
,
1000
0000
0001
0000
1000
0000
0100
0000
0010
0000
0001
0000
1000
0000
0001
0000
0100
0000
0010
0000
1000
0000
0001
0000
1000
0000
0000
0001
0000
0000
0010
0000
0000
0100
0000
0000
0010
0000
0000
0001
0000
0000
0100
0000
0000
0010
0000
0000
,
1000
0001
0100
0010
1000
0001
0010
0001
0100
0010
1000
0100
0010
0001
1000
0100
1000
0010
0100
0001
1000
0001
0010
0100
,
1000
0010
1000
0001
0010
0100
0010
0001
0100
0010
1000
0001
0010
0100
1000
0010
1000
0001
0100
0010
0100
0001
0010
0100
,
1000
0001
0100
0001
0010
0100
1000
0010
1000
0001
0010
0100
0010
0001
0100
0010
1000
0001
0010
0100
1000
0010
1000
0001
,
0010
0000
0100
0000
0010
0000
0001
0000
0100
0000
0010
0000
1000
0000
0001
0000
0010
0000
0100
0000
1000
0000
0010
0000
1000
0000
0000
0001
0000
0000
0010
0000
0000
0100
0000
0000
1000
0000
0000
0010
0000
0000
1000
0000
0000
0001
0000
0000
,
0100
0010
1000
0010
0100
0001
0010
0001
0100
0010
1000
0100
0010
0001
0100
0001
1000
0100
0010
0100
1000
0010
0100
0001
,
1000
0100
0010
0001
0100
0001
1000
0010
1000
0100
0010
0001
0100
0001
0010
0100
1000
0010
0100
0001
0010
0001
0100
0010
,
1000
0100
1000
0010
0100
0001
0010
0100
1000
0010
0100
0001
1000
0100
0010
0001
0100
0001
1000
0100
0010
0100
1000
0010
,
0100
0001
1000
0100
0010
0001
0100
0001
1000
0010
1000
0100
0010
0001
0100
0001
0010
0100
1000
0010
0100
0001
1000
0010
,
1000
0100
0010
0001
,
1000
0010
0100
0001
,
1000
0100
0010
0001
,
1000
0010
0100
0001
,
1000
0100
0010
0001
,
1000
0010
0100
0001
,
1000
0100
0010
0001
,
1000
0010
0100
0001
,
1000
0100
0010
0001
,
1000
0010
0100
0001
,
1000
0100
0010
0001
,
2000
0000
0000
0000
,
0000
0000
0000
0000
,
3000
0000
0000
0000
;
