#TITLE:Speed of Light;
#SUBTITLE:;
#ARTIST:Stratovarius;
#TITLETRANSLIT:;
#SUBTITLETRANSLIT:;
#ARTISTTRANSLIT:;
#CREDIT:;
#BANNER:../Jawn - ban.png;
#BACKGROUND:../Jawn - bg.png;
#LYRICSPATH:;
#CDTITLE:;
#MUSIC:Speed of Light.ogg;
#OFFSET:0.261;
#SAMPLESTART:71.450;
#SAMPLELENGTH:11.900;
#SELECTABLE:YES;
#DISPLAYBPM:164.000;
#BPMS:0.000=163.900,4.000=164.100,12.000=165.300,16.000=163.200,17.500=161.000,19.250=163.000,28.000=164.500,30.500=163.000,34.000=164.100,52.000=164.000,56.000=163.750,61.000=163.200,65.000=162.400,69.000=161.000,73.000=164.100,81.000=163.800,90.000=164.100,97.000=164.200,99.000=163.000,101.000=163.200,135.000=161.000,137.000=166.000,138.000=164.200,145.000=163.300,151.000=163.900,162.000=163.300,165.000=166.000,169.000=163.100,196.000=160.000,199.000=164.500,201.000=164.500,208.000=164.400,212.000=163.000,217.000=163.900,227.000=163.800,229.000=167.500,230.000=166.000,231.000=162.000,232.000=161.000,233.000=163.000,239.000=161.500,241.000=163.800,272.000=163.000,277.000=163.400,282.000=163.800,285.000=166.700,290.000=164.880,291.000=162.000,293.000=163.300,309.000=161.800,316.000=163.800,336.000=164.000,343.000=162.400,345.000=163.200,355.000=163.400,361.000=161.900,369.000=165.000,375.000=161.000,377.000=168.000,381.000=163.000,398.000=163.800,412.000=163.500,437.000=163.300,444.000=163.400,453.000=163.600,461.000=163.520,473.500=164.500,474.500=163.200,475.500=160.000,476.500=164.000,478.000=162.500,480.000=163.500,481.250=165.500,491.000=162.500,495.000=161.000;
#STOPS:;
#BGCHANGES:;
// cache tags:
#FIRSTBEAT:1.000;
#LASTBEAT:498.000;
#SONGFILENAME:Songs/Jimmy Jawns/Speed of Light - [Chubaka & Aoreo]/Speed of Light.sm;
#HASMUSIC:1;
#HASBANNER:1;
#MUSICLENGTH:183.241;
// end cache tags

//---------------dance-single - Chubaka----------------
#NOTES:
     dance-single:
     Chubaka:
     Challenge:
     17:
     1.000,1.000,0.136,0.600,1.000,1564.000,25.000,110.000,0.000,0.000:
0000
0000
0000
0000
1000
0100
2000
0000
0000
3001
0100
0001
1000
0100
0010
0001
,
2000
0000
3001
0100
0001
0100
0020
0000
0000
0130
0001
1000
0100
1000
0001
0010
,
0100
1000
0001
0100
0010
0100
0002
0000
0000
1003
0100
1000
0001
0010
0100
1000
,
0002
0000
0000
0000
1003
0010
0100
0010
1000
0001
0010
0001
1000
0100
1000
0001
,
0100
0001
0010
0001
1000
0100
0020
0000
0000
0031
1000
0100
1000
0001
0100
0010
,
0200
0000
0301
0010
0001
0010
0200
0000
0000
1300
0001
1000
0010
0100
0010
1000
,
0001
0010
0100
1000
0001
0100
0002
0000
0000
1003
0100
1000
0100
0010
0001
1000
,
0002
0000
0000
0000
0103
0010
0100
0001
1000
0010
0100
0010
1000
0100
0010
0001
,
0100
0010
1000
0001
0100
0001
1000
0100
1000
0001
0010
0100
0010
0001
1000
0010
,
0100
0001
1000
0100
0010
0001
0100
0010
1000
0100
0010
0001
0010
0100
0010
0100
,
1000
0100
1000
0010
0100
0010
1000
0001
0010
0100
0010
0001
0100
0010
1000
0001
,
0100
0001
1000
0100
1000
0010
0100
0001
0010
0001
1000
0100
1000
0010
0100
0001
,
0010
0100
1000
0010
0100
0001
1000
0100
1000
0010
0100
0001
0010
0100
0010
0001
,
1000
0010
0100
0001
1000
0100
0010
0001
1000
0010
0100
0001
0010
0001
1000
0100
,
1000
0010
0100
0001
1000
0010
1000
0100
0010
0001
0100
0001
0010
0100
0010
0001
,
1000
0010
1000
0100
0010
0001
0100
0001
0100
0001
1000
0010
1000
0100
0010
0100
,
0010
0001
0010
0001
1000
0001
1000
0010
1000
0010
0100
0010
0100
0001
0100
0001
,
0010
0100
1000
0010
0200
0000
0300
0000
0202
0000
0303
0000
2002
0000
3003
0000
,
2020
3030
0220
0330
0200
0000
0302
0000
,
0023
0230
2300
3002
,
0203
0000
0000
0000
0301
0000
1000
0000
0010
0000
0100
0000
0001
0000
1000
0100
,
0000
1000
0001
0000
0010
0000
0100
0000
1000
0000
0001
0000
0100
0000
0010
1000
,
0000
0001
0100
0000
0001
0000
0010
0000
0200
0000
0000
0000
2300
0000
0000
0000
,
3020
0230
0302
2003
,
3002
0000
0000
0000
0103
0000
0001
0000
1000
0000
0100
0000
1000
0000
0010
0100
,
0000
0001
1000
0000
0001
1000
0001
1000
0100
0000
1000
0100
1000
0100
0010
0001
,
0100
0001
1000
0010
1000
0001
1000
0010
0100
0010
1000
0100
0010
0001
0100
0001
,
1000
0100
1000
0010
0100
0001
0010
0001
1000
0100
1000
0010
0100
0001
0010
0100
,
1000
0010
0100
0001
1000
0100
1000
0010
0100
0001
0010
0001
0100
0001
1000
0100
,
1000
0010
0100
0001
1000
0100
0010
0100
1000
0010
1000
0010
0100
0010
1000
0100
,
0010
0001
0100
0001
1000
0100
1000
0001
0010
0001
1000
0100
1000
0010
0100
0001
,
0010
0100
0010
0001
1000
0010
0100
0010
1000
0001
0010
0100
0010
0001
1000
0001
,
0100
0001
1000
0100
1000
0010
0100
0001
1000
0100
0010
0001
1000
0100
1000
0010
,
0100
0000
0000
0001
0000
0000
1000
0000
0000
0001
0000
0000
1000
0000
0100
0000
0010
0000
0001
0000
0100
0000
0010
0000
1000
0000
0001
0000
0100
0000
0001
0000
0010
0000
0100
0000
2000
0000
0000
0000
0000
0000
0000
0000
0000
0000
0000
0000
,
3000
1002
0203
0302
,
0023
0230
2300
3020
,
0230
0000
0000
0000
0301
0000
1000
0000
0100
0000
1000
0000
0001
0000
0100
0010
,
0000
0100
0001
0000
1000
0000
0100
0000
1000
0000
0001
0000
1000
0000
0100
1000
,
0000
0001
1000
0000
0010
0000
0100
0000
0002
0000
0000
0000
0023
0000
0000
0000
,
0230
2300
3020
0230
,
0302
0000
0000
0000
1003
0000
0100
0000
1000
0000
0001
0000
0100
0000
0010
1000
,
0000
0010
0100
0000
0001
0010
0001
0010
0100
0000
1000
0010
1000
0001
0100
0001
,
1000
0000
0010
0000
0100
0001
0010
0100
1000
0100
1000
0010
0100
0001
0010
0001
,
1000
0100
1000
0010
0100
0001
0010
0100
1000
0010
0100
0001
0010
0001
1000
0100
,
1000
0010
0100
0001
0100
0001
0010
0100
1000
0010
1000
0010
0100
0001
1000
0100
,
1000
0010
0100
0001
1000
0010
0100
0001
1000
0100
1000
0010
0100
0001
0010
0001
,
1000
0100
0010
0001
1000
0001
0100
0010
1000
0001
0010
0001
1000
0100
0010
0001
,
1000
0001
0100
0010
1000
0001
0010
0001
1000
0100
1000
0010
0100
0010
1000
0001
,
0010
0001
1000
0100
0010
0100
0010
0001
1000
0001
0100
0010
1000
0001
0100
0010
,
1000
0000
0000
0001
0000
0000
0100
0000
0000
0001
0000
0000
1000
0000
0100
0000
0010
0000
0001
0000
0100
0000
0010
0000
1000
0000
0010
0000
0100
0000
0001
0000
0010
0000
0001
0000
0200
0000
0000
0000
0000
0000
0000
0000
0000
0000
0000
0000
,
0302
0000
0000
0000
0103
0010
1000
0001
0010
0001
1000
0010
0100
0001
0010
0001
,
1000
0010
0100
0001
0010
0100
0010
0001
1000
0100
1000
0010
0100
0001
0010
0001
,
0100
0001
0010
0001
1000
0100
1000
0010
0100
0010
1000
0100
1000
0010
0100
0001
,
0010
0001
1000
0100
1000
0010
0100
0010
1000
0001
0010
0100
0010
0001
1000
0100
,
0010
0001
0100
0010
0100
0001
0010
0001
1000
0100
1000
0010
0100
0001
0010
0100
,
1000
0100
0010
0001
0100
0001
0010
0100
1000
0001
0100
0010
1000
0100
1000
0010
,
1000
0100
1000
0010
0100
0001
0010
0100
0010
0001
1000
0100
1000
0010
0100
0001
,
0010
0001
1000
0100
2000
0000
3000
0000
2002
0000
3003
0000
0202
0000
0303
0000
,
2020
0000
0000
3030
0000
0000
0010
0100
0001
0010
0100
1000
0010
0100
0001
1000
0100
1000
0010
0100
0001
0010
0001
1000
,
0100
1000
0010
0100
0001
1000
0001
0000
0000
0000
0000
0000
2200
0000
0000
3300
0000
0000
2002
0000
0000
3003
0000
0000
,
0000
0000
0000
0000
0001
0100
0010
1000
0100
0010
0001
1000
0100
1000
0010
0100
,
0001
0010
0001
1000
0100
0010
0001
1000
0001
0100
0010
1000
0010
0100
0001
0010
,
0001
1000
0100
1000
0010
1000
0001
0100
0001
1000
0010
0100
0001
0010
0001
0100
,
0010
0100
0001
0010
0001
0100
0010
1000
0100
0010
0001
1000
0010
0100
0001
0010
,
0002
0000
0000
0000
1003
0100
1000
0010
0100
0010
1000
0100
0010
0001
1000
0100
,
0010
0001
0100
0010
1000
0001
1000
0010
0100
0001
0010
0001
1000
0100
1000
0010
,
0100
0001
0010
0100
0010
0001
1000
0100
1000
0010
0100
0010
1000
0001
1000
0100
,
0010
0001
0100
0010
1000
0001
0100
0001
1000
0100
1000
0010
0100
0001
0010
0001
,
2000
0000
0000
0000
0000
0000
3001
0010
0100
1000
0010
0100
0001
0100
0010
1000
0001
0010
0001
0100
0010
1000
0100
0010
,
0002
0000
0000
0000
0000
0000
1003
0010
0100
0001
0010
0001
1000
0100
1000
0010
0100
0001
0010
0001
1000
0100
1000
0010
,
0100
0001
1000
0010
0100
0001
0010
0001
1000
0100
1000
0010
0100
0001
0010
0100
1000
0001
0100
0010
1000
0010
0100
0001
,
0010
0100
1000
0010
0100
0001
2000
0000
0000
0000
0000
0000
3000
0000
0000
0001
0000
0000
0200
0000
0000
0000
0000
0000
,
0300
0010
1000
0100
0010
0001
0100
0010
1000
0002
0000
0000
,
0000
0000
0000
0003
0000
0000
1000
0100
0010
0001
1000
0010
0100
0001
0100
0010
1000
0001
0010
0001
1000
0100
1000
0010
,
0100
0001
0010
0100
0010
0001
1000
0100
0010
0001
0100
0010
1000
0001
0100
0001
1000
0100
1000
0010
0100
0001
0010
0100
,
1000
0010
0100
0001
0010
0001
1000
0100
1000
0010
0100
0001
0010
0100
0010
0001
1000
0010
0100
0001
0100
0010
1000
0001
,
0010
0001
1000
0010
1000
0100
0010
0001
0100
0010
1000
0001
0010
0100
1000
0010
0100
0001
1000
0010
1000
0001
0100
0001
,
0010
0100
1000
0010
0100
0001
2000
0000
0000
0000
0000
0000
0000
0000
0000
0000
0000
0000
0000
0000
0000
0000
0000
0000
,
0000
0000
0000
0000
3001
0100
0001
0000
0010
0000
0100
0000
1000
0000
0001
0000
,
0200
0000
0300
0000
0001
0010
0200
0000
0300
0000
1000
0100
1000
0000
0010
0000
,
0100
0000
0202
0000
0000
0303
2002
0000
,
0000
0000
3003
0000
1000
0100
0010
0000
0100
0000
1000
0000
0010
0000
0100
0000
,
0004
0000
0003
0000
1000
0010
0200
0000
0300
0000
0001
0010
0100
0000
1000
0000
,
0002
0000
0003
0000
1000
0010
0100
0000
0010
0000
0100
0000
0001
0000
1000
0000
,
0020
1030
0002
0000
0000
0000
0023
0000
,
0000
0230
0000
2300
,
0000
0000
0000
0000
0000
0000
3001
0100
0010
1000
0100
0010
0001
0100
0010
1000
0100
0010
0001
1000
0010
1000
0001
0100
,
0001
0010
0001
1000
0100
1000
0010
0100
0001
0010
0100
1000
0010
0100
0001
0010
0001
1000
0100
1000
0010
0100
0001
0010
,
0100
0010
0001
1000
0100
0010
0100
1000
0010
0100
0010
1000
0001
0100
0001
0010
0001
1000
0100
1000
0010
0100
0001
0010
,
0100
0010
0001
1000
0010
0100
0010
1000
0001
0010
0001
1000
0100
1000
0010
0100
0001
0010
0100
0010
0001
1000
0010
0100
,
0001
1000
0010
0100
0001
1000
0002
0000
0000
0003
0000
0000
2002
0000
0000
3003
0000
0000
0202
0000
0000
0303
0000
0000
,
2020
3030
0220
0330
0202
0303
2200
3300
,
2002
3003
2002
0000
3003
0000
2002
0000
,
3003
0000
2002
0000
0000
3003
1002
0000
,
2003
0000
0000
0000
3001
0100
0010
1000
0100
0010
0001
0100
0010
1000
0100
1000
,
0010
0100
0001
0100
0001
1000
0100
1000
0010
0100
0010
1000
0001
0010
0001
0100
,
0001
0010
0001
0100
0001
0010
0100
1000
0100
1000
0010
0100
0010
1000
0100
0010
,
0001
1000
0100
1000
0010
1000
0001
0100
0001
1000
0100
1000
0100
0010
0001
0100
,
0010
1000
0001
0010
0001
1000
0100
1000
0010
0100
0001
0010
0100
0010
0001
0010
,
0100
1000
0010
0100
0001
1000
0100
1000
0010
0100
0001
0010
0100
1000
0010
1000
,
0100
1000
0010
0100
0001
0010
0100
0010
0001
1000
0010
0100
0010
1000
0100
0010
,
0001
0100
0001
1000
0001
1000
0001
1000
0001
0100
0001
0100
0001
0010
0001
0010
,
0001
1000
0100
1000
0010
0100
0001
0010
0001
1000
0100
1000
0010
0100
0010
1000
,
0100
0010
0001
0100
0010
1000
0010
0100
0001
1000
0001
1000
0100
1000
0010
0100
,
0001
0010
0001
1000
0100
1000
0010
0100
0001
0010
0001
0100
0010
1000
0100
0010
,
0001
0100
0010
1000
0010
1000
0010
1000
0001
1000
0001
1000
0100
1000
0100
1000
,
0100
1000
0010
0100
0001
0100
0010
1000
0100
1000
0010
0100
0001
0010
0001
1000
,
0100
1000
0010
0100
0001
0100
0001
1000
0100
1000
0010
0100
0001
0010
0100
0010
,
0001
1000
0100
1000
0010
0100
0001
1000
0100
1000
0001
0100
0010
0100
0001
1000
,
0100
1000
0100
0010
0001
0100
0010
1000
0100
1000
0001
0010
0001
1000
0010
0100
,
0001
0010
0001
1000
0100
1000
0010
0100
0001
1000
0010
0100
0001
0010
0100
0010
,
0001
1000
0100
1000
0010
0100
0001
0010
0001
1000
0100
1000
0010
0100
0010
1000
,
0001
0010
0001
1000
0100
1000
0010
0100
0001
0010
0100
1000
0001
0010
0100
1000
,
0010
0100
0001
1000
0002
0000
0000
0000
0000
0000
0000
0000
0000
0000
0000
0000
,
0000
0000
0000
0000
,
0000
0000
0000
0000
,
0000
0000
0000
0000
,
0000
0000
0000
0000
,
1000
0000
0000
0000
0000
0000
1000
0000
0000
0000
0000
0000
0000
1000
0000
0000
0000
0000
0000
0000
1000
0000
0000
0000
0000
0000
0000
0000
1000
0000
0000
0000
,
0000
0000
0000
0000
0000
1000
0000
0000
0000
0000
0000
0000
0000
0000
0000
0000
1000
0000
0000
0000
0000
0000
0000
0000
0000
0000
0000
0000
1000
0000
0000
0000
,
0000
0000
0000
0000
0000
1000
0000
0000
0000
0000
0000
0000
0000
0000
0000
0000
,
0000
0000
0000
1000
,
1000
0000
0000
0000
0000
0000
1000
0000
0000
0000
0000
0000
1003
0000
0000
0000
0000
0000
0001
1000
0100
0010
0001
0100
,
0010
1000
0001
0010
0001
1000
0100
1000
0010
0100
0001
0010
0100
1000
0010
0100
0001
1000
0001
0000
0000
0000
0000
0000
,
2002
3003
0202
0000
0303
0000
0000
0000
;

//---------------dance-single - J. Nero----------------
#NOTES:
     dance-single:
     J. Nero:
     Hard:
     16:
     1.000,1.000,0.136,0.600,1.000,1564.000,25.000,110.000,0.000,0.000:
0000
0000
0000
0000
1000
0100
2000
0000
0000
3001
0100
0001
1000
0100
0010
0001
,
2000
0000
3001
0100
0001
0100
0020
0000
0000
0130
0001
1000
0100
1000
0001
0010
,
0100
1000
0001
0100
0010
0100
0002
0000
0000
1003
0100
1000
0001
0010
0100
1000
,
0002
0000
0000
0000
1003
0010
0100
0010
1000
0001
0010
0001
1000
0100
1000
0001
,
0100
0001
0010
0001
1000
0100
0020
0000
0000
0031
1000
0100
1000
0001
0100
0010
,
0200
0000
0301
0010
0001
0010
0200
0000
0000
1300
0001
1000
0010
0100
0010
1000
,
0001
0010
0100
1000
0001
0100
0002
0000
0000
1003
0100
1000
0100
0010
0001
1000
,
0002
0000
0000
0000
0103
0010
0100
0001
1000
0010
0100
0010
1000
0100
0010
0001
,
0100
0010
1000
0001
0100
0001
1000
0100
1000
0001
0010
0100
0010
0001
1000
0010
,
0100
0001
1000
0100
0010
0001
0100
0010
1000
0100
0010
0001
0010
0100
0010
0100
,
1000
0100
1000
0010
0100
0010
1000
0001
0010
0100
0010
0001
0100
0010
1000
0001
,
0100
0001
1000
0100
1000
0010
0100
0001
0010
0001
1000
0100
1000
0010
0100
0001
,
0010
0100
1000
0010
0100
0001
1000
0100
1000
0010
0100
0001
0010
0100
0010
0001
,
1000
0010
0100
0001
1000
0100
0010
0001
1000
0010
0100
0001
0010
0001
1000
0100
,
1000
0010
0100
0001
1000
0010
1000
0100
0010
0001
0100
0001
0010
0100
0010
0001
,
1000
0010
1000
0100
0010
0001
0100
0001
0100
0001
1000
0010
1000
0100
0010
0100
,
0010
0001
0010
0001
1000
0001
1000
0010
1000
0010
0100
0010
0100
0001
0100
0001
,
0010
0100
1000
0010
0200
0000
0300
0000
0202
0000
0303
0000
2002
0000
3003
0000
,
2020
3030
0220
0330
0200
0000
0302
0000
,
0023
0230
2300
3002
,
0203
0000
0000
0000
0301
0000
1000
0000
0010
0000
0100
0000
0001
0000
1000
0100
,
0000
1000
0001
0000
0010
0000
0100
0000
1000
0000
0001
0000
0100
0000
0010
1000
,
0000
0001
0100
0000
0001
0000
0010
0000
0200
0000
0000
0000
2300
0000
0000
0000
,
3020
0230
0302
2003
,
3002
0000
0000
0000
0103
0000
0001
0000
1000
0000
0100
0000
1000
0000
0010
0100
,
0000
0001
1000
0000
0001
1000
0001
1000
0100
0000
1000
0100
1000
0100
0010
0001
,
0100
0001
1000
0010
1000
0001
1000
0010
0100
0010
1000
0100
0010
0001
0100
0001
,
1000
0100
1000
0010
0100
0001
0010
0001
1000
0100
1000
0010
0100
0001
0010
0100
,
1000
0010
0100
0001
1000
0100
1000
0010
0100
0001
0010
0001
0100
0001
1000
0100
,
1000
0010
0100
0001
1000
0100
0010
0100
1000
0010
1000
0010
0100
0010
1000
0100
,
0010
0001
0100
0001
1000
0100
1000
0001
0010
0001
1000
0100
1000
0010
0100
0001
,
0010
0100
0010
0001
1000
0010
0100
0010
1000
0001
0010
0100
0010
0001
1000
0001
,
0100
0001
1000
0100
1000
0010
0100
0001
1000
0100
0010
0001
1000
0100
1000
0010
,
0100
0000
0000
0001
0000
0000
1000
0000
0000
0001
0000
0000
1000
0000
0001
0000
0100
0000
0010
0000
1000
0000
0001
0000
0010
0000
0100
0000
1000
0000
0001
0000
0100
0000
0010
0000
2000
0000
0000
0000
0000
0000
0000
0000
0000
0000
0000
0000
,
3000
1002
0203
0302
,
0023
0230
2300
3020
,
0230
0000
0000
0000
0301
0000
1000
0000
0100
0000
1000
0000
0001
0000
0100
0010
,
0000
0100
0001
0000
1000
0000
0100
0000
1000
0000
0001
0000
1000
0000
0100
1000
,
0000
0001
1000
0000
0010
0000
0100
0000
0002
0000
0000
0000
0023
0000
0000
0000
,
0230
2300
3020
0230
,
0302
0000
0000
0000
1003
0000
0100
0000
1000
0000
0001
0000
0100
0000
0010
1000
,
0000
0010
0100
0000
0001
0010
0001
0010
0100
0000
1000
0010
1000
0001
0100
0001
,
1000
0000
0010
0000
0100
0001
0010
0100
1000
0100
1000
0010
0100
0001
0010
0001
,
1000
0100
1000
0010
0100
0001
0010
0100
1000
0010
0100
0001
0010
0001
1000
0100
,
1000
0010
0100
0001
0100
0001
0010
0100
1000
0010
1000
0010
0100
0001
1000
0100
,
1000
0010
0100
0001
1000
0010
0100
0001
1000
0100
1000
0010
0100
0001
0010
0001
,
1000
0100
0010
0001
1000
0001
0100
0010
1000
0001
0010
0001
1000
0100
0010
0001
,
1000
0001
0100
0010
1000
0001
0010
0001
1000
0100
1000
0010
0100
0010
1000
0001
,
0010
0001
1000
0100
0010
0100
0010
0001
1000
0001
0100
0010
1000
0001
0100
0010
,
1000
0000
0000
0001
0000
0000
0100
0000
0000
0001
0000
0000
1000
0000
0100
0000
0010
0000
0001
0000
1000
0000
0010
0000
0100
0000
0010
0000
1000
0000
0001
0000
0010
0000
0100
0000
2000
0000
0000
0000
0000
0000
0000
0000
0000
0000
0000
0000
,
3002
0000
0000
0000
0103
0010
1000
0001
0010
0001
1000
0010
0100
0001
0010
0001
,
1000
0010
0100
0001
0010
0100
0010
0001
1000
0100
1000
0010
0100
0001
0010
0001
,
0100
0001
0010
0001
1000
0100
1000
0010
0100
0010
1000
0100
1000
0010
0100
0001
,
0010
0001
1000
0100
1000
0010
0100
0010
1000
0001
0010
0100
0010
0001
1000
0100
,
0010
0001
0100
0010
0100
0001
0010
0001
1000
0100
1000
0010
0100
0001
0010
0100
,
1000
0100
0010
0001
0100
0001
0010
0100
1000
0001
0100
0010
1000
0100
1000
0010
,
1000
0100
1000
0010
0100
0001
0010
0100
0010
0001
1000
0100
1000
0010
0100
0001
,
0010
0001
1000
0100
2000
0000
3000
0000
2002
0000
3003
0000
0202
0000
0303
0000
,
2020
0000
0000
3030
0000
0000
0010
0100
0001
1000
0100
1000
0001
0010
0100
1000
0001
0100
0010
0100
0001
1000
0100
0010
,
0001
1000
0100
1000
0001
0100
0001
0000
0000
0000
0000
0000
2200
0000
0000
3300
0000
0000
2002
0000
0000
3003
0000
0000
,
0000
0000
0000
0000
0001
0100
0010
1000
0100
0010
0001
1000
0100
1000
0010
0100
,
0001
0010
0001
1000
0100
0010
0001
1000
0001
0100
0010
1000
0010
0100
0001
0010
,
0001
1000
0100
1000
0010
1000
0001
0100
0001
1000
0010
0100
0001
0010
0001
0100
,
0010
0100
0001
0010
0001
0100
0010
1000
0100
0010
0001
1000
0010
0100
0001
0010
,
0002
0000
0000
0000
1003
0100
1000
0010
0100
0010
1000
0100
0010
0001
1000
0100
,
0010
0001
0100
0010
1000
0001
1000
0010
0100
0001
0010
0001
1000
0100
1000
0010
,
0100
0001
0010
0100
0010
0001
1000
0100
1000
0010
0100
0010
1000
0001
1000
0100
,
0010
0001
0100
0010
1000
0001
0100
0001
1000
0100
1000
0010
0100
0001
0010
0001
,
2000
0000
0000
0000
0000
0000
3001
0010
0100
1000
0001
0100
0010
0100
0001
1000
0100
0010
0001
1000
0100
1000
0010
0100
,
0002
0000
0000
0000
0000
0000
1003
0010
0100
0001
1000
0100
1000
0001
0010
0100
1000
0001
0100
0010
0100
0001
1000
0100
,
0010
0001
1000
0100
1000
0001
0010
0001
1000
0010
0100
0010
1000
0001
0010
0100
1000
0001
0100
0010
1000
0010
0100
0001
,
1000
0100
0010
0001
0100
0001
2000
0000
0000
0000
0000
0000
3000
0000
0000
0001
0000
0000
0200
0000
0000
0000
0000
0000
,
0300
0010
1000
0100
0010
0001
0100
0010
1000
0002
0000
0000
,
0000
0000
0000
0003
0000
0000
1000
0100
1000
0001
0010
0100
1000
0010
0100
0001
1000
0010
0100
0001
1000
0100
1000
0001
,
0010
0100
1000
0001
0100
0010
0100
0001
1000
0100
0010
0001
1000
0001
0100
0001
1000
0100
1000
0001
0100
0001
1000
0100
,
0010
0001
1000
0010
0100
0010
1000
0001
1000
0010
0100
0001
1000
0100
0010
0001
1000
0010
0100
0001
0010
0100
1000
0010
,
0100
0001
1000
0010
1000
0100
0010
0001
0100
0001
1000
0100
0010
0001
1000
0001
0100
0010
0100
0001
1000
0001
0010
0100
,
1000
0001
0100
0010
0100
0001
2000
0000
0000
0000
0000
0000
0000
0000
0000
0000
0000
0000
0000
0000
0000
0000
0000
0000
,
0000
0000
0000
0000
3001
0100
0001
0000
0010
0000
0100
0000
1000
0000
0001
0000
,
0200
0000
0300
0000
0001
0010
0200
0000
0300
0000
1000
0100
1000
0000
0010
0000
,
0100
0000
0202
0000
0000
0303
2002
0000
,
0000
0000
3003
0000
1000
0100
0010
0000
0100
0000
1000
0000
0010
0000
0100
0000
,
0004
0000
0003
0000
1000
0010
0200
0000
0300
0000
0001
0010
0100
0000
1000
0000
,
0002
0000
0003
0000
1000
0010
0100
0000
0010
0000
0100
0000
0001
0000
1000
0000
,
0020
1030
0002
0000
0000
0000
0023
0000
,
0000
0230
0000
2300
,
0000
0000
0000
0000
0000
0000
3001
0100
0001
1000
0100
0010
0100
1000
0001
0100
0010
0100
0001
1000
0010
1000
0001
0010
,
0100
1000
0001
0100
0010
0100
0001
1000
0100
0010
0001
1000
0010
0100
0001
0100
0010
1000
0001
0010
0100
1000
0001
0100
,
0010
0100
0001
1000
0100
0010
0001
1000
0100
1000
0001
0100
0010
0100
0001
1000
0100
0010
0001
1000
0010
0100
0001
1000
,
0100
1000
0001
0100
0010
0100
0001
1000
0100
0010
0001
1000
0100
1000
0010
0100
0001
0010
0100
0010
0001
1000
0010
0100
,
0001
1000
0010
0100
0001
1000
0002
0000
0000
0003
0000
0000
2002
0000
0000
3003
0000
0000
0202
0000
0000
0303
0000
0000
,
2020
3030
0220
0330
0202
0303
2200
3300
,
2002
3003
2002
0000
3003
0000
2002
0000
,
3003
0000
2002
0000
0000
3003
1002
0000
,
2003
0000
0000
0000
3001
0100
0010
1000
0100
0010
0001
0100
0010
1000
0100
1000
,
0010
0100
0001
0100
0001
1000
0100
1000
0010
0100
0010
1000
0001
0010
0001
0100
,
0001
0010
0001
0100
0001
0010
0100
1000
0100
1000
0010
0100
0010
1000
0100
0010
,
0001
1000
0100
1000
0010
1000
0001
0100
0001
1000
0100
1000
0100
0010
0001
0100
,
0010
1000
0001
0010
0001
1000
0100
1000
0010
0100
0001
0010
0100
0010
0001
0010
,
0100
1000
0010
0100
0001
1000
0100
1000
0010
0100
0001
0010
0100
1000
0010
1000
,
0100
1000
0010
0100
0001
0010
0100
0010
0001
1000
0010
0100
0010
1000
0100
0010
,
0001
0100
0001
1000
0001
1000
0001
1000
0001
0100
0001
0100
0001
0010
0001
0010
,
0001
1000
0100
1000
0010
0100
0001
0010
0001
1000
0100
1000
0010
0100
0010
1000
,
0100
0010
0001
0100
0010
1000
0010
0100
0001
1000
0001
1000
0100
1000
0010
0100
,
0001
0010
0001
1000
0100
1000
0010
0100
0001
0010
0001
0100
0010
1000
0100
0010
,
0001
0100
0010
1000
0010
1000
0010
1000
0001
1000
0001
1000
0100
1000
0100
1000
,
0100
1000
0010
0100
0001
0100
0010
1000
0100
1000
0010
0100
0001
0010
0001
1000
,
0100
1000
0010
0100
0001
0100
0001
1000
0100
1000
0010
0100
0001
0010
0100
0010
,
0001
1000
0100
1000
0010
0100
0001
1000
0100
1000
0001
0100
0010
0100
0001
1000
,
0100
1000
0100
0010
0001
0100
0010
1000
0100
1000
0001
0010
0001
1000
0010
0100
,
0001
0010
0001
1000
0100
1000
0010
0100
0001
1000
0010
0100
0001
0010
0100
0010
,
0001
1000
0100
1000
0010
0100
0001
0010
0001
1000
0100
1000
0010
0100
0010
1000
,
0001
0010
0001
1000
0100
1000
0010
0100
0001
0010
0100
1000
0001
0010
0100
1000
,
0010
0100
0001
1000
0002
0000
0000
0000
0000
0000
0000
0000
0000
0000
0000
0000
,
0000
0000
0000
0000
,
0000
0000
0000
0000
,
0000
0000
0000
0000
,
0000
0000
0000
0000
,
1000
0000
0000
0000
0000
0000
1000
0000
0000
0000
0000
0000
0000
1000
0000
0000
0000
0000
0000
0000
1000
0000
0000
0000
0000
0000
0000
0000
1000
0000
0000
0000
,
0000
0000
0000
0000
0000
1000
0000
0000
0000
0000
0000
0000
0000
0000
0000
0000
1000
0000
0000
0000
0000
0000
0000
0000
0000
0000
0000
0000
1000
0000
0000
0000
,
0000
0000
0000
0000
0000
1000
0000
0000
0000
0000
0000
0000
0000
0000
0000
0000
,
0000
0000
0000
1000
,
1000
0000
0000
0000
0000
0000
1000
0000
0000
0000
0000
0000
1003
0000
0000
0000
0000
0000
0001
0100
0010
0100
0001
1000
,
0100
0010
0001
1000
0010
1000
0001
0100
0010
1000
0100
0010
0001
1000
0001
0100
0010
1000
0001
0000
0000
0000
0000
0000
,
2002
3003
0202
0000
0303
0000
0000
0000
;
