#TITLE:Tomare!;
#SUBTITLE:Suzumiya Haruhi no Yuuutsu 2nd ED theme;
#ARTIST:Haruhi.Yuki.Mikuru;
#TITLETRANSLIT:;
#SUBTITLETRANSLIT:;
#ARTISTTRANSLIT:;
#CREDIT:ALICE_;
#BANNER:Tomare!.png;
#BACKGROUND:Tomare!.jpg;
#LYRICSPATH:;
#CDTITLE:cdtitle.png;
#MUSIC:Tomare!.mp3;
#OFFSET:1.275;
#SAMPLESTART:28.080;
#SAMPLELENGTH:20.240;
#SELECTABLE:YES;
#BPMS:0.000=183.000;
#STOPS:;
#BGCHANGES:0.000=Tomare!.jpg=1.000=0=0=1,
4.250=Tomare!.avi=1.000=0=0=1,
197.000=Tomare!.jpg=1.000=1=0=1,
99999=-nosongbg-=1.000=0=0=0 // don't automatically add -songbackground-
;
// cache tags:
#FIRSTBEAT:6.000;
#LASTBEAT:196.000;
#SONGFILENAME:Songs/alice 4th complete step/Tomare!/Tomare!.sm;
#HASMUSIC:1;
#HASBANNER:1;
#MUSICLENGTH:64.713;
// end cache tags

//---------------dance-single - ----------------
#NOTES:
     dance-single:
     :
     Hard:
     8:
     0.702,0.678,0.479,0.216,0.015,273.000,31.000,14.000,0.000,0.000:
0000
0000
0000
0000
,
0000
0000
2002
0000
,
0000
3003
0000
0000
,
0100
0000
1001
0000
0100
1000
0010
0100
,
0001
0000
0010
0001
0000
1000
0001
0000
,
0100
0000
0100
0001
1000
0010
0100
0202
,
0000
0000
0303
0000
,
1000
0000
0100
0010
0100
0000
1000
0010
,
0000
0100
0001
0010
0000
0100
1000
0000
,
0001
0000
0010
0100
0010
0000
0001
0100
,
0000
0010
1000
0100
0000
0010
0100
1000
,
0001
0000
0100
0001
0010
0000
0100
1000
,
0000
0010
0100
0010
0000
1000
0001
0000
,
1001
0000
0010
0100
0000
1000
0001
0100
,
0010
0000
0010
1000
0001
0010
0100
1000
,
0010
0000
0100
0001
1000
0000
0010
0100
,
0000
0001
1000
0100
0010
0000
1001
0000
,
0100
0000
0001
0000
0010
0000
0001
1000
,
0000
0000
0100
0000
0001
0000
0100
0000
1000
0000
0000
0010
0000
0000
0100
0000
,
1001
0000
0001
0100
0010
0000
1000
0100
,
0000
0001
0100
1000
0010
0000
1001
0000
,
1100
0000
0001
0010
0000
0100
0000
2002
,
0000
3003
0010
0000
1100
0000
1010
0000
,
0101
0000
1000
0010
0100
0000
1010
0000
,
0001
0010
1000
0010
0001
0000
0101
0000
,
1000
0000
0010
0100
0100
0000
0001
0010
,
0010
0100
1001
0000
0010
0100
0001
0000
,
2000
3000
0002
0103
0000
2000
3100
0000
,
0002
0013
0000
2000
3010
0100
0001
1000
,
0010
0100
0010
1000
0001
0010
0100
0000
,
0110
0000
0000
1001
0000
0000
0100
0000
0010
0000
0000
0000
1001
0000
0000
0000
,
1000
0010
0100
0001
1000
0100
0010
0001
,
1000
0100
1000
0010
1000
0001
0200
0300
,
0001
0010
0100
1000
0001
0100
0010
1000
,
0001
0100
0001
0010
0001
1000
0200
0300
,
1000
0100
0010
0100
1000
0010
0100
0000
,
0001
0100
0010
0100
0001
0010
0100
0000
,
1000
0101
1100
0101
,
1000
0010
0100
0001
1000
0010
0200
0300
,
1001
0000
0001
0100
0001
1000
0010
0100
,
0000
0001
1000
0000
0100
0010
0100
0000
,
1001
0000
1010
0100
1000
0001
0100
0010
,
0000
0001
1000
0100
0001
1000
0010
0100
,
1000
0010
0100
0001
0000
0010
0100
1000
,
0000
0010
0100
0001
1000
0100
0010
0100
,
1000
0010
0100
0000
1001
0000
1001
0000
,
0010
0010
1000
1100
0000
0001
0101
0000
,
1000
0010
0010
0100
0001
0010
0100
1000
,
1010
0000
0001
0011
0000
0100
1001
0000
;

//---------------dance-single - ----------------
#NOTES:
     dance-single:
     :
     Easy:
     3:
     0.400,0.452,0.232,0.062,0.000,162.000,15.000,4.000,0.000,0.000:
0000
0000
0000
0000
,
0000
0000
0000
0000
,
0000
0000
0000
0000
,
1000
0100
0010
0001
,
1000
0000
0001
0000
,
0010
0000
0010
0000
0010
0000
0100
1000
,
0000
0000
0000
0000
,
0001
0100
0001
1000
,
0001
0010
0001
1000
,
0001
1000
0001
0100
,
1000
0010
1000
0001
,
1000
0010
1000
0100
,
1000
0001
0100
0010
,
1000
0100
0001
1000
,
0010
0100
1001
1000
,
0001
0010
0100
0010
,
0001
1000
0010
0100
,
1000
0001
0100
0010
,
0001
1000
0010
0101
,
1000
1000
0001
0100
,
0010
1000
0001
0001
,
0101
0000
1000
0100
,
1000
0001
0110
1001
,
0220
0330
0000
1000
,
0001
0100
1000
0100
,
0001
0000
1000
0000
,
0010
0000
0100
0010
,
1001
0100
0001
0100
,
1000
0100
0001
0100
,
2000
0000
0000
3000
,
0010
0001
0100
1001
,
0001
0010
1000
0010
,
0001
0000
0100
0100
,
1000
0100
0001
0100
,
1000
0000
0010
0010
,
0100
0001
1000
0010
,
1000
0001
0100
0010
,
1000
1100
0001
0100
,
0001
1000
0010
0000
,
1000
0100
0001
0100
,
1000
0000
0010
0010
,
0100
0001
0010
0001
,
1000
0000
0010
0100
,
1010
1000
0001
0100
,
0001
0001
1000
0010
,
0200
0000
0000
0300
,
0011
0001
1100
0010
,
0001
1000
0100
0100
,
1010
1000
0101
1010
;

//---------------dance-single - Copied from----------------
#NOTES:
     dance-single:
     Copied from:
     Medium:
     6:
     0.570,0.606,0.494,0.201,0.015,213.000,32.000,13.000,0.000,0.000:
0000
0000
0000
0000
,
0000
0000
2002
0000
,
0000
3003
0000
0000
,
1000
0100
0010
0001
,
0001
0000
0000
1000
0000
0000
0010
0000
,
0110
0000
0110
0000
0110
0000
1000
0002
,
0000
0000
0000
0003
,
1000
0001
1000
0001
,
0100
0001
0010
0001
,
1000
0010
1000
0010
,
0100
0001
1000
0100
,
0010
0001
1000
0001
,
0100
0010
1000
0001
,
1100
0000
0001
0100
0000
0010
1000
0001
,
0010
0000
0010
0100
0010
0100
0010
0000
,
1001
1100
0001
1100
,
0001
1000
0001
0100
,
1001
0101
1000
0101
,
0010
0000
0000
0000
1000
0000
0000
0000
0001
0000
0000
0100
0000
0000
0010
0000
,
1000
0011
1000
0101
,
1000
0010
0100
0001
,
1000
0000
0001
0010
0000
0100
0000
1001
,
0000
0100
0010
1000
0100
0001
0100
0000
,
1000
0010
0100
0001
1000
0000
0001
0000
,
0001
0100
0010
1000
0001
0000
1000
0000
,
0200
0310
0002
0103
,
0020
1030
1001
0110
,
2000
3000
0002
0103
0000
2000
3100
0000
,
0002
0013
0000
2000
3010
0100
0001
2000
,
0000
0000
0000
3000
,
0001
0000
0000
1000
0000
0000
0010
0000
0100
0000
0000
0000
1001
0000
0000
0000
,
1000
0001
1000
0001
,
1100
0101
1010
0011
,
0001
1000
0001
1000
,
0101
1100
0011
1010
,
0010
0101
0010
1000
,
0001
0000
0010
0000
0100
1000
0001
0000
,
1000
0000
0001
0100
0001
0100
0001
0100
,
0010
1000
0010
0100
0000
0001
1000
0000
,
0010
0100
0001
1000
,
0011
0100
1010
0101
,
1000
0001
0100
0010
,
1001
0100
0110
1001
,
0100
1000
0100
0010
0000
0001
0100
0010
,
0000
1000
0100
0010
0000
0001
0100
1000
,
0100
0010
1000
0000
0010
0100
0010
0000
,
0010
0000
1000
0100
0000
0001
0100
0000
,
1000
0010
0100
0001
0100
0010
1000
0001
,
0010
0000
0001
1000
0000
0010
0200
0000
,
0300
0000
0000
0000
;

//---------------dance-single - Copied from----------------
#NOTES:
     dance-single:
     Copied from:
     Challenge:
     14:
     1.000,1.000,1.000,1.000,0.811,426.000,167.000,95.000,0.000,40.000:
0000
0000
0000
0000
,
0000
0000
0000
0000
0000
0000
0000
0000
1001
0000
0011
0100
0011
0000
1100
0000
,
0110
1000
0001
0000
1010
0000
0101
0000
0110
1000
0010
0101
1010
0000
0101
0000
,
2010
0001
3210
0001
1320
0100
2031
0100
,
3012
0110
1100
2013
0100
0011
3120
1000
,
1031
0100
1001
0100
1001
1011
1101
2002
,
0000
0000
0000
0000
0000
0000
0000
3003
,
1010
1000
0101
1000
1100
0000
0011
0100
,
0000
0000
0100
0000
1001
0000
0010
0000
0000
0000
0110
0000
1001
0000
0100
1000
,
0011
0001
0110
0001
0101
0000
0011
1100
,
0000
0000
0010
0000
1001
0000
0100
0000
0000
0000
0011
0000
1001
0000
0010
0001
,
1100
1000
0101
1000
0110
0000
1001
0010
,
0000
0100
0011
0100
0000
1010
0202
0303
,
1002
1000
0013
2200
3310
0202
0313
2020
,
3131
0010
0101
0010
1100
0101
1001
0010
,
1100
0000
1000
0000
0101
0000
1000
0010
0100
0000
0100
0000
1001
0000
0010
0000
,
0100
0001
1010
0001
0100
0000
1001
0010
,
0100
0000
1010
0000
0100
0000
1010
1001
,
0000
0000
0000
0000
0000
0000
0000
0000
0100
0000
0000
0000
0000
0000
0000
0000
0011
0000
0000
0000
0000
0000
0000
0000
0100
0000
0000
0000
0000
0000
0000
0000
2200
3300
0000
0000
0000
0000
0000
0000
0000
0000
0000
0000
0220
0330
0000
0000
0000
0000
0000
0000
0000
0000
0000
0000
0022
0033
0000
0000
0000
0000
0000
0000
,
1001
0000
1000
0000
0011
0000
0100
0010
1000
0000
0000
0000
0011
0000
1000
0000
,
0100
0000
0010
0001
1010
0000
0100
0000
0110
0000
0000
0000
1011
0000
0000
0000
,
2100
0000
0000
0000
0000
0000
0000
0000
0000
0000
0000
0000
0000
0000
0000
0000
3001
0000
0000
0000
0000
0000
0000
0000
0202
0303
0000
0000
0000
0000
0000
0000
0000
0000
0000
0000
0000
0000
0000
0000
2020
3030
0000
0000
0000
0000
0000
0000
0000
0000
0000
0000
0000
0000
0000
0000
0202
0300
0000
0000
0000
0000
0000
0000
,
0000
0000
1000
0000
0110
0000
1003
0000
1001
0010
0100
0000
1010
0000
0000
0000
,
0202
0000
0000
0303
1001
0000
0010
0000
0110
0000
0000
0000
1101
0000
0000
0000
,
0010
0000
0100
0000
1010
0000
0100
0000
0101
0000
0000
0000
1011
0000
0100
0010
,
1002
0000
0100
0000
1010
0000
1003
0100
2001
0000
0010
0000
0101
0000
3010
0100
,
1002
0000
0100
0000
1103
0000
0010
0000
1010
0100
0001
0000
0220
0000
0330
0000
,
2202
3303
0000
0000
0000
0000
0000
0000
0000
0000
0000
0000
0000
0000
0000
0000
0100
0000
0000
0000
0000
0000
0000
0000
2220
3330
0000
0000
0000
0000
0000
0000
0000
0000
0000
0000
0000
0000
0000
0000
0001
0000
0000
0000
0000
0000
0000
0000
0222
0333
0000
0000
0000
0000
0000
0000
0000
0000
0000
0000
0000
0000
0000
0000
,
1000
0000
0000
0000
0000
0000
0000
0000
2202
3303
0000
0000
0000
0000
0000
0000
0000
0000
0000
0000
0000
0000
0000
0000
0010
0000
0000
0000
0000
0000
0000
0000
2022
3033
0000
0000
0000
0000
0000
0000
0100
0000
0000
0000
0000
0000
0000
0000
1000
0000
0000
0000
0000
0000
0000
0000
0010
0000
0000
0000
0000
0000
0000
0000
,
0100
0000
1001
0010
0101
1000
0010
0100
0001
1000
0100
0010
1001
0000
0000
0000
,
0022
0033
0000
0000
0000
0000
0000
0000
0000
0000
0000
0000
0202
0303
0000
0000
0000
0000
0000
0000
0000
0000
0000
0000
2022
3033
0000
0000
0000
0000
0000
0000
2112
0000
0000
0000
0000
0000
0000
0000
0000
0000
0000
0000
0000
0000
0000
0000
3113
0000
0000
0000
0000
0000
0000
0000
0000
0000
0000
0000
0000
0000
0000
0000
,
1001
0100
0010
0001
1000
0100
0010
0001
0100
1000
0100
0010
1001
0010
2200
0000
,
0000
3300
0010
0001
1000
0010
0100
0010
1000
0001
0100
0010
1000
0100
0010
0100
,
1001
0010
0100
1000
0001
0010
0100
1000
0010
0001
0100
0010
1001
0010
0202
0000
,
0000
0303
1000
0010
0101
0010
1000
0010
0100
0001
1010
0100
1001
0100
0010
0100
,
0001
1000
0100
1000
0011
0100
0001
0100
0010
1000
0100
0010
1001
0100
0001
0010
,
1000
0100
0001
0010
1100
0001
0010
0100
1000
0001
0100
0010
2000
0000
3000
0000
,
2120
0000
0000
3030
0022
0000
0133
0000
2020
0000
3130
0000
2201
0000
3310
0000
,
2001
0000
3210
0000
1302
0000
0123
0000
1000
0100
0001
1000
0001
1000
0130
0000
,
1001
0010
0100
1000
0011
0100
0010
1000
0101
1000
0010
0100
0011
1000
0220
0000
,
0330
0000
0100
0010
1001
0010
0100
0010
1000
0000
1001
0000
1001
0000
0010
0010
,
1000
0100
0010
0001
1000
0100
0010
0001
1100
0010
0100
0001
1010
0100
2002
0000
,
0000
3003
0100
0000
1010
0000
0100
0000
1001
0000
0010
0000
1001
0000
1001
0000
,
1000
0100
0010
0100
0011
1000
0200
0000
0000
0300
0001
0010
1100
0001
0020
0000
,
0000
0030
0100
0010
1001
0100
0001
0010
1000
0100
0001
0100
1000
0011
0100
0001
,
1000
0000
1000
0100
1010
0000
0100
0000
1001
0001
0010
0000
0101
1000
0001
0010
,
0100
0001
0100
0000
1001
0000
0220
0000
0330
0000
1010
0000
0101
0000
0000
0000
,
1100
0001
1100
0000
0220
0000
1330
0000
0220
0000
0331
0000
1001
0100
0010
0000
,
0101
1000
0001
0000
0110
0000
2002
0000
3003
0000
0011
1000
0220
0000
0000
0000
,
0330
0000
0000
0000
;
