#TITLE:Caramelldansen;
#SUBTITLE:(Splittercore Remix);
#ARTIST:Kill!k;
#TITLETRANSLIT:;
#SUBTITLETRANSLIT:;
#ARTISTTRANSLIT:;
#CREDIT:Aoreo;
#BANNER:../speedcore rejects ban.png;
#BACKGROUND:../speedcore rejects bg.png;
#LYRICSPATH:;
#CDTITLE:;
#MUSIC:Carmelldansen (Splittercore remix).ogg;
#OFFSET:0.022;
#SAMPLESTART:29.978;
#SAMPLELENGTH:12.000;
#SELECTABLE:YES;
#DISPLAYBPM:250.000;
#BPMS:0.000=249.500,360.000=124.750,424.000=249.500;
#STOPS:;
#BGCHANGES:;
// cache tags:
#FIRSTBEAT:28.000;
#LASTBEAT:491.250;
#SONGFILENAME:Songs/Speedcore Rejects/Carmelldansen (Splittercore Remix) - [Aoreo]/Carmelldansen (Splittercore remix).sm;
#HASMUSIC:1;
#HASBANNER:1;
#MUSICLENGTH:140.420;
// end cache tags

//---------------dance-single - J. Nero----------------
#NOTES:
     dance-single:
     J. Nero:
     Challenge:
     16:
     1.000,1.000,0.299,0.150,1.000,905.000,42.000,21.000,0.000,0.000:
0000
0000
0000
0000
,
0000
0000
0000
0000
,
0000
0000
0000
0000
,
0000
0000
0000
0000
,
0000
0000
0000
0000
,
0000
0000
0000
0000
,
0000
0000
0000
0000
,
1000
0000
0001
0000
1000
0100
1000
0001
,
1001
0000
0000
0001
0000
0000
1000
0000
0000
0010
0000
0000
0100
0000
0001
0000
,
0000
0000
0000
0000
1000
0100
1000
0001
,
0100
0000
0000
0100
0000
0000
0001
0000
0000
0001
0000
0000
1000
0000
0100
0000
,
1000
0001
1000
0001
0100
0001
0100
0001
1000
0100
1000
0001
1000
0001
1000
0010
,
0100
0000
0000
0001
0000
0000
0010
0000
0000
0100
0000
0000
1000
0000
0002
0000
,
0000
0000
0000
0000
0000
0000
0000
0203
,
0000
0320
0000
2030
0000
3002
0203
0320
,
0000
0000
0000
0000
0000
0000
0000
1030
,
0002
0000
0000
0000
,
0000
0000
0000
0000
0003
1000
0100
0000
,
1100
0000
0000
0000
1001
0000
0000
0000
0101
0000
0000
0000
0100
0001
0100
0001
,
1000
0000
0000
0000
1100
0000
0000
0000
0110
0000
0000
0000
0010
0000
0001
1000
,
0001
0000
1100
0000
1000
0040
1030
0004
,
0103
0101
0011
0110
,
1100
0000
0000
0000
1001
0000
0000
0000
0101
0000
0000
0000
0100
0001
0100
0001
,
1000
0000
0000
0000
1010
0000
0000
0000
0110
0000
0000
0000
0100
0000
0001
0100
,
0001
0000
1001
0000
1000
0400
1300
0040
,
0130
0101
1001
1010
,
0010
0100
0001
0010
0100
1000
0001
0100
,
0010
0000
0100
0000
0001
0000
1000
0000
0100
0000
1000
0100
1000
0001
0100
0001
,
2000
3000
0010
0000
0200
0300
0001
0000
0020
0030
0001
0000
0200
0300
0010
0000
,
1000
0100
1000
0001
0100
0001
0010
0100
,
0010
0000
0001
0000
1000
0000
0100
0000
1000
0000
0004
0003
0100
0000
0040
0030
,
0100
0001
1000
0100
1000
0001
0100
0010
,
1000
0001
0010
0100
0010
0001
1000
0100
,
1000
0010
0100
0001
1000
0001
1000
0010
,
0200
0300
0001
0000
1000
0000
0100
0000
1000
0000
0000
0000
0001
0000
0100
0000
,
0010
0100
0001
1000
0100
0000
1000
0000
,
0001
0000
0100
0000
0010
0000
0100
0000
0001
0000
4000
3000
0001
0000
0400
0300
,
0001
0100
0010
0100
0001
1000
0010
0100
0001
0000
0100
0000
0010
0000
1000
0000
,
0001
1000
0010
0100
,
0001
1000
0100
1000
0001
0000
0100
0000
,
0010
0000
4000
3000
0100
0000
4000
3000
0001
0000
0400
0300
0010
0000
0400
0300
,
0004
0003
0000
0000
0040
0030
0000
0000
0400
0300
0000
0000
4000
3000
0000
0000
,
0001
0100
0001
1000
0010
0100
0010
1000
0001
1000
0010
0100
0001
1000
0001
1000
,
0010
0100
0001
1000
0010
1000
0001
0100
0010
0100
0001
1000
0010
0100
0001
1000
,
0001
1000
0100
0010
0100
0010
0001
1000
0001
1000
0100
0010
0001
1000
0100
1000
,
0001
0010
0001
1000
0400
0000
0000
0300
1000
0001
1000
0100
0010
0001
0010
0001
,
1000
0100
0010
0100
0010
0001
1000
0100
0010
0001
1000
0001
0010
0100
1000
0001
,
0010
0100
1000
0001
1000
0001
0100
0010
0100
0010
1000
0001
1000
0010
0100
0001
,
1000
0100
1000
0001
0010
0100
0010
0001
1000
0001
1000
0010
,
1000
0001
1000
0001
1000
0001
1000
0001
1000
0001
1000
0001
1000
0001
1000
0001
,
1000
0100
0010
0100
1000
0100
0010
0100
,
1000
0000
0001
0000
0100
0000
0010
0000
0100
0000
0001
0000
1000
0001
1000
0001
,
0100
0010
0100
0001
0010
0100
0010
0001
,
1000
0000
0001
0000
1000
0100
1000
0100
0010
0000
0001
0000
1000
0001
1000
0001
,
0100
0000
0010
0000
0100
0000
0001
0000
1000
0000
0100
0000
0010
0001
0010
0001
,
1000
0001
0100
0010
0100
0001
1000
0010
,
0100
0001
0100
0010
1000
0001
0010
0100
,
1000
0000
0000
0001
0000
0000
1000
0000
0000
0010
0000
0000
0100
0000
0001
0000
0100
0000
0001
0000
0010
0000
0100
0000
,
1000
0010
0100
0001
,
1000
0000
0000
0000
0100
0000
0000
0000
1000
0000
0000
0000
0001
0000
0100
0001
,
0100
0001
0010
0100
,
1000
0000
0000
0000
0001
0100
0001
0100
0010
0000
0000
0000
1000
0100
1000
0100
,
0010
0001
0100
0001
,
0010
0100
1000
0010
,
0100
0001
1000
0100
,
1000
0400
0310
0004
,
1003
0000
0100
0000
1000
0000
0001
0100
,
0010
0000
0100
0000
0001
4000
3010
0400
,
0301
0000
0000
0010
0000
0000
0100
1000
0001
1000
0010
0100
,
0001
1000
0010
0100
,
0001
0100
0010
0100
0001
0000
0010
0000
,
0100
0000
0000
1000
0000
0000
0001
0000
0000
1000
0010
0100
,
0001
0000
1000
0000
0100
0000
0020
0030
,
0020
0030
0002
0003
0002
0003
0002
0003
,
1000
0010
1000
0001
0100
0010
0100
0001
1000
0010
1000
0010
0100
0001
0100
0010
,
1000
0001
0100
0001
1000
0010
0100
0010
1000
0001
0100
0001
1000
0010
1000
0001
,
1000
0100
0010
0100
0010
0001
1000
0001
1000
0100
0010
0100
0010
0001
1000
0001
,
1000
0100
1000
0100
0040
0000
0000
0000
0031
0100
0001
0100
0040
0000
0000
0000
,
0130
0001
0100
0010
1000
0001
1000
0100
0010
0001
1000
0100
0010
0100
0010
0001
,
1000
0001
1000
0010
0100
0001
0100
0010
1000
0001
1000
0010
0100
0010
1000
0001
,
1000
0010
0100
0001
1000
0001
0010
0100
1000
0001
1000
0010
,
1000
0001
1000
0001
1000
0001
1000
0001
1000
0001
1000
0001
1000
0001
1000
0001
,
1000
0000
0000
0001
0000
0000
0100
0000
0010
0000
0000
0000
1000
0000
0100
0000
,
1000
0000
0000
0001
0000
0000
0100
0000
0010
0000
0000
0000
0100
0000
0001
0000
,
1000
0000
0000
0100
0000
0000
0010
0000
0001
0000
0000
0000
0100
0000
0010
0000
,
1000
0000
0000
0100
0000
0000
1000
0000
0001
0000
0000
0000
0010
0000
0100
0000
,
1000
0000
0000
0010
0000
0000
0100
0000
0001
0000
0000
0000
1000
0000
0010
0000
,
0100
0000
0000
0001
0000
0000
0010
0000
0100
0000
0000
0000
1000
0000
0100
0000
,
1000
0000
0000
0010
0000
0000
0100
0000
0001
0000
0000
0000
1000
0000
0100
0000
,
1000
0000
0000
0001
0000
0000
0100
0000
0010
0000
0000
0000
1000
0000
0000
0000
,
2002
0000
0000
3003
0000
0000
0000
1000
,
0000
0001
0100
0010
0100
0000
0001
0000
,
1000
0000
0010
1000
0100
0000
1000
0001
,
0000
1000
0100
0010
0001
0000
0100
0110
,
0110
0000
0010
0000
1000
0000
0000
0001
,
0000
0010
0100
1000
0001
0000
0100
0000
,
0010
0000
0100
0001
1000
0000
0100
1000
,
0000
0100
1000
0000
0001
0000
0100
1001
,
1001
0000
0001
0100
0010
0000
0000
0100
,
0000
0001
1000
0100
1000
0000
0001
0000
,
0100
0000
0010
0100
0001
0000
1000
0100
,
0000
1000
0010
0100
0001
0000
1000
1010
,
1010
0000
0010
0000
0100
0000
0000
0001
,
0000
1000
0100
0010
0001
0000
0100
0000
,
0001
0000
1000
0100
1000
0000
0001
0100
,
0000
0010
0100
0000
0001
0000
1000
0000
,
0001
0100
0010
0100
0001
1000
0001
0010
0100
1000
0001
1000
,
0010
0000
0000
0000
0100
0000
0000
0000
0010
0000
0000
0000
1000
0000
0000
0000
0001
0000
0000
0000
1000
0000
0000
0000
0010
0000
0000
0000
0100
0000
0000
0000
0010
0000
0000
0000
0100
0000
0000
0001
0000
0000
0100
0000
0000
0001
0000
0000
,
1000
0000
0000
0000
0010
0000
0000
0000
0100
0000
0000
0000
0001
0000
0000
0000
0010
0000
0000
0000
0100
0000
0000
0000
1000
0000
0000
0000
0001
0000
0000
0000
1000
0000
0000
0000
0001
0000
0000
0100
0000
0000
0010
0000
0000
1000
0000
0000
,
0001
1000
0100
1000
0004
0000
0000
0000
1003
0100
1000
0001
0400
0000
0000
0000
,
0301
0010
0100
1000
0001
1000
0010
0100
0001
1000
0100
1000
,
0001
0000
0000
0000
0100
0000
0000
0000
0010
0000
0000
0000
4000
0000
0000
0000
3001
0000
0000
0000
0100
0000
0000
0000
0010
0000
0000
0000
0000
0000
4000
0000
0000
3000
0000
0000
0000
0000
0000
0000
0000
0000
4000
0000
0000
3000
0000
0000
,
0001
0100
0010
1000
0010
0100
0001
0100
0010
1000
0001
1000
0010
0100
0001
1000
,
0010
0100
0001
1000
0100
0000
1000
0000
,
0001
0100
0001
0010
0100
1000
0010
0100
0001
0100
0010
1000
,
0001
0000
0000
0000
1000
0000
0000
0000
0100
0000
0000
0000
0010
0000
0000
0000
0100
0000
0000
0000
1000
0000
0000
0000
0001
0000
0000
0000
1000
0000
0000
0000
0010
0000
0000
0000
0100
0000
0000
0001
0000
0000
0100
0000
0000
0001
0000
0000
,
1000
0000
0000
0000
0100
0000
0000
0000
0010
0000
0000
0000
0100
0000
0000
0000
1000
0000
0000
0000
0001
0000
0000
0000
1000
0000
0000
0000
0010
0000
0000
0000
0100
0000
0000
0000
0001
0000
0000
0100
0000
0000
0010
0000
0000
0100
0000
0000
,
0001
1000
0001
1000
0400
0000
0000
0000
1300
0001
1000
0001
0400
0000
0000
0000
,
0301
1000
0001
0010
0100
1000
0001
1000
0010
0100
0001
1000
,
0100
0000
0000
0000
1000
0000
0000
0000
0001
0000
0000
0000
0400
0000
0000
0000
0301
0000
0000
0000
1000
0000
0000
0000
0010
0000
0000
0000
0000
0000
4000
0000
0000
3000
0000
0000
0000
0000
0000
0000
0000
0000
4000
0000
0000
3000
0000
0000
,
0001
0100
0001
1000
0010
0100
0010
1000
0001
0100
0010
0100
0001
1000
0001
1000
,
0100
0010
0001
1000
0001
0010
0100
1000
0001
1000
0010
0100
0001
1000
0001
0010
,
0200
0000
0000
0000
0000
0000
0000
0000
0000
0000
0000
0000
0000
0300
0000
0000
;
