#TITLE:Paradise;
#SUBTITLE:;
#ARTIST:Dowster & Vagabond feat. Nathalie;
#TITLETRANSLIT:;
#SUBTITLETRANSLIT:;
#ARTISTTRANSLIT:;
#CREDIT:owenviau1;
#BANNER:BN.png;
#BACKGROUND:BG.png;
#LYRICSPATH:;
#CDTITLE:../CDTitleOV1.png;
#MUSIC:Dowster & Vagabond feat. Nathalie - Paradise.mp3;
#OFFSET:-1.298;
#SAMPLESTART:54.551;
#SAMPLELENGTH:29.999;
#SELECTABLE:YES;
#DISPLAYBPM:180.340;
#BPMS:0.000=180.340,352.000=181.340,385.000=180.340;
#STOPS:;
#BGCHANGES:;
// cache tags:
#FIRSTBEAT:0.000;
#LASTBEAT:727.000;
#SONGFILENAME:Songs/owenviau1 (2016) (Pad & Index)/Paradise - [owenviau1] v1.0.3/Paradise.sm;
#HASMUSIC:1;
#HASBANNER:1;
#MUSICLENGTH:243.245;
// end cache tags

//---------------dance-single - 15.47 (15+) (owenvia----------------
#NOTES:
     dance-single:
     15.47 (15+) (owenvia:
     Challenge:
     15:
     1.000,1.000,0.633,0.132,1.000,2159.000,154.000,32.000,4.000,0.000:

1001
0001
0100
0020
0000
0130
0001
1000
,
0200
0000
0000
0000
0340
0030
0004
0003
1000
0000
0040
0030
0100
0000
0010
0000
,
1000
0001
0010
0200
0000
1300
0010
0100
,
0010
0000
1000
0000
0002
0003
0200
0300
0010
0000
1000
0000
0100
0000
0010
0000
,
0001
1000
0010
0200
0000
0301
1000
0100
,
0020
0000
0000
0000
0034
0003
0400
0300
0001
0000
4000
3000
0010
0000
0100
0000
,
0010
1000
0100
0020
0000
0032
0003
1000
,
0010
0100
0001
2000
0000
3100
0010
0001
,
1000
0010
0100
0002
0000
0103
0010
1000
,
0200
0000
0000
0000
0340
0030
0004
0003
1000
0000
0040
0030
0100
0000
0010
0000
,
1000
0001
0010
0200
0000
1300
0010
0100
,
0010
0000
1000
0000
0002
0003
0200
0300
0010
0000
1000
0000
0100
0000
0010
0000
,
0001
1000
0010
0200
0000
0301
1000
0100
,
0020
0000
0000
0000
0034
0003
0400
0300
0001
0000
4000
3000
0010
0000
0100
0000
,
0010
1000
0100
0020
0000
0032
0003
1000
,
0010
0100
0001
2000
0000
3010
0100
0001
,
0010
0100
1000
0020
0000
0130
0001
1000
,
0200
0000
0000
0000
0340
0030
0004
0003
1000
0000
0040
0030
0100
0000
0010
0000
,
1000
0001
0010
0200
0000
1300
0010
0100
,
0010
0000
1000
0000
0002
0003
0020
0030
0100
0000
1000
0000
0100
0000
0010
0000
,
0001
1000
0010
0200
0000
0301
1000
0100
,
0020
0000
0000
0000
0034
0003
0400
0300
0001
0000
4000
3000
0010
0000
0100
0000
,
0010
1000
0100
0020
0000
0032
0003
1000
,
0010
0100
0001
2000
0000
3001
0010
0100
,
1100
0000
0000
0110
0000
0000
0011
0000
0000
1001
0000
0000
0010
0000
0100
0000
,
0101
0000
0000
1010
0000
0000
0110
0000
0000
0101
0000
0000
0010
0000
1000
0000
,
1001
0000
0000
0110
0000
0000
0101
0000
0000
1010
0000
0000
0001
0000
0100
0000
,
0110
0000
0000
1010
0000
0000
1001
0000
0000
0101
0000
0000
1000
0000
0100
0000
,
0110
0000
0000
0011
0000
0000
1001
0000
0000
1010
0000
0000
0001
0000
0100
0000
,
0101
0000
0000
1010
0000
0000
0110
0000
0000
1001
0000
0000
0010
0000
0100
0000
,
1100
0000
0000
0011
0000
0000
1100
0000
0000
1001
0000
0000
0001
0000
0100
0000
,
0110
0000
0000
1010
0000
0000
1001
0000
0000
0101
0000
0000
0010
0000
1000
0000
,
1001
0000
0000
0110
0000
0000
1010
0000
0000
1001
0000
0000
0010
0000
0100
0000
,
0101
0000
0000
1010
0000
0000
0110
0000
0000
0101
0000
0000
0010
0000
1000
0000
,
1001
0000
0000
0110
0000
0000
0101
0000
0000
1010
0000
0000
0001
0000
0100
0000
,
0110
0000
0000
1010
0000
0000
1001
0000
0000
0101
0000
0000
1000
0000
0100
0000
,
0010
0001
0100
0010
1000
0010
0100
0001
1000
0001
0010
0100
1000
0000
0010
0000
,
0100
0001
1000
0010
0100
0010
1000
0001
0010
0100
1000
0010
0100
0000
0001
0000
,
1000
0100
0010
0001
0100
0010
1000
0010
0100
0001
1000
0100
0010
0001
0100
0010
,
1000
0000
0001
0000
0100
0000
0010
0000
1000
0000
0001
0000
0010
0000
0100
0000
1000
0000
0010
0000
0100
0000
0001
0000
1000
0000
0100
0000
0010
0000
0001
0000
0100
0000
0010
0000
2000
0000
0000
0000
0000
0000
0000
0000
0000
3000
0000
0000
,
0001
0100
0010
1000
0001
0010
0001
0100
0010
1000
0100
0010
0001
1000
0010
1000
,
0100
0010
0001
0100
0010
1000
0001
0100
0010
0100
0001
1000
0010
0100
0010
1000
,
0001
1000
0010
0100
0001
1000
0100
0010
0001
0100
0010
1000
0001
0010
0100
1000
,
0100
0010
0001
1000
0001
0100
0010
1000
0100
0010
0001
0100
0010
0000
1000
0000
,
0001
0100
0010
1000
0100
1000
0001
0100
0010
1000
0001
0010
0100
1000
0010
0100
,
0001
1000
0100
1000
0010
0100
0010
1000
0001
0100
0001
0010
0100
1000
0010
0100
,
0001
1000
0001
0010
0100
1000
0010
0100
0010
1000
0001
0010
0100
1000
0010
0100
,
0001
1000
0100
1000
0010
0100
0001
1000
0100
0010
0001
0100
0010
1000
0001
0100
,
0001
1000
0010
0100
0001
1000
0100
0010
0001
0100
0010
0100
0001
1000
0100
0010
,
0001
0100
0010
1000
0010
0100
0001
1000
0001
0100
0010
1000
0100
0010
0001
1000
,
0010
1000
0100
0010
0001
0100
0001
0010
0100
1000
0010
0100
0001
1000
0100
0010
,
0001
1000
0100
1000
0010
0100
0001
0010
0001
0100
0010
1000
0001
0000
0100
0000
,
0010
1000
0100
0010
0001
0100
0010
1000
0010
0100
0001
1000
0100
0010
0001
0100
,
0010
1000
0001
0100
0010
1000
0100
0010
0001
0010
0100
1000
0010
0100
0010
1000
,
0001
0100
0001
1000
0100
0010
0001
0100
0010
1000
0001
0010
0100
1000
0010
0100
,
0001
1000
0100
0010
0001
0100
0010
1000
0001
0000
0010
0000
0100
0000
1000
0000
,
0001
0100
0010
1000
0100
0010
0001
0100
0010
1000
0100
0010
0001
1000
0010
1000
,
0100
0010
0001
0100
0010
1000
0001
0100
0010
0100
0001
1000
0010
0100
0010
1000
,
0001
1000
0010
0100
0001
1000
0100
0010
0001
0100
0010
1000
0001
0010
0100
1000
,
0100
0010
0001
1000
0001
0100
0010
1000
0100
0010
0001
0100
0010
0000
1000
0000
,
0001
0100
0010
1000
0100
1000
0001
0100
0010
1000
0001
0010
0100
1000
0010
0100
,
0001
1000
0100
1000
0010
0100
0010
1000
0001
0100
0001
0010
0100
1000
0010
0100
,
0001
1000
0001
0010
0100
1000
0010
0100
0010
1000
0001
0010
0100
1000
0010
0100
,
0001
1000
0100
1000
0010
0100
0001
1000
0100
0010
0001
0100
0010
1000
0001
0100
,
0001
1000
0010
0100
0010
1000
0100
0010
0001
0100
0001
1000
0010
1000
0100
0010
,
0001
0100
0010
1000
0010
0100
0001
1000
0001
0100
0010
1000
0100
0010
0001
1000
,
0010
1000
0100
0010
0001
0100
0001
0010
0100
1000
0010
0100
0001
1000
0100
0010
,
0001
1000
0100
1000
0010
0100
0001
0010
0100
1000
0001
1000
0010
0000
0100
0000
,
0001
1000
0100
0010
0001
0100
0010
1000
0010
0100
0001
1000
0100
0010
0001
0100
,
0010
1000
0001
0100
0010
1000
0100
0010
0001
0010
0100
1000
0010
0100
0010
1000
,
0001
0000
0100
0010
0000
0000
1010
0000
0100
0001
0000
0000
1001
0000
1000
0000
,
0010
0100
0001
1000
0000
0001
0010
0100
,
1000
0010
0100
0001
1000
0100
0010
0001
0100
0010
1000
0010
0100
0001
1000
0100
,
0010
0001
0100
0010
1000
0001
0010
0001
0100
0010
1000
0100
0010
0001
1000
0010
,
1000
0100
0010
0001
0100
0010
1000
0001
0010
0001
0100
0010
1000
0100
0010
0001
,
1000
0001
0100
0010
0100
0001
1000
0100
0010
0001
0100
0010
1000
0000
0001
0000
,
0100
0010
1000
0001
0010
0001
0100
0010
1000
0001
1000
0010
0100
0001
1000
0100
,
0010
0001
0100
0010
1000
0010
0100
0001
1000
0100
0010
0001
0100
0010
1000
0001
,
0010
0001
0100
0010
1000
0100
0010
0001
0100
0001
1000
0010
0100
0001
1000
0100
,
0010
0001
0100
0010
1000
0001
0010
0001
0100
0010
1000
0100
0010
0001
1000
0001
,
0100
0010
1000
0001
0010
0001
0100
0010
1000
0100
0010
0001
1000
0100
1000
0010
,
0100
0001
1000
0100
0010
0001
0100
0010
1000
0001
0010
0001
0100
0010
0100
0001
,
1000
0010
1000
0100
0010
0001
0100
0010
1000
0001
0100
0010
0100
0001
1000
0100
,
0010
0001
0100
0010
1000
0001
0010
0100
1000
0010
1000
0001
0100
0000
0010
0000
,
1000
0100
0010
0001
0100
0010
1000
0010
0100
0001
0100
0010
1000
0100
0010
0001
,
1000
0010
0100
0001
1000
0001
0010
0100
1000
0010
0100
0001
0100
0010
1000
0001
,
1000
0010
0100
0001
1000
0100
0010
0001
0100
0010
1000
0001
0010
0001
0100
0010
,
1000
0001
0400
0000
0310
1000
0004
0000
,
1003
0000
0010
0100
0001
0000
1000
0000
0100
0010
0001
1000
0010
0000
0100
0000
,
0001
0000
1000
0100
1000
0001
0100
0010
0000
1000
0100
0010
0001
0100
0010
1000
,
0001
0000
0100
0000
0010
0000
1000
0001
0100
0000
0010
0000
1000
0100
0010
0001
,
0100
0000
0010
0000
1000
0000
0001
0010
0001
0000
0100
0000
0010
1000
0001
1000
,
0100
0000
0010
0000
0001
0000
0100
0010
1000
0000
0001
0000
0010
0100
1000
0010
,
0100
0000
0001
0000
1000
0000
0010
0100
0010
0000
1000
0000
0001
0010
0001
1000
,
0100
0000
0010
0000
0001
0000
0100
0010
1000
0000
0001
0000
0010
0100
1000
0010
,
0100
0000
0001
0000
1000
0000
0100
0010
0001
0000
0100
0000
0010
1000
0001
0010
,
0100
0000
1000
0000
1001
0000
0000
0110
0000
0000
0101
0000
0000
1001
0000
0000
,
0010
0000
0100
0000
0101
0000
0000
1010
0000
0000
0110
0000
0000
0101
0000
0000
,
0010
0000
1000
0000
1001
0000
0000
0110
0000
0000
0101
0000
0000
1010
0000
0000
,
0001
0000
0100
0000
0110
0000
0000
1010
0000
0000
1001
0000
0000
0101
0000
0000
,
1000
0000
0100
0000
0110
0000
0000
0011
0000
0000
1001
0000
0000
1010
0000
0000
,
0001
0000
0100
0000
0101
0000
0000
1010
0000
0000
0110
0000
0000
1001
0000
0000
,
0010
0000
0100
0000
1100
0000
0000
1010
0000
0000
0101
0000
0000
1001
0000
0000
,
0010
0000
0100
0000
0101
0000
0000
1010
0000
0000
1001
0000
0000
0101
0000
0000
,
0010
0000
1000
0000
1MM1
0000
0000
0110
0000
0000
1010
0000
0000
1001
0000
0000
,
0010
0000
0100
0000
0101
0000
0000
1010
0000
0000
0110
0000
0000
0101
0000
0000
,
0010
0000
1000
0000
1001
0000
0000
0110
0000
0000
0101
0000
0000
1010
0000
0000
,
0001
0000
0100
0000
0110
0000
0000
1010
0000
0000
1001
0000
0000
0101
0000
0000
,
1000
0000
0001
0000
1001
0000
0000
0110
0000
0000
0101
0000
0000
1001
0000
0000
,
0010
0000
0100
0000
0101
0000
0000
1010
0000
0000
0110
0000
0000
0101
0000
0000
,
0010
0000
1000
0000
1001
0000
0000
0110
0000
0000
0101
0000
0000
1010
0000
0000
,
0001
0000
0100
0000
0110
0000
0000
1010
0000
0000
1001
0000
0000
0101
0000
0000
,
1000
0000
0100
0000
M11M
0000
0000
0011
0000
0000
1001
0000
0000
1010
0000
0000
,
0001
0000
0100
0000
0101
0000
0000
1010
0000
0000
0110
0000
0000
1001
0000
0000
,
0010
0000
0100
0000
1100
0000
0000
1010
0000
0000
0101
0000
0000
1001
0000
0000
,
0010
0000
0100
0000
0101
0000
0000
1010
0000
0000
1001
0000
0000
0101
0000
0000
,
0010
0000
1000
0000
1001
0000
0000
0110
0000
0000
1010
0000
0000
1001
0000
0000
,
0010
0000
0100
0000
0101
0000
0000
1010
0000
0000
0110
0000
0000
0101
0000
0000
,
0010
0000
1000
0000
1001
0000
0000
0110
0000
0000
0101
0000
0000
1010
0000
0000
,
0001
0000
0100
0000
0110
0000
0000
1010
0000
0000
1001
0000
0000
0101
0000
0000
,
1000
0000
0010
0000
0100
0000
0001
1000
0100
0000
0010
0000
0001
0000
0100
0010
,
1000
0000
0001
0000
0010
0000
0100
1000
0010
0000
0100
0000
0001
0000
1000
0010
,
0100
0000
0001
0000
1000
0000
0010
0100
0001
0000
1000
0000
0100
0000
0010
0001
,
1000
0000
0010
0000
0100
0000
0010
1000
0001
0000
0010
0000
0100
0000
1000
0001
,
1000
0000
0010
0000
1000
0100
0010
0001
0100
0010
1000
0001
0010
0001
0100
0010
,
1000
0100
0010
0001
1000
0001
0100
0010
1000
0001
0010
0001
0100
0010
1000
0100
,
0010
0001
1000
0100
1000
0010
0100
0001
1000
0100
0010
0001
0100
0010
1000
0001
,
0010
0001
0100
0010
1000
0000
0000
0101
0000
0000
0110
0000
0000
1010
0000
0000
,
0100
0000
0001
0000
1000
0010
0100
0001
1000
0100
0010
0001
0100
0010
1000
0010
,
0100
0001
1000
0100
0010
0001
0100
0010
1000
0001
0010
0001
0100
0010
1000
0100
,
0010
0001
1000
0010
1000
0100
0010
0001
0100
0010
1000
0001
0010
0001
0100
0010
,
1000
0100
0010
0001
1000
0001
0100
0010
0100
0001
1000
0100
0010
0001
0100
0010
,
1000
0000
0001
0000
0100
0010
1000
0001
0010
0001
0100
0010
1000
0001
1000
0010
,
0100
0001
1000
0100
0010
0001
0100
0010
1000
0010
0100
0001
1000
0100
0010
0001
,
0100
0010
1000
0001
0010
0001
0100
0010
1000
0100
0010
0001
0100
0001
1000
0010
,
0100
0001
1000
0100
0010
0001
0100
0010
1000
0001
0010
0001
0100
0010
1000
0100
,
0010
0001
1000
0001
0100
0010
1000
0001
0010
0001
0100
0010
1000
0100
0010
0001
,
1000
0100
1000
0010
0100
0001
1000
0100
0010
0001
0100
0010
1000
0001
0010
0001
,
0100
0010
0100
0001
1000
0010
1000
0100
0010
0001
0100
0010
1000
0001
0100
0010
,
0100
0001
1000
0100
0010
0001
0100
0010
1000
0001
0010
0100
1000
0010
1000
0001
,
0100
0000
0010
0000
1000
0100
0010
0001
0100
0010
1000
0010
0100
0001
0100
0010
,
1000
0100
0010
0001
1000
0010
0100
0001
1000
0001
0010
0100
1000
0010
0100
0001
,
0100
0010
1000
0001
1000
0010
0100
0001
1000
0100
0010
0001
0100
0010
1000
0001
,
0100
0001
1000
0010
0100
0001
0010
0100
1000
0010
0100
0001
0010
0100
1000
0010
,
0100
0000
0001
0000
1000
0010
0100
0001
1000
0100
0010
0001
0100
0010
1000
0010
,
0100
0001
1000
0100
0010
0001
0100
0010
1000
0001
0010
0001
0100
0010
1000
0100
,
0010
0001
1000
0010
1000
0100
0010
0001
0100
0010
1000
0001
0010
0001
0100
0010
,
1000
0100
0010
0001
1000
0001
0100
0010
0100
0001
1000
0100
0010
0001
0100
0010
,
1000
0000
0001
0000
0100
0010
1000
0001
0010
0001
0100
0010
1000
0001
1000
0010
,
0100
0001
1000
0100
0010
0001
0100
0010
1000
0010
0100
0001
1000
0100
0010
0001
,
0100
0010
1000
0001
0010
0001
0100
0010
1000
0100
0010
0001
0100
0001
1000
0010
,
0100
0001
1000
0100
0010
0001
0100
0010
1000
0001
0010
0001
0100
0010
1000
0100
,
0010
0001
1000
0001
0100
0010
1000
0001
0010
0001
0100
0010
1000
0100
0010
0001
,
1000
0100
1000
0010
0100
0001
1000
0100
0010
0001
0100
0010
1000
0001
0010
0001
,
0100
0010
0100
0001
1000
0010
1000
0100
0010
0001
0100
0010
1000
0001
0100
0010
,
0100
0001
1000
0100
0010
0001
0100
0010
1000
0001
0010
0100
1000
0010
0100
0001
,
0010
0000
0100
0000
1000
0100
0010
0001
0100
0010
1000
0010
0100
0001
0100
0010
,
1000
0100
0010
0001
1000
0010
0100
0001
1000
0001
0010
0100
1000
0010
0100
0001
,
0100
0010
1000
0001
1000
0010
0100
0001
1000
0100
0010
0001
0100
0010
1000
0001
,
0010
0001
0100
0010
1000
0000
0001
0000
0400
0000
0000
0000
0310
0000
1000
0000
,
0004
0000
0000
0000
1003
0010
0100
0010
1000
0100
0010
0001
0100
0010
1000
0010
,
0100
0001
1000
0100
0010
0001
0100
0010
1000
0001
0010
0001
0100
0010
1000
0100
,
0010
0001
1000
0010
1000
0100
0010
0001
0100
0010
1000
0001
0010
0001
0100
0010
,
1000
0100
0010
0001
1000
0001
0100
0010
0100
0001
1000
0100
0010
0001
0100
0010
,
1000
0000
0001
0000
0100
0010
1000
0001
0010
0001
0100
0010
1000
0001
1000
0010
,
0100
0001
1000
0100
0010
0001
0100
0010
1000
0010
0100
0001
1000
0100
0010
0001
,
0100
0010
1000
0001
0010
0001
0100
0010
1000
0100
0010
0001
0100
0001
1000
0010
,
0100
0001
1000
0100
0010
0001
0100
0010
1000
0001
0010
0001
0100
0010
1000
0100
,
0010
0001
1000
0001
0100
0010
1000
0001
0010
0001
0100
0010
1000
0100
0010
0001
,
1000
0100
1000
0010
0100
0001
1000
0100
0010
0001
0100
0010
1000
0001
0010
0001
,
0100
0010
0100
0001
1000
0010
1000
0100
0010
0001
0100
0010
1000
0001
0100
0010
,
0100
0001
1000
0100
0010
0001
0100
0010
1000
0001
0010
0100
1000
0010
0100
0001
,
0100
0000
0010
0000
1000
0100
0010
0001
0100
0010
1000
0010
0100
0001
0100
0010
,
1000
0100
0010
0001
1000
0010
0100
0001
1000
0001
0010
0100
1000
0010
0100
0001
,
0100
0010
1000
0001
1000
0010
0100
0001
1000
0100
0010
0001
0100
0010
1000
0001
,
0010
0001
0100
0010
1000
0000
0001
0000
0010
0000
0001
0000
0100
0000
0010
0000
,
2000
0000
0000
0000
3001
0010
0100
1000
0010
0100
0010
1000
0001
0100
0010
1000
,
0100
0010
0001
1000
0010
1000
0100
0010
0001
0100
0010
1000
0001
0010
0001
1000
,
0100
0010
0001
1000
0010
1000
0100
0010
0001
0100
0010
1000
0010
0100
0001
1000
,
0100
0010
0001
0100
0010
1000
0001
0010
0001
1000
0100
0010
0001
1000
0001
0100
,
0010
0000
1000
0000
0001
0010
0100
1000
0010
0100
0001
1000
0100
1000
0010
0100
,
0001
1000
0100
0010
0001
0100
0010
1000
0010
0100
0001
1000
0010
0000
0000
0000
;
