#TITLE:Banjo Thing;
#SUBTITLE:;
#ARTIST:INFERNAL feat. Redstar;
#TITLETRANSLIT:;
#SUBTITLETRANSLIT:;
#ARTISTTRANSLIT:;
#CREDIT:;
#BANNER:banjothing.png;
#BACKGROUND:banjothing-bg.png;
#LYRICSPATH:;
#CDTITLE:;
#MUSIC:banjothing.mp3;
#OFFSET:-5.275;
#SAMPLESTART:55.710;
#SAMPLELENGTH:12.000;
#SELECTABLE:YES;
#BPMS:0.000=138.020;
#STOPS:;
#BGCHANGES:;
// cache tags:
#FIRSTBEAT:0.000;
#LASTBEAT:196.000;
#SONGFILENAME:Songs/other/banjothing/banjothing.sm;
#HASMUSIC:1;
#HASBANNER:1;
#MUSICLENGTH:93.134;
// end cache tags

//---------------dance-single - ----------------
#NOTES:
     dance-single:
     :
     Easy:
     2:
     0.170,0.184,0.021,0.075,0.000,102.000,2.000,7.000,0.000,0.000:  // measure 1
0000
0000
0000
0000
,  // measure 2
1000
0000
1000
0000
,  // measure 3
0010
0000
0010
0000
,  // measure 4
0100
0000
0100
0000
,  // measure 5
0002
0000
0000
1003
,  // measure 6
0010
0000
0010
0000
,  // measure 7
1000
0000
1000
0000
,  // measure 8
0100
0000
0010
0000
,  // measure 9
0002
0000
0000
0003
,  // measure 10
0100
0000
0010
0000
,  // measure 11
1000
0000
0001
0000
,  // measure 12
1000
0000
1000
0000
,  // measure 13
0010
0000
0010
0000
,  // measure 14
0100
0000
0001
0000
,  // measure 15
1000
0000
0100
0000
,  // measure 16
1000
0000
0010
0000
,  // measure 17
0100
0000
0100
0000
,  // measure 18
0001
0000
0010
0000
,  // measure 19
0001
0000
0100
0000
,  // measure 20
0010
0000
1000
0000
,  // measure 21
0200
0000
0000
0300
,  // measure 22
0010
0000
0000
0010
,  // measure 23
0001
0000
0000
0001
,  // measure 24
0100
0000
0000
0100
,  // measure 25
0010
0000
0010
0000
,  // measure 26
1001
0000
0000
1000
,  // measure 27
0100
0000
0000
0010
,  // measure 28
0100
0000
0000
0001
,  // measure 29
1000
0000
1000
0000
,  // measure 30
0001
0000
0100
0000
,  // measure 31
0010
0000
1000
1000
,  // measure 32
0001
0000
1000
0000
,  // measure 33
0100
0000
0010
0010
,  // measure 34
1001
0000
0001
0000
,  // measure 35
0100
0000
0010
0010
,  // measure 36
1000
0000
0001
0000
,  // measure 37
0200
0000
0020
0330
,  // measure 38
1000
0000
0100
0000
,  // measure 39
1000
0000
0010
0010
,  // measure 40
1000
0000
0001
0000
,  // measure 41
0010
0000
0001
0001
,  // measure 42
0100
0000
0010
0000
,  // measure 43
1000
0000
0100
0000
,  // measure 44
0010
0010
0010
0010
,  // measure 45
0002
0000
0000
1003
,  // measure 46
0100
0000
0010
0000
,  // measure 47
1000
0000
0100
0000
,  // measure 48
1000
0000
0010
0000
,  // measure 49
0200
0000
0000
0310
,  // measure 50
0010
0000
0000
0000
;

//---------------dance-single - ----------------
#NOTES:
     dance-single:
     :
     Medium:
     6:
     0.347,0.342,0.032,0.021,0.140,221.000,3.000,2.000,0.000,0.000:  // measure 1
0000
0000
0000
0000
,  // measure 2
0010
0000
0010
0000
0010
0000
1000
0100
,  // measure 3
1000
0000
1000
0000
1000
0000
0001
0100
,  // measure 4
0001
0000
0001
0000
0001
0000
0100
0010
,  // measure 5
1000
0000
0000
0001
0000
0000
1001
0000
,  // measure 6
0010
0100
0010
0100
,  // measure 7
0001
0010
0100
1000
,  // measure 8
0001
0010
0001
0010
,  // measure 9
0100
1000
0010
0001
,  // measure 10
1000
0100
1000
0100
,  // measure 11
0010
0001
1000
0100
,  // measure 12
0010
0001
0010
0001
,  // measure 13
0100
0001
0010
1000
,  // measure 14
0010
0000
0100
0000
0001
0000
0001
0100
,  // measure 15
0010
0000
1000
0000
0100
0000
0100
0010
,  // measure 16
0001
0000
0100
0000
0010
0000
0010
1000
,  // measure 17
0001
0000
1000
0000
,  // measure 18
0010
0000
0100
0000
0001
0000
0010
0001
,  // measure 19
0100
0000
0010
0000
1000
0000
0010
1000
,  // measure 20
0001
0000
0100
0000
0010
0000
0100
0010
,  // measure 21
1000
0000
0001
0000
,  // measure 22
1000
0000
0000
1000
0000
0010
0100
0000
,  // measure 23
0001
0000
0000
0001
0000
0010
0100
0000
,  // measure 24
1000
0000
0000
1000
0000
0010
0100
0000
,  // measure 25
0001
1000
0001
0100
,  // measure 26
1001
0000
0000
0100
0000
0100
0010
0000
,  // measure 27
1000
0000
0000
0010
0000
0010
0100
0000
,  // measure 28
0001
0000
0000
0010
0000
0010
0100
0000
,  // measure 29
1000
0001
1000
0010
,  // measure 30
0100
0000
0000
0100
0000
0000
0100
0000
0001
0000
0000
0001
0000
0000
0001
0000
,  // measure 31
0010
0000
0000
0010
0000
0000
0010
0000
0100
0000
0000
1000
0000
0000
0100
0000
,  // measure 32
0010
0000
0000
0010
0000
0000
0010
0000
0001
0000
0000
0001
0000
0000
0001
0000
,  // measure 33
0100
0000
0000
0100
0000
0000
0100
0000
0010
0000
0000
0010
0000
0000
0010
0000
,  // measure 34
1000
0000
0000
1000
0000
0000
1000
0000
0001
0000
0000
0001
0000
0000
0001
0000
,  // measure 35
0100
0000
0000
0100
0000
0000
0100
0000
0001
0000
0000
0010
0000
0000
0001
0000
,  // measure 36
1000
0000
0000
1000
0000
0000
1000
0000
0010
0000
0000
0010
0000
0000
0010
0000
,  // measure 37
0200
0000
0020
0330
,  // measure 38
1000
0000
0000
1000
0000
0000
1000
0000
0010
0000
0000
0010
0000
0000
0010
0000
,  // measure 39
0100
0000
0000
0100
0000
0000
0100
0000
0001
0000
0000
0010
0000
0000
0001
0000
,  // measure 40
1000
0000
0000
1000
0000
0000
1000
0000
0100
0000
0000
0100
0000
0000
0100
0000
,  // measure 41
0010
0000
0000
0010
0000
0000
0010
0000
0001
0000
0000
0001
0000
0000
0001
0000
,  // measure 42
0100
0000
0000
0100
0000
0000
0100
0000
0010
0000
0000
0010
0000
0000
0010
0000
,  // measure 43
1000
0000
0000
1000
0000
0000
1000
0000
0001
0000
0000
0100
0000
0000
0001
0000
,  // measure 44
0010
0010
0010
0010
,  // measure 45
0100
0000
0100
0000
1000
0001
1000
0000
,  // measure 46
0001
0100
0001
0100
,  // measure 47
0010
0010
1000
0001
,  // measure 48
1000
0100
1000
0100
,  // measure 49
0010
0000
0000
0010
0000
0000
1001
0000
,  // measure 50
0100
0000
0000
0000
;

//---------------dance-single - ----------------
#NOTES:
     dance-single:
     :
     Hard:
     9:
     0.595,0.552,0.107,0.075,0.360,371.000,10.000,7.000,0.000,0.000:  // measure 1
0001
1000
0010
1000
0010
0000
1000
0001
0010
0001
0010
0000
0200
0000
0000
0000
,  // measure 2
1300
0010
1000
0100
1000
0001
1000
0000
,  // measure 3
0010
0100
0010
1000
0010
0001
0010
0000
,  // measure 4
0100
1000
0100
0010
0100
0001
0100
0000
,  // measure 5
0001
1000
0100
1000
0100
0000
1000
0001
0100
0001
0100
0000
0020
0000
0000
0000
,  // measure 6
1030
0000
1100
0000
1000
0001
1000
0001
,  // measure 7
0100
0000
0110
0000
0010
1000
0010
1000
,  // measure 8
0100
0000
0101
0000
0100
1000
0100
1000
,  // measure 9
0010
0000
0000
0100
0000
0000
0001
0000
0000
0000
0100
0010
0100
0000
0001
0000
,  // measure 10
1000
0000
0110
0000
0001
0100
0010
1000
,  // measure 11
1100
0000
0101
0000
0010
1000
0001
0100
,  // measure 12
0110
0000
1100
0000
0010
0100
0001
0100
,  // measure 13
1000
0000
0000
0100
0000
0000
0001
0000
0000
0000
0010
0100
0010
0000
0001
0000
,  // measure 14
1000
0100
1000
0010
1000
0100
1000
0001
,  // measure 15
0100
0010
0100
1000
0100
0010
0100
0001
,  // measure 16
0010
0100
0010
0001
0010
1000
0010
0000
,  // measure 17
0100
0000
0000
0100
0000
0000
0100
0000
0000
1000
0010
0000
0100
0001
0100
0000
,  // measure 18
0010
1000
0100
1000
0010
1000
0100
0010
,  // measure 19
0001
1000
0001
0100
0001
1000
0001
0010
,  // measure 20
0100
1000
0100
0010
0100
1000
0100
0010
,  // measure 21
0001
0000
0000
2000
0000
0000
0002
0000
0000
0000
0000
0000
3003
0000
0000
0000
,  // measure 22
0010
0000
0100
1000
0100
0000
0010
0000
0100
1000
0100
0000
0010
0000
0010
0000
,  // measure 23
0001
0000
0100
0010
0100
0000
0001
0000
0100
0010
0100
0000
0001
0000
0001
0000
,  // measure 24
1000
0000
0010
0100
0010
0000
1000
0000
0010
0100
0010
0000
1000
0000
1000
0000
,  // measure 25
0010
0001
0010
1000
0001
0100
1000
0100
,  // measure 26
0001
0000
1000
0100
1000
0000
0001
0000
1000
0010
1000
0000
0001
0000
0001
0000
,  // measure 27
0010
0000
0100
1000
0100
0000
0010
0000
0100
0001
0100
0000
0010
0000
0010
0000
,  // measure 28
0100
0000
0010
0001
0010
0000
0100
0000
0010
1000
0010
0000
0100
0000
0100
0000
,  // measure 29
0001
0100
1000
0001
1000
0010
0001
0010
,  // measure 30
1000
0000
0000
1000
0000
0000
1000
0000
0100
0000
0000
0100
0000
0000
0100
0000
,  // measure 31
0010
0000
0000
0010
0000
0000
0010
0000
0100
0000
0000
0100
1000
0000
0100
0000
,  // measure 32
0010
0000
0000
0010
0000
0000
0010
0000
0001
0000
0000
0001
0000
0000
0100
0000
,  // measure 33
0010
0000
0000
0010
0000
0000
0010
0000
1000
0000
0000
1000
0000
0000
1000
0000
,  // measure 34
0101
0000
0000
0001
0000
0000
0001
0000
0100
0000
0000
0100
0000
0000
0100
0000
,  // measure 35
0010
0000
0000
0010
0000
0000
0010
0000
1000
0000
0000
1000
0100
0000
1000
0000
,  // measure 36
0010
0000
0000
0100
0000
0000
0100
0000
0001
0000
0000
0010
0000
0000
0100
0000
,  // measure 37
2000
0000
0002
3003
,  // measure 38
0100
0000
1000
0100
0000
1000
0100
0000
0010
0000
0001
0010
0000
0001
0010
0000
,  // measure 39
0100
0000
0010
0100
0000
0010
0100
0000
1000
0000
0000
0001
0000
0000
1000
0000
,  // measure 40
0010
0000
0100
0010
0000
0100
0010
0000
1000
0000
0100
1000
0000
0100
1000
0000
,  // measure 41
0001
0000
0100
0001
0000
0100
0001
0000
0010
0000
0000
0100
0000
0000
0010
0000
,  // measure 42
0001
0000
1000
0100
0000
1000
0100
0000
0010
0000
0001
0100
0000
0001
0100
0000
,  // measure 43
0010
0000
1000
0001
0000
1000
0001
0000
0100
0000
0000
0010
0000
0000
0100
0000
,  // measure 44
0001
1000
0001
1000
0001
1000
0010
0000
,  // measure 45
0100
0001
0100
0001
0100
0001
1001
0000
,  // measure 46
0100
0010
1000
0000
0010
1000
0100
0000
,  // measure 47
1000
0100
0010
0000
0100
0010
0001
0000
,  // measure 48
0010
0001
0100
0000
0001
0100
0010
0000
,  // measure 49
1000
0100
1000
0100
0010
0000
0001
0100
0001
0100
0010
0000
2000
0000
0000
0000
,  // measure 50
3001
0000
0000
0000
;

//---------------dance-single - ----------------
#NOTES:
     dance-single:
     :
     Challenge:
     10:
     0.831,0.868,0.097,0.236,0.988,511.000,9.000,22.000,0.000,3.000:  // measure 1
1000
0100
0010
0100
1000
0000
0001
0010
0100
0010
0001
0000
1001
0000
0000
0000
,  // measure 2
1000
0000
0000
0000
1000
0100
1000
0000
0001
0000
0000
0000
0001
0010
0001
0000
,  // measure 3
0100
0000
0000
0000
0100
0010
0100
0000
0010
0000
0000
0000
0010
1000
0010
0000
,  // measure 4
1000
0000
0000
0000
1000
0010
1000
0000
0001
0000
0000
0000
0001
0100
0001
0000
,  // measure 5
1000
0010
0100
0010
1000
0000
0001
0100
0010
0100
0001
0000
1001
0000
0000
0000
,  // measure 6
1000
0000
0100
0000
1000
0100
0010
0000
0001
0000
0100
0000
0001
0100
0010
0000
,  // measure 7
1000
0000
0001
0000
1000
0001
0100
0000
0001
0000
1000
0000
0001
1000
0100
0000
,  // measure 8
1000
0000
0010
0000
1000
0010
0100
0000
0001
0000
0010
0000
0001
0010
0100
0000
,  // measure 9
1000
0000
1000
0001
0000
0001
0100
0000
0000
0010
0100
0000
0001
0010
0001
0100
,  // measure 10
0010
0000
1000
0000
0010
1000
0100
0000
0010
0000
0001
0000
0010
0001
0100
0000
,  // measure 11
0001
0000
1000
0000
0001
1000
0100
0000
1000
0000
0001
0000
1000
0001
0010
0000
,  // measure 12
0100
0000
1000
0000
0100
1000
0010
0000
0100
0000
0001
0000
0100
0001
0010
0000
,  // measure 13
0100
0000
0100
1000
0000
1000
0010
0000
0000
0100
0001
0000
0100
0010
0100
0001
,  // measure 14
1000
0000
1000
0000
0010
0100
0010
0000
1000
0100
0010
0001
0010
0100
1000
0000
,  // measure 15
0010
0000
0010
0000
0100
0001
0100
0000
0010
1000
0001
0100
0001
1000
0010
0000
,  // measure 16
0100
0000
0100
0000
0001
0010
0001
0000
0100
0010
1000
0001
1000
0010
0100
0000
,  // measure 17
0001
0000
0001
0010
0000
0010
0100
0000
0000
0100
1000
0000
0010
0100
0010
0000
,  // measure 18
1000
0000
1000
0000
0100
0010
0001
0000
0010
0100
1000
0100
0010
0001
0100
0000
,  // measure 19
0010
0000
1000
0000
0001
0100
0010
0000
1000
0001
0100
0001
1000
0010
0100
0000
,  // measure 20
0001
0000
0010
0000
0100
1000
0001
0000
0100
0010
1000
0001
0010
0100
1000
0000
,  // measure 21
0010
0000
0010
0100
0000
0100
0001
0000
0000
0010
0100
0000
1000
0010
1000
0000
,  // measure 22
0001
0010
0100
1000
0001
1000
0001
0010
0100
1000
0010
0100
0001
1000
0010
0100
,  // measure 23
0001
0010
0100
1000
0001
0100
0001
0010
0100
1000
0010
1000
0010
0100
0001
0100
,  // measure 24
0010
1000
0001
0100
0010
1000
0010
0100
0001
1000
0001
1000
0100
0010
0001
0010
,  // measure 25
0100
1000
0010
0100
0001
0010
0200
0000
1300
0010
0100
0001
1000
0010
0200
0000
,  // measure 26
0301
1000
0010
0100
0001
0100
0001
1000
0010
0100
0001
0010
0100
1000
0010
0100
,  // measure 27
0001
1000
0010
0100
0001
0010
0001
1000
0010
0100
0001
1000
0100
0010
0001
0010
,  // measure 28
0100
1000
0010
0100
0001
0100
0010
1000
0100
0010
0100
1000
0001
0010
0100
0010
,  // measure 29
0001
1000
0010
0100
0010
1000
0002
0000
0013
0100
1000
0100
0010
0001
0020
0000
,  // measure 30
0230
0000
0000
0001
0000
0000
1000
0000
2300
0000
0000
0010
0000
0000
0001
0000
,  // measure 31
3002
0000
0000
0100
0000
0000
0010
0000
0023
0000
0000
1000
0000
0000
0100
0000
,  // measure 32
0230
0000
0000
0010
0000
0000
0001
0000
0302
0000
0000
1000
0000
0000
0100
0000
,  // measure 33
0203
0000
0000
0001
0000
0000
0010
0000
0320
0000
0000
1000
0000
0000
0130
0000
,  // measure 34
0210
0000
0000
0001
0000
0000
1000
0000
2300
0000
0000
0010
0000
0000
0100
0000
,  // measure 35
3200
0000
0000
0001
0000
0000
0010
0000
0320
0000
0000
1000
0000
0000
0001
0000
,  // measure 36
0032
0000
0000
0100
0000
0000
1000
0000
2003
0000
0000
0010
0000
0000
0100
0000
,  // measure 37
3200
0000
0000
0001
0000
0000
1000
0000
2300
0000
0000
0001
0000
0000
3010
0000
,  // measure 38
0110
0000
0100
0001
0000
0010
0100
0000
1000
0000
0010
0100
0000
0001
0010
0000
,  // measure 39
0001
0000
0100
0010
0000
1000
0100
0000
0010
0000
1000
0010
0000
0001
0100
0000
,  // measure 40
0010
0000
1000
0001
0000
0010
0100
0000
0010
0000
0001
0100
0000
0010
1000
0000
,  // measure 41
0001
0000
0100
0010
0000
1000
0100
0000
0010
0000
0100
1000
0000
0001
0100
0000
,  // measure 42
0110
0000
1000
0100
0000
0010
0100
0000
1000
0000
0001
0100
0000
0010
1000
0000
,  // measure 43
0001
0000
0010
0100
0000
1000
0010
0000
0100
0000
1000
0100
0000
0001
0010
0000
,  // measure 44
0220
1000
0001
1330
,  // measure 45
0001
1000
0001
1000
0100
0100
1001
0000
,  // measure 46
0100
0001
0100
0000
0001
0010
0100
0000
1000
0010
1000
0000
0100
0010
0001
0000
,  // measure 47
1000
0100
1000
0000
0010
0100
0001
0000
1000
0010
1000
0000
0010
0100
1000
0000
,  // measure 48
0100
0001
0100
0000
0001
0010
0100
0000
0010
0001
0010
0000
0001
1000
0100
0000
,  // measure 49
0010
0001
0010
0100
1000
0000
0001
0010
0100
1000
0100
0000
1001
0000
0000
0000
,  // measure 50
0110
0000
0000
0000
;
