#TITLE:Pacific Girls;
#SUBTITLE:;
#ARTIST:DJ Sharpnel;
#TITLETRANSLIT:;
#SUBTITLETRANSLIT:;
#ARTISTTRANSLIT:;
#CREDIT:;
#BANNER:pacific girls bn.png;
#BACKGROUND:pacific girls bg.png;
#LYRICSPATH:;
#CDTITLE:;
#MUSIC:Pacific Girls.ogg;
#OFFSET:-0.463;
#SAMPLESTART:256.472;
#SAMPLELENGTH:19.691;
#SELECTABLE:YES;
#BPMS:0.000=195.000;
#STOPS:;
#BGCHANGES:;
// cache tags:
#FIRSTBEAT:0.000;
#LASTBEAT:1040.000;
#SONGFILENAME:Songs/SHARPNELSTREAMZ v2/Pacific Girls/Pacific Girls.sm;
#HASMUSIC:1;
#HASBANNER:1;
#MUSICLENGTH:322.063;
// end cache tags

//---------------dance-single - 17+ (CTalon)----------------
#NOTES:
     dance-single:
     17+ (CTalon):
     Challenge:
     17:
     1.000,1.000,0.016,0.227,1.000,3415.000,5.000,73.000,39.000,0.000:
00M0
0000
0000
0000
0001
1000
0001
0000
0000
0000
0000
0000
1000
0010
0100
0000
,
0000
0000
0000
0000
0001
0010
0100
0000
1000
0001
1000
0000
0100
0000
1000
0000
,
0000
0000
0000
0000
0010
0100
0001
0000
0000
0000
0000
0000
0010
0100
1000
0000
,
0000
0000
0000
0000
0001
0100
0010
0000
0100
0001
0100
0000
0010
0000
1000
0000
,
000M
0000
0000
0000
0001
0010
0100
0000
0000
0000
0000
0000
1000
0001
0100
0000
,
0000
0000
0000
0000
0001
0010
0001
0000
1000
0010
0100
0000
0001
0000
0010
0000
,
0000
0000
0000
0000
0100
1000
0001
0000
0000
0000
0000
0000
1000
0010
0100
0000
,
0000
0000
0000
0000
0001
0010
0100
0000
0010
0001
1000
0000
0001
0000
0100
0000
,
00M0
0000
0000
0000
0001
1000
0010
0000
0000
0000
0000
0000
0100
0001
0010
0000
,
0000
0000
0000
0000
0100
1000
0001
0000
1000
0010
1000
0000
0100
0000
0010
0000
,
0000
0000
0000
0000
0100
1000
0001
0000
0000
0000
0000
0000
0100
0010
0100
0000
,
0000
0000
0000
0000
0001
0010
0100
0000
1000
0001
0100
0000
0010
0000
1000
0000
,
0M00
0000
0000
0000
0001
0010
0100
0000
0000
0000
0000
0000
0010
0001
1000
0000
,
0000
0000
0000
0000
0010
1000
0010
0000
0100
0001
1000
0000
0100
0000
0010
0000
,
0000
0000
0000
0000
0001
1000
0001
0000
0000
0000
0000
0000
1000
0010
0100
0000
,
0101
1001
1100
0101
,
M001
0020
0031
2000
3010
0200
0310
2000
,
3100
0020
0031
2000
3001
0200
0310
2000
,
3100
0020
0031
0200
0301
0020
0130
2000
,
3001
0200
0301
2000
3100
0020
0031
0200
,
031M
2000
3100
0020
0130
2000
3001
0200
,
0301
0020
0130
2000
3100
0020
0130
2000
,
3001
0200
0301
0020
0031
2000
3100
0020
,
0130
2000
3001
0200
0310
2000
3100
0020
,
0M31
2000
3001
0020
0031
0200
0310
2000
,
3100
0020
0031
0200
0301
0020
0130
2000
,
3001
0200
0301
2000
3010
0200
0310
2000
,
3100
0020
0031
0200
0301
0020
0031
2000
,
301M
0200
0301
0020
0130
2000
3100
0020
,
0031
2000
3001
0200
0301
0020
0130
2000
,
3001
0100
0001
1000
0100
0010
0100
1000
0001
0100
0010
1000
0001
0010
0001
1000
,
0100
0010
0100
1000
0001
0100
0001
0100
0010
1000
0001
0010
0100
1000
0100
1000
,
0001
0100
0010
1000
0100
0010
0001
1000
0001
1000
0010
0100
0001
0100
0001
1000
,
0001
0100
0010
1000
0100
0010
0001
1000
0001
1000
0010
0100
0001
0100
0001
1000
,
0001
0100
0010
1000
0100
0010
0001
1000
0001
1000
0010
0100
0001
0100
0001
1000
,
0001
0100
0010
1000
0100
0010
0001
1000
0001
1000
0010
0100
0001
0100
0001
1000
,
0001
0010
0100
1000
0010
0100
0001
1000
0001
1000
0100
0010
0001
0010
0001
1000
,
0001
0010
0100
1000
0010
0100
0001
1000
0001
1000
0100
0010
0001
0010
0001
1000
,
0001
0010
0100
1000
0010
0100
0001
1000
0001
1000
0100
0010
0001
0010
0001
1000
,
0001
0010
0100
1000
0010
0100
0001
1000
0001
1000
0100
0010
0001
0010
0001
1000
,
0001
0100
0010
1000
0001
1000
0010
0100
0001
0010
0100
0010
0100
1000
0001
1000
,
0001
0100
0010
1000
0001
1000
0010
0100
0001
0010
0100
0010
0100
1000
0001
1000
,
0001
0100
0010
1000
0001
1000
0010
0100
0001
0010
0100
0010
0100
1000
0001
1000
,
0001
0100
0010
1000
0001
1000
0010
0100
0001
0010
0100
0010
0100
1000
0001
1000
,
0001
0010
0100
1000
0001
1000
0100
0010
0001
0100
0010
0100
0010
1000
0001
1000
,
0001
0010
0100
1000
0001
1000
0100
0010
0001
0100
0010
0100
0010
1000
0001
1000
,
0001
0010
0100
1000
0001
1000
0100
0010
0001
0100
0010
0100
0010
1000
0001
1000
,
0001
0010
0100
1000
0001
1000
0100
0010
0001
0100
0010
0100
0010
1000
0001
1000
,
0001
0010
0100
0010
0001
0100
0010
1000
0001
0010
0100
1000
0100
1000
0010
1000
,
0001
0010
0100
0010
0001
0100
0010
1000
0001
0010
0100
1000
0100
1000
0010
1000
,
0001
0010
0100
0010
0001
0100
0010
1000
0001
0010
0100
1000
0100
1000
0010
1000
,
0001
0010
0100
0010
0001
0100
0010
1000
0001
0010
0100
1000
0100
1000
0010
1000
,
0001
0100
0010
0100
0001
0010
0100
1000
0001
0100
0010
1000
0010
1000
0100
1000
,
0001
0100
0010
0100
0001
0010
0100
1000
0001
0100
0010
1000
0010
1000
0100
1000
,
0001
0100
0010
0100
0001
0010
0100
1000
0001
0100
0010
1000
0010
1000
0100
1000
,
0001
0100
0010
0100
0001
0010
0100
1000
0001
0100
0010
1000
0010
1000
0100
1000
,
0001
0100
0001
1000
0010
1000
0100
1000
0001
0010
0100
1000
0010
0100
0001
1000
,
0001
0100
0001
1000
0010
1000
0100
1000
0001
0010
0100
1000
0010
0100
0001
1000
,
0001
0100
0001
1000
0010
1000
0100
1000
0001
0010
0100
1000
0010
0100
0001
1000
,
0001
0100
0001
1000
0010
1000
0100
1000
0001
0010
0100
1000
0010
0100
0001
1000
,
0001
0010
0001
1000
0100
1000
0010
1000
0001
0100
0010
1000
0100
0010
0001
1000
,
0001
0010
0001
1000
0100
1000
0010
1000
0001
0100
0010
1000
0100
0010
0001
1000
,
0001
0010
0001
1000
0100
1000
0010
1000
0001
0100
0010
1000
0100
0010
0001
1000
,
0001
0010
0001
1000
0100
1000
0010
1000
0001
0100
0010
1000
0100
0010
0001
1000
,
0001
0100
0010
1000
0001
0100
0001
1000
0010
0100
0010
1000
0001
0100
0001
1000
,
0010
1000
0010
0100
0010
1000
0010
1000
0001
0010
0100
0010
0001
1000
0100
0010
,
0001
1000
0010
0100
0010
1000
0001
0100
0001
0100
0010
1000
0010
0100
0010
1000
,
0001
1000
0010
0100
0010
0100
0001
1000
0001
0010
0100
1000
0100
0010
0001
1000
,
0001
0100
0010
1000
0001
0100
0001
1000
0001
0010
0100
0010
0001
0010
0100
1000
,
0100
1000
0001
0010
0100
0010
0001
0010
0001
1000
0100
0010
0001
1000
0001
1000
,
0100
0010
0001
0010
0100
1000
0001
1000
0100
0010
0100
1000
0001
0010
0100
1000
,
0001
1000
0001
0010
0001
1000
0100
0010
0001
1000
0100
1000
0010
0100
0001
0010
,
0001
1000
0010
0100
0001
1000
0001
0100
0010
1000
0010
0100
0010
1000
0001
0100
,
0001
1000
0001
0100
0001
0100
0010
1000
0001
0010
0001
1000
0100
1000
0001
1000
,
0001
0100
0010
1000
0010
1000
0001
1000
0001
0100
0010
1000
0010
0100
0001
1000
,
0001
0100
0001
1000
0010
0100
0010
1000
0001
0010
0001
1000
0100
0010
0001
1000
,
0001
0100
0001
1000
0010
0100
0010
1000
0001
0100
0001
1000
0010
1000
0001
0100
,
0010
1000
0010
0100
0001
0100
0010
0100
0001
1000
0001
0100
0010
0100
0001
0100
,
0010
1000
0001
1000
0001
0100
0010
1000
0001
0100
0010
1000
0010
0100
0001
1000
,
0001
0010
0100
1000
0010
0100
0001
0010
0100
1000
0010
0100
0001
0010
0100
1000
,
0001
0100
0010
1000
0001
0100
0001
1000
0010
0100
0010
1000
0001
0100
0001
1000
,
0010
1000
0010
0100
0010
1000
0010
1000
0001
0010
0100
0010
0001
1000
0100
0010
,
0001
1000
0010
0100
0010
1000
0001
0100
0001
0100
0010
1000
0010
0100
0010
1000
,
0001
1000
0010
0100
0010
0100
0001
1000
0001
0010
0100
1000
0100
0010
0001
1000
,
0001
0100
0010
1000
0001
0100
0001
1000
0001
0010
0100
0010
0001
0010
0100
1000
,
0100
1000
0001
0010
0100
0010
0001
0010
0001
1000
0100
0010
0001
1000
0001
1000
,
0100
0010
0001
0010
0100
1000
0001
1000
0100
0010
0100
1000
0001
0010
0100
1000
,
0001
1000
0001
0010
0001
1000
0100
0010
0001
1000
0100
1000
0010
0100
0001
0010
,
0001
1000
0010
0100
0001
1000
0001
0100
0010
1000
0010
0100
0010
1000
0001
0100
,
0001
1000
0001
0100
0001
0100
0010
1000
0001
0010
0001
1000
0100
1000
0001
1000
,
0001
0100
0010
1000
0010
1000
0001
1000
0001
0100
0010
1000
0010
0100
0001
1000
,
0001
0100
0001
1000
0010
0100
0010
1000
0001
0010
0001
1000
0100
0010
0001
1000
,
0001
0100
0001
1000
0010
0100
0010
1000
0001
0100
0001
1000
0010
1000
0001
0100
,
0010
1000
0010
0100
0001
0100
0010
0100
0001
1000
0001
0100
0010
0100
0001
0100
,
0010
1000
0001
1000
0001
0100
0010
1000
0001
0100
0010
1000
0010
0100
0001
1000
,
0001
0010
0100
1000
0010
0100
0001
0010
0100
1000
0010
0100
0001
0010
0100
1000
,
0010
0100
0001
1000
0100
1000
0001
0010
0100
0010
0001
1000
0001
0100
0010
1000
,
0001
0010
0100
0010
0001
1000
0001
0100
0010
0100
0010
1000
0100
1000
0010
1000
,
0100
1000
0001
0100
0001
1000
0100
0010
0001
1000
0001
0100
0010
1000
0001
0010
,
0100
1000
0100
0010
0001
1000
0100
1000
0010
0100
0010
1000
0001
0010
0100
1000
,
0010
0100
0001
1000
0001
1000
0100
0010
0001
0010
0100
1000
0001
0100
0010
1000
,
0001
0100
0010
1000
0001
0010
0100
0010
0001
0010
0100
1000
0001
1000
0010
0100
,
0001
1000
0100
0010
0100
1000
0001
0100
0010
1000
0010
1000
0001
0010
0001
1000
,
0001
0100
0010
1000
0001
1000
0010
1000
0001
0010
0100
1000
0001
0010
0100
1000
,
0010
1000
0001
0100
0010
1000
0010
1000
0001
0010
0100
1000
0001
1000
0010
0100
,
0001
1000
0100
1000
0001
0100
0010
1000
0100
1000
0001
1000
0010
0100
0010
1000
,
0100
0010
0001
0010
0100
1000
0001
1000
0001
0100
0010
1000
0001
0010
0001
1000
,
0010
0100
0001
1000
0100
0010
0100
1000
0001
0010
0100
1000
0010
1000
0100
1000
,
0010
1000
0001
0010
0100
1000
0100
0010
0100
1000
0001
0100
0001
1000
0010
0100
,
0001
1000
0001
0010
0100
0010
0001
1000
0100
1000
0001
0100
0010
1000
0001
0100
,
0001
1000
0001
0010
0100
1000
0001
0010
0100
0010
0001
1000
0001
0100
0001
1000
,
0001
0100
0010
1000
0100
0010
0001
0100
0010
1000
0100
0010
0001
0100
0010
1000
,
0100
0010
0001
1000
0010
1000
0001
0100
0010
0100
0001
1000
0001
0010
0100
1000
,
0001
0100
0010
0100
0001
1000
0001
0010
0100
0010
0100
1000
0010
1000
0100
1000
,
0010
1000
0001
0010
0001
1000
0010
0100
0001
1000
0001
0010
0100
1000
0001
0100
,
0010
1000
0010
0100
0001
1000
0010
1000
0100
0010
0100
1000
0001
0100
0010
1000
,
0100
0010
0001
1000
0001
1000
0010
0100
0001
0100
0010
1000
0001
0010
0100
1000
,
0001
0010
0100
1000
0001
0100
0010
0100
0001
0100
0010
1000
0001
1000
0100
0010
,
0001
1000
0010
0100
0010
1000
0001
0010
0100
1000
0100
1000
0001
0100
0001
1000
,
0001
0010
0100
1000
0001
1000
0100
1000
0001
0100
0010
1000
0001
0100
0010
1000
,
0100
1000
0001
0010
0100
1000
0100
1000
0001
0100
0010
1000
0001
1000
0100
0010
,
0001
1000
0010
1000
0001
0010
0100
1000
0010
1000
0001
1000
0100
0010
0100
1000
,
0010
0100
0001
0100
0010
1000
0001
1000
0001
0010
0100
1000
0001
0100
0001
1000
,
0100
0010
0001
1000
0010
0100
0010
1000
0001
0100
0010
1000
0100
1000
0010
1000
,
0100
1000
0001
0100
0010
1000
0010
0100
0010
1000
0001
0010
0001
1000
0100
0010
,
0001
1000
0001
0100
0010
0100
0001
1000
0010
1000
0001
0010
0100
1000
0001
0010
,
0001
1000
0001
0100
0010
1000
0001
0100
0010
0100
0001
1000
0001
0010
0001
1000
,
0001
0010
0100
1000
0010
0100
0001
0010
0100
1000
0010
0100
0001
0010
0100
1000
,
0001
0100
0010
1000
0100
0010
0001
1000
0001
1000
0010
0100
0001
0100
0001
1000
,
0001
0100
0010
1000
0100
0010
0001
1000
0001
1000
0010
0100
0001
0100
0001
1000
,
0001
0100
0010
1000
0100
0010
0001
1000
0001
1000
0010
0100
0001
0100
0001
1000
,
0001
0100
0010
1000
0100
0010
0001
1000
0001
1000
0010
0100
0001
0100
0001
1000
,
0001
0010
0100
1000
0010
0100
0001
1000
0001
1000
0100
0010
0001
0010
0001
1000
,
0001
0010
0100
1000
0010
0100
0001
1000
0001
1000
0100
0010
0001
0010
0001
1000
,
0001
0010
0100
1000
0010
0100
0001
1000
0001
1000
0100
0010
0001
0010
0001
1000
,
0001
0010
0100
1000
0010
0100
0001
1000
0001
1000
0100
0010
0001
0010
0001
1000
,
0001
0100
0010
1000
0001
1000
0010
0100
0001
0010
0100
0010
0100
1000
0001
1000
,
0001
0100
0010
1000
0001
1000
0010
0100
0001
0010
0100
0010
0100
1000
0001
1000
,
0001
0100
0010
1000
0001
1000
0010
0100
0001
0010
0100
0010
0100
1000
0001
1000
,
0001
0100
0010
1000
0001
1000
0010
0100
0001
0010
0100
0010
0100
1000
0001
1000
,
0001
0010
0100
1000
0001
1000
0100
0010
0001
0100
0010
0100
0010
1000
0001
1000
,
0001
0010
0100
1000
0001
1000
0100
0010
0001
0100
0010
0100
0010
1000
0001
1000
,
0001
0010
0100
1000
0001
1000
0100
0010
0001
0100
0010
0100
0010
1000
0001
1000
,
0001
0010
0100
1000
0001
1000
0100
0010
0001
0100
0010
0100
0010
1000
0001
1000
,
0001
0010
0100
0010
0001
0100
0010
1000
0001
0010
0100
1000
0100
1000
0010
1000
,
0001
0010
0100
0010
0001
0100
0010
1000
0001
0010
0100
1000
0100
1000
0010
1000
,
0001
0010
0100
0010
0001
0100
0010
1000
0001
0010
0100
1000
0100
1000
0010
1000
,
0001
0010
0100
0010
0001
0100
0010
1000
0001
0010
0100
1000
0100
1000
0010
1000
,
0001
0100
0010
0100
0001
0010
0100
1000
0001
0100
0010
1000
0010
1000
0100
1000
,
0001
0100
0010
0100
0001
0010
0100
1000
0001
0100
0010
1000
0010
1000
0100
1000
,
0001
0100
0010
0100
0001
0010
0100
1000
0001
0100
0010
1000
0010
1000
0100
1000
,
0001
0100
0010
0100
0001
0010
0100
1000
0001
0100
0010
1000
0010
1000
0100
1000
,
0001
0100
0001
1000
0010
1000
0100
1000
0001
0010
0100
1000
0010
0100
0001
1000
,
0001
0100
0001
1000
0010
1000
0100
1000
0001
0010
0100
1000
0010
0100
0001
1000
,
0001
0100
0001
1000
0010
1000
0100
1000
0001
0010
0100
1000
0010
0100
0001
1000
,
0001
0100
0001
1000
0010
1000
0100
1000
0001
0010
0100
1000
0010
0100
0001
1000
,
0001
0010
0001
1000
0100
1000
0010
1000
0001
0100
0010
1000
0100
0010
0001
1000
,
0001
0010
0001
1000
0100
1000
0010
1000
0001
0100
0010
1000
0100
0010
0001
1000
,
0001
0010
0001
0100
0010
1000
0100
1000
0001
0010
0001
0100
0010
1000
0100
1000
,
0001
0000
0000
0000
0000
0000
0000
0000
0000
0000
0010
0000
0000
0000
0000
0000
0000
0000
0000
0100
0000
0000
0000
0000
0000
0000
0000
0000
0000
1000
0000
0000
0000
0000
0000
0000
0000
0000
0001
0000
0000
0000
0000
0000
0000
0000
0000
0000
1000
0000
0000
0000
0000
0000
0000
0000
0000
0000
0010
0000
0000
0000
0000
0000
0000
0000
0000
0100
0000
0000
0000
0000
0000
0000
0000
0000
0000
0001
0000
0000
0000
0000
0000
0000
0000
0000
1000
0000
0000
0000
0000
0000
0000
0000
0000
0000
0001
0000
0000
0000
0000
0000
0000
0000
0000
0000
0010
0000
0000
0000
0000
0000
0000
0000
0000
0100
0000
0000
0000
0000
0000
0000
0000
0000
0000
1000
0000
0000
0000
0000
0000
0000
0000
0000
0001
0000
0000
0000
0000
0000
0000
0000
0000
0000
0100
0000
0000
0000
0000
0000
0000
0000
0000
0000
0010
0000
0000
0000
0000
0000
0000
0000
0000
0100
0000
0000
0000
0000
0000
0000
0000
0000
0000
0001
0000
0000
0000
0000
0000
0000
0000
0000
1000
0000
0000
0000
0000
0000
0000
0000
0000
0000
,
0001
0000
0000
0000
,
0000
0000
0000
0000
,
0000
0000
0000
0000
,
0000
0000
0000
0000
,
00M0
0000
0000
00M0
0000
0000
00M0
0000
00M0
0000
0000
00M0
0000
0000
00M0
0000
,
00M0
0000
0000
00M0
0000
0000
00M0
0000
00M0
0000
0000
00M0
0000
0000
00M0
0000
,
00M0
0000
0000
00M0
0000
0000
00M0
0000
00M0
0000
0000
00M0
0000
0000
00M0
0000
,
0M00
0000
0000
0M00
0000
0000
0M00
0000
M000
0000
0000
M000
0000
0000
M000
0000
,
0001
0000
0000
0001
0000
0000
0001
0000
0001
0000
0000
0001
0000
0000
0001
0000
,
0001
0000
0000
0001
0000
0000
0001
0000
0001
0000
0000
0001
0000
0000
0001
0000
,
0100
0000
0000
0100
0000
0000
0100
0000
0100
0000
0000
0100
0000
0000
0100
0000
,
0100
0000
0000
0100
0000
0000
0100
0000
0100
0000
0000
0100
0000
0000
0100
0000
,
0010
0000
0000
0010
0000
0000
0010
0000
0010
0000
0000
0010
0000
0000
0010
0000
,
0010
0000
0000
0010
0000
0000
0010
0000
0010
0000
0000
0010
0000
0000
0010
0000
,
0010
0000
0000
0010
0000
0000
0010
0000
0010
0000
0000
0010
0000
0000
0010
0000
,
1000
0000
0000
1000
0000
0000
1000
0000
0001
0000
0000
0001
0000
0000
0001
0000
,
1000
0000
0010
0100
0000
0001
1000
0000
0001
0000
0010
0100
0000
1000
0100
0000
,
1000
0000
0001
1000
0000
0010
1000
0000
0001
0000
1000
0100
0000
0010
0001
0000
,
1000
0000
0010
0100
0000
0001
1000
0000
0010
0000
1000
0100
0000
0010
0001
0000
,
1000
0000
0010
0100
0000
0001
1000
0000
0001
0000
0010
0100
0000
1000
0001
0000
,
0100
0000
0001
1000
0000
0001
0010
0000
0100
0000
0010
0001
0000
1000
0010
0000
,
1000
0000
0001
0100
0000
0010
1000
0000
0100
0000
1000
0001
0000
0100
0001
0000
,
0010
0000
0100
1000
0000
0001
1000
0000
0010
0000
0100
0001
0000
1000
0001
0000
,
0010
0000
0100
1000
0000
0001
1000
0000
0010
0000
0100
0001
0000
1000
0100
0000
,
0010
0000
0001
1000
0000
0001
0100
0000
0001
0000
1000
0100
0000
1000
0010
0000
,
0100
0000
0001
1000
0000
0001
0100
0000
0010
0000
1000
0100
0000
1000
0001
0000
,
1000
0000
0010
0100
0000
0001
1000
0000
0001
0000
0010
0100
0000
1000
0100
0000
,
1000
0000
0001
0100
0000
0010
1000
0000
0001
0000
1000
0100
0000
1000
0001
0000
,
0100
0000
0010
1000
0000
0001
0010
0000
0100
0000
0010
0001
0000
1000
0010
0000
,
0100
0000
0001
1000
0000
0001
0010
0000
0100
0000
1000
0001
0000
1000
0010
0000
,
1000
0000
0001
0010
0000
0100
1000
0000
0100
0000
1000
0001
0000
0100
0010
0000
,
1000
0000
0001
1000
0000
0001
0010
0000
0100
0000
0010
0001
0000
0100
0010
0000
,
1000
0000
0001
1000
0000
0001
1000
0000
0001
0000
1000
0001
0000
1000
0001
0000
,
0010
0000
0001
0010
0000
0001
0010
0000
0001
0000
0010
0001
0000
0010
0001
0000
,
1000
0000
0010
1000
0000
0010
1000
0000
0010
0000
1000
0010
0000
1000
0010
0000
,
1000
0000
0001
1000
0000
0001
1000
0000
0001
0000
1000
0001
0000
1000
0001
0000
,
0010
0000
0100
0010
0000
0100
0010
0000
0100
0000
0010
0100
0000
0010
0100
0000
,
1000
0000
0001
1000
0000
0001
1000
0000
0001
0000
1000
0001
0000
1000
0001
0000
,
0100
0000
0001
0100
0000
0001
0100
0000
0001
0000
0100
0001
0000
0100
0001
0000
,
1000
0000
0001
1000
0000
0001
1000
0000
0001
0000
1000
0001
0000
1000
0001
0000
,
2000
3100
0020
0031
2000
3010
0200
0301
,
2000
3100
0020
0031
0200
0301
2000
3010
,
2000
3001
2000
3001
2000
3001
2000
3001
2000
3001
2000
3001
2000
3001
2000
3001
,
4000
3400
0340
0430
0340
0034
0403
0340
0430
0304
4003
3040
0430
0304
0043
0430
,
1300
0000
0000
0000
,
00M0
0000
0000
00M0
0000
0000
00M0
0000
00M0
0000
0000
00M0
0000
0000
00M0
0000
,
0001
0000
0010
0100
0000
1000
0100
0000
0010
0000
0001
1000
0000
0010
0100
0000
,
0001
0000
1000
0100
0000
1000
0001
0000
0100
0000
0010
1000
0000
0001
0010
0000
,
0001
0010
0001
1000
0010
0100
0001
0010
0100
1000
0100
1000
0001
0100
0010
1000
,
0100
1000
0001
0100
0001
0010
0100
1000
0001
0100
0010
1000
0100
1000
0001
1000
,
0010
0100
0010
1000
0100
1000
0001
0010
0100
0010
0001
1000
0010
1000
0001
0010
,
0100
0010
0001
1000
0010
1000
0010
0100
0001
0010
0100
1000
0100
0010
0001
0100
,
0001
1000
0010
1000
0100
1000
0001
0010
0100
1000
0100
1000
0001
1000
0010
0100
,
0001
0010
0001
1000
0010
1000
0100
1000
0001
0100
0001
1000
0100
1000
0100
0010
,
0001
1000
0001
0100
0010
0100
0001
0010
0100
0010
0001
0100
0010
1000
0001
1000
,
0001
0100
0001
1000
0100
1000
0001
0100
0010
1000
0100
1000
0010
0100
0010
1000
,
0001
0100
0001
1000
0100
1000
0010
0100
0001
1000
0001
0010
0001
1000
0010
1000
,
0001
0010
0001
1000
0010
0100
0001
0010
0100
0010
0001
0100
0010
1000
0001
1000
,
0100
0010
0100
1000
0010
1000
0001
0010
0100
1000
0100
0010
0100
0010
0001
0100
,
0010
1000
0010
1000
0001
1000
0100
0010
0001
0010
0001
1000
0010
1000
0100
0010
,
0001
0010
0001
1000
0010
0100
0001
0010
0100
1000
0001
0100
0001
1000
0010
0100
,
0001
0010
0100
1000
0010
1000
0001
0010
0001
1000
0010
1000
0001
0010
0100
1000
,
0001
0100
0010
1000
0100
1000
0001
0010
0100
1000
0100
1000
0010
1000
0001
0010
,
0100
0010
0001
1000
0010
1000
0100
0010
0100
1000
0001
0100
0010
0100
0001
1000
,
0001
0010
0001
1000
0010
0100
0001
0010
0100
1000
0100
1000
0001
0100
0010
1000
,
0100
1000
0001
0100
0001
0010
0100
1000
0001
0100
0010
1000
0100
1000
0001
1000
,
0010
0100
0010
1000
0100
1000
0001
0010
0100
0010
0001
1000
0010
1000
0001
0010
,
0100
0010
0001
1000
0010
1000
0010
0100
0001
0010
0100
1000
0100
0010
0001
0100
,
0001
1000
0010
1000
0100
1000
0001
0010
0100
1000
0100
1000
0001
1000
0010
0100
,
0001
0010
0001
1000
0010
1000
0100
1000
0001
0100
0001
1000
0100
1000
0100
0010
,
0001
1000
0001
0100
0010
0100
0001
0010
0100
0010
0001
0100
0010
1000
0001
1000
,
0001
0100
0001
1000
0100
1000
0001
0100
0010
1000
0100
1000
0010
0100
0010
1000
,
0001
0100
0001
1000
0100
1000
0010
0100
0001
1000
0001
0010
0001
1000
0010
1000
,
0001
0010
0001
1000
0010
0100
0001
0010
0100
0010
0001
0100
0010
1000
0001
1000
,
0100
0010
0100
1000
0010
1000
0001
0010
0100
1000
0100
0010
0100
0010
0001
0100
,
0010
1000
0010
1000
0001
1000
0100
0010
0001
0010
0001
1000
0010
1000
0100
0010
,
0001
0010
0001
1000
0010
0100
0001
0010
0100
1000
0001
0100
0001
1000
0010
0100
,
0001
0010
0100
1000
0010
1000
0001
0010
0001
1000
0010
1000
0001
0010
0100
1000
,
0001
0100
0010
1000
0100
1000
0001
0010
0100
1000
0100
1000
0010
1000
0001
0010
,
0100
0010
0001
1000
0010
1000
0100
0010
0100
1000
0001
0100
0010
0100
0001
1000
,
0001
0100
0010
1000
0100
0010
0001
1000
0001
1000
0010
0100
0001
0100
0001
1000
,
0001
0100
0010
1000
0100
0010
0001
1000
0001
1000
0010
0100
0001
0100
0001
1000
,
0001
0100
0010
1000
0100
0010
0001
1000
0001
1000
0010
0100
0001
0100
0001
1000
,
0001
0100
0010
1000
0100
0010
0001
1000
0001
1000
0010
0100
0001
0100
0001
1000
,
0001
0010
0100
1000
0010
0100
0001
1000
0001
1000
0100
0010
0001
0010
0001
1000
,
0001
0010
0100
1000
0010
0100
0001
1000
0001
1000
0100
0010
0001
0010
0001
1000
,
0001
0010
0100
1000
0010
0100
0001
1000
0001
1000
0100
0010
0001
0010
0001
1000
,
0001
0010
0100
1000
0010
0100
0001
1000
0001
1000
0100
0010
0001
0010
0001
1000
,
0001
0100
0010
1000
0001
1000
0010
0100
0001
0010
0100
0010
0100
1000
0001
1000
,
0001
0100
0010
1000
0001
1000
0010
0100
0001
0010
0100
0010
0100
1000
0001
1000
,
0001
0100
0010
1000
0001
1000
0010
0100
0001
0010
0100
0010
0100
1000
0001
1000
,
0001
0100
0010
1000
0001
1000
0010
0100
0001
0010
0100
0010
0100
1000
0001
1000
,
0001
0010
0100
1000
0001
1000
0100
0010
0001
0100
0010
0100
0010
1000
0001
1000
,
0001
0010
0100
1000
0001
1000
0100
0010
0001
0100
0010
0100
0010
1000
0001
1000
,
0001
0010
0100
1000
0001
1000
0100
0010
0001
0100
0010
0100
0010
1000
0001
1000
,
0001
0010
0100
1000
0010
0100
0001
0010
0100
1000
0010
0100
0001
0010
0100
1000
,
00M2
0000
0000
0000
,
0000
0000
0000
0000
,
0000
0000
0000
0000
,
0000
0000
0000
0000
,
0003
0000
0000
0000
;

//---------------dance-single - 16 (CTalon)----------------
#NOTES:
     dance-single:
     16 (CTalon):
     Hard:
     16:
     1.000,1.000,0.043,0.556,1.000,3100.000,14.000,179.000,39.000,0.000:
00M0
0000
0000
0000
0001
1000
0001
0000
0000
0000
0000
0000
1000
0010
0100
0000
,
0000
0000
0000
0000
0001
0010
0100
0000
1000
0001
1000
0000
0100
0000
1000
0000
,
0000
0000
0000
0000
0010
0100
0001
0000
0000
0000
0000
0000
0010
0100
1000
0000
,
0000
0000
0000
0000
0001
0100
0010
0000
0100
0001
0100
0000
0010
0000
1000
0000
,
000M
0000
0000
0000
0001
0010
0100
0000
0000
0000
0000
0000
1000
0001
0100
0000
,
0000
0000
0000
0000
0001
0010
0001
0000
1000
0010
0100
0000
0001
0000
0010
0000
,
0000
0000
0000
0000
0100
1000
0001
0000
0000
0000
0000
0000
1000
0010
0100
0000
,
0000
0000
0000
0000
0001
0010
0100
0000
0010
0001
1000
0000
0001
0000
0100
0000
,
00M0
0000
0000
0000
0001
1000
0010
0000
0000
0000
0000
0000
0100
0001
0010
0000
,
0000
0000
0000
0000
0100
1000
0001
0000
1000
0010
1000
0000
0100
0000
0010
0000
,
0000
0000
0000
0000
0100
1000
0001
0000
0000
0000
0000
0000
0100
0010
0100
0000
,
0000
0000
0000
0000
0001
0010
0100
0000
1000
0001
0100
0000
0010
0000
1000
0000
,
0M00
0000
0000
0000
0001
0010
0100
0000
0000
0000
0000
0000
0010
0001
1000
0000
,
0000
0000
0000
0000
0010
1000
0010
0000
0100
0001
1000
0000
0100
0000
0010
0000
,
0000
0000
0000
0000
0001
1000
0001
0000
0000
0000
0000
0000
1000
0010
0100
0000
,
0101
1001
1100
0101
,
M001
0020
0031
2000
3010
0200
0310
2000
,
3100
0020
0031
2000
3001
0200
0310
2000
,
3100
0020
0031
0200
0301
0020
0130
2000
,
3001
0200
0301
2000
3100
0020
0031
0200
,
031M
2000
3100
0020
0130
2000
3001
0200
,
0301
0020
0130
2000
3100
0020
0130
2000
,
3001
0200
0301
0020
0031
2000
3100
0020
,
0130
2000
3001
0200
0310
2000
3100
0020
,
0M31
2000
3001
0020
0031
0200
0310
2000
,
3100
0020
0031
0200
0301
0020
0130
2000
,
3001
0200
0301
2000
3010
0200
0310
2000
,
3100
0020
0031
0200
0301
0020
0031
2000
,
301M
0200
0301
0020
0130
2000
3100
0020
,
0031
2000
3001
0200
0301
0020
0130
2000
,
3001
0100
0001
1000
0100
0010
0100
1000
0001
0100
0010
1000
0001
0010
0001
1000
,
0100
0010
0100
1000
0001
0100
0001
0100
0010
1000
0001
0010
0100
1000
0100
1000
,
0001
0100
0010
1000
0100
0010
0001
1000
0001
1000
0010
0100
0001
0100
0001
1000
,
0001
0100
0010
1000
0100
0010
0001
1000
0001
1000
0010
0100
0001
0100
0001
1000
,
0001
0100
0010
1000
0100
0010
0001
1000
0001
1000
0010
0100
0001
0100
0001
1000
,
0001
0100
0010
1000
0100
0010
0001
1000
0001
1000
0010
0100
0001
0100
0001
1000
,
0001
0010
0100
1000
0010
0100
0001
1000
0001
1000
0100
0010
0001
0010
0001
1000
,
0001
0010
0100
1000
0010
0100
0001
1000
0001
1000
0100
0010
0001
0010
0001
1000
,
0001
0010
0100
1000
0010
0100
0001
1000
0001
1000
0100
0010
0001
0010
0001
1000
,
0001
0010
0100
1000
0010
0100
0001
1000
0001
1000
0000
0010
0000
1000
0001
1000
,
0001
0100
0010
1000
0001
1000
0010
0100
0001
0010
0100
0010
0100
1000
0001
1000
,
0001
0100
0010
1000
0001
1000
0010
0100
0001
0010
0100
0010
0100
1000
0001
1000
,
0001
0100
0010
1000
0001
1000
0010
0100
0001
0010
0100
0010
0100
1000
0001
1000
,
0001
0100
0010
1000
0001
1000
0010
0100
0001
0010
0100
0010
0100
1000
0001
1000
,
0001
0010
0100
1000
0001
1000
0100
0010
0001
0100
0010
0100
0010
1000
0001
1000
,
0001
0010
0100
1000
0001
1000
0100
0010
0001
0100
0010
0100
0010
1000
0001
1000
,
0001
0100
0001
0100
0010
1000
0100
0010
,
0001
0100
0010
0100
0001
1000
0010
1000
,
0001
0010
0100
0010
0001
0100
0010
1000
0001
0010
0100
1000
0100
1000
0010
1000
,
0001
0010
0100
0010
0001
0100
0010
1000
0001
0010
0100
1000
0100
1000
0010
1000
,
0001
0010
0100
0010
0001
0100
0010
1000
0001
0010
0100
1000
0100
1000
0010
1000
,
0001
0010
0100
0010
0001
0100
0010
1000
0001
0010
0100
1000
0100
1000
0010
1000
,
0001
0100
0010
0100
0001
0010
0100
1000
0001
0100
0010
1000
0010
1000
0100
1000
,
0001
0100
0010
0100
0001
0010
0100
1000
0001
0100
0010
1000
0010
1000
0100
1000
,
0001
0100
0010
0100
0001
0010
0100
1000
0001
0100
0010
1000
0010
1000
0100
1000
,
0001
0100
0010
0100
0001
0010
0100
1000
0001
0100
0000
0010
0000
1000
0100
1000
,
0001
0100
0001
1000
0010
1000
0100
1000
0001
0010
0100
1000
0010
0100
0001
1000
,
0001
0100
0001
1000
0010
1000
0100
1000
0001
0010
0100
1000
0010
0100
0001
1000
,
0001
0100
0001
1000
0010
1000
0100
1000
0001
0010
0100
1000
0010
0100
0001
1000
,
0001
0100
0001
1000
0010
1000
0100
1000
0001
0010
0100
1000
0010
0100
0001
1000
,
0001
0010
0001
1000
0100
1000
0010
1000
0001
0100
0010
1000
0100
0010
0001
1000
,
0001
0010
0001
1000
0100
1000
0010
1000
0001
0100
0010
1000
0100
0010
0001
1000
,
0001
0010
0100
0010
0001
1000
0010
0100
,
0101
1001
1100
0101
,
0002
0000
0000
0000
0000
0000
0000
0000
1000
0000
0000
0000
0000
0000
0000
0003
0002
0000
0000
0000
0000
0000
0000
0000
0010
0000
0000
0000
0000
0000
0000
0003
0002
0000
0000
0000
0000
0000
0000
0000
0100
0000
0000
0000
0000
0000
0000
0003
0002
0000
0000
0000
0000
0000
0000
0000
1000
0000
0000
0000
0000
0000
0000
0003
,
0002
0000
0000
0000
0000
0000
0000
0000
0100
0000
0000
0000
0000
0000
0000
0003
0002
0000
0000
0000
0000
0000
0000
0000
1000
0000
0000
0000
0000
0000
0000
0003
0020
0000
0000
0000
0000
0000
0000
0000
0100
0000
0000
0000
0000
0000
0000
0030
0020
0000
0000
0000
0000
0000
0000
0000
1000
0000
0000
0000
0000
0000
0000
0030
,
0200
0000
0000
0000
0000
0000
0000
0000
0010
0000
0000
0000
0000
0000
0000
0300
0200
0000
0000
0000
0000
0000
0000
0000
1000
0000
0000
0000
0000
0000
0000
0300
0200
0000
0000
0000
0000
0000
0000
0000
0010
0000
0000
0000
0000
0000
0000
0300
0200
0000
0000
0000
0000
0000
0000
0000
0010
0000
0000
0000
0000
0000
0000
0300
,
0200
0000
0000
0000
0000
0000
0000
0000
1000
0000
0000
0000
0000
0000
0000
0300
0200
0000
0000
0000
0000
0000
0000
0000
1000
0000
0000
0000
0000
0000
0000
0300
0020
0000
0000
0000
0000
0000
0000
0000
0100
0000
0000
0000
0000
0000
0000
0030
0020
0000
0000
0000
0000
0000
0000
0000
1000
0000
0000
0000
0000
0000
0000
0030
,
0002
0000
0000
0000
0000
0000
0000
0000
0010
0000
0000
0000
0000
0000
0000
0003
0002
0000
0000
0000
0000
0000
0000
0000
1000
0000
0000
0000
0000
0000
0000
0003
0200
0000
0000
0000
0000
0000
0000
0000
0010
0000
0000
0000
0000
0000
0000
0300
0200
0000
0000
0000
0000
0000
0000
0000
0010
0000
0000
0000
0000
0000
0000
0300
,
0200
0000
0000
0000
0000
0000
0000
0000
1000
0000
0000
0000
0000
0000
0000
0300
0200
0000
0000
0000
0000
0000
0000
0000
0010
0000
0000
0000
0000
0000
0000
0300
0200
0000
0000
0000
0000
0000
0000
0000
1000
0000
0000
0000
0000
0000
0000
0300
0200
0000
0000
0000
0000
0000
0000
0000
1000
0000
0000
0000
0000
0000
0000
0300
,
0200
0000
0000
0000
0000
0000
0000
0000
0010
0000
0000
0000
0000
0000
0000
0300
0200
0000
0000
0000
0000
0000
0000
0000
1000
0000
0000
0000
0000
0000
0000
0300
0001
0000
0000
0000
0000
0000
0000
0000
0100
0000
0000
0000
0000
0000
0000
0000
0010
0000
0000
0000
0000
0000
0000
0000
1000
0000
0000
0000
0000
0000
0000
0000
,
0100
0000
0010
0000
0100
0000
1000
0000
0001
0100
0000
0010
0000
1000
0100
0010
,
0002
0000
0000
0000
0000
0000
0000
0000
0010
0000
0000
0000
0000
0000
0000
0003
0002
0000
0000
0000
0000
0000
0000
0000
0100
0000
0000
0000
0000
0000
0000
0003
0002
0000
0000
0000
0000
0000
0000
0000
1000
0000
0000
0000
0000
0000
0000
0003
0002
0000
0000
0000
0000
0000
0000
0000
0010
0000
0000
0000
0000
0000
0000
0003
,
0002
0000
0000
0000
0000
0000
0000
0000
1000
0000
0000
0000
0000
0000
0000
0003
0002
0000
0000
0000
0000
0000
0000
0000
0010
0000
0000
0000
0000
0000
0000
0003
0200
0000
0000
0000
0000
0000
0000
0000
1000
0000
0000
0000
0000
0000
0000
0300
0200
0000
0000
0000
0000
0000
0000
0000
1000
0000
0000
0000
0000
0000
0000
0300
,
0020
0000
0000
0000
0000
0000
0000
0000
1000
0000
0000
0000
0000
0000
0000
0030
0020
0000
0000
0000
0000
0000
0000
0000
0100
0000
0000
0000
0000
0000
0000
0030
0020
0000
0000
0000
0000
0000
0000
0000
0100
0000
0000
0000
0000
0000
0000
0030
0020
0000
0000
0000
0000
0000
0000
0000
1000
0000
0000
0000
0000
0000
0000
0030
,
0020
0000
0000
0000
0000
0000
0000
0000
0100
0000
0000
0000
0000
0000
0000
0030
0020
0000
0000
0000
0000
0000
0000
0000
1000
0000
0000
0000
0000
0000
0000
0030
0002
0000
0000
0000
0000
0000
0000
0000
0010
0000
0000
0000
0000
0000
0000
0003
0002
0000
0000
0000
0000
0000
0000
0000
0010
0000
0000
0000
0000
0000
0000
0003
,
0200
0000
0000
0000
0000
0000
0000
0000
1000
0000
0000
0000
0000
0000
0000
0300
0200
0000
0000
0000
0000
0000
0000
0000
0010
0000
0000
0000
0000
0000
0000
0300
0200
0000
0000
0000
0000
0000
0000
0000
0010
0000
0000
0000
0000
0000
0000
0300
0200
0000
0000
0000
0000
0000
0000
0000
1000
0000
0000
0000
0000
0000
0000
0300
,
0200
0000
0000
0000
0000
0000
0000
0000
0010
0000
0000
0000
0000
0000
0000
0300
0200
0000
0000
0000
0000
0000
0000
0000
1000
0000
0000
0000
0000
0000
0000
0300
0200
0000
0000
0000
0000
0000
0000
0000
1000
0000
0000
0000
0000
0000
0000
0300
0200
0000
0000
0000
0000
0000
0000
0000
0010
0000
0000
0000
0000
0000
0000
0300
,
0001
1000
0010
0100
0001
0010
0100
1000
,
1001
0000
0001
0100
0010
0000
0100
0001
1000
0000
0100
0010
0001
1000
0001
0100
,
0002
0000
0000
0000
0000
0000
0000
0000
1000
0000
0000
0000
0000
0000
0000
0003
0002
0000
0000
0000
0000
0000
0000
0000
0010
0000
0000
0000
0000
0000
0000
0003
0002
0000
0000
0000
0000
0000
0000
0000
0100
0000
0000
0000
0000
0000
0000
0003
0002
0000
0000
0000
0000
0000
0000
0000
1000
0000
0000
0000
0000
0000
0000
0003
,
0002
0000
0000
0000
0000
0000
0000
0000
0100
0000
0000
0000
0000
0000
0000
0003
0002
0000
0000
0000
0000
0000
0000
0000
1000
0000
0000
0000
0000
0000
0000
0003
0020
0000
0000
0000
0000
0000
0000
0000
0100
0000
0000
0000
0000
0000
0000
0030
0020
0000
0000
0000
0000
0000
0000
0000
1000
0000
0000
0000
0000
0000
0000
0030
,
0200
0000
0000
0000
0000
0000
0000
0000
0010
0000
0000
0000
0000
0000
0000
0300
0200
0000
0000
0000
0000
0000
0000
0000
1000
0000
0000
0000
0000
0000
0000
0300
0200
0000
0000
0000
0000
0000
0000
0000
0010
0000
0000
0000
0000
0000
0000
0300
0200
0000
0000
0000
0000
0000
0000
0000
0010
0000
0000
0000
0000
0000
0000
0300
,
0200
0000
0000
0000
0000
0000
0000
0000
1000
0000
0000
0000
0000
0000
0000
0300
0200
0000
0000
0000
0000
0000
0000
0000
1000
0000
0000
0000
0000
0000
0000
0300
0020
0000
0000
0000
0000
0000
0000
0000
0100
0000
0000
0000
0000
0000
0000
0030
0020
0000
0000
0000
0000
0000
0000
0000
1000
0000
0000
0000
0000
0000
0000
0030
,
0002
0000
0000
0000
0000
0000
0000
0000
0010
0000
0000
0000
0000
0000
0000
0003
0002
0000
0000
0000
0000
0000
0000
0000
1000
0000
0000
0000
0000
0000
0000
0003
0200
0000
0000
0000
0000
0000
0000
0000
0010
0000
0000
0000
0000
0000
0000
0300
0200
0000
0000
0000
0000
0000
0000
0000
0010
0000
0000
0000
0000
0000
0000
0300
,
0200
0000
0000
0000
0000
0000
0000
0000
1000
0000
0000
0000
0000
0000
0000
0300
0200
0000
0000
0000
0000
0000
0000
0000
0010
0000
0000
0000
0000
0000
0000
0300
0200
0000
0000
0000
0000
0000
0000
0000
1000
0000
0000
0000
0000
0000
0000
0300
0200
0000
0000
0000
0000
0000
0000
0000
1000
0000
0000
0000
0000
0000
0000
0300
,
0200
0000
0000
0000
0000
0000
0000
0000
0010
0000
0000
0000
0000
0000
0000
0300
0200
0000
0000
0000
0000
0000
0000
0000
1000
0000
0000
0000
0000
0000
0000
0300
0200
0000
0000
0000
0000
0000
0000
0000
1000
0000
0000
0000
0000
0000
0000
0300
0200
0000
0000
0000
0000
0000
0000
0000
0010
0000
0000
0000
0000
0000
0000
0300
,
0001
0000
0010
0000
0100
0000
1000
0000
0001
0100
0000
0010
0000
1000
0100
0010
,
0002
0000
0000
0000
0000
0000
0000
0000
0010
0000
0000
0000
0000
0000
0000
0003
0002
0000
0000
0000
0000
0000
0000
0000
0100
0000
0000
0000
0000
0000
0000
0003
0002
0000
0000
0000
0000
0000
0000
0000
1000
0000
0000
0000
0000
0000
0000
0003
0002
0000
0000
0000
0000
0000
0000
0000
0010
0000
0000
0000
0000
0000
0000
0003
,
0002
0000
0000
0000
0000
0000
0000
0000
1000
0000
0000
0000
0000
0000
0000
0003
0002
0000
0000
0000
0000
0000
0000
0000
0010
0000
0000
0000
0000
0000
0000
0003
0200
0000
0000
0000
0000
0000
0000
0000
1000
0000
0000
0000
0000
0000
0000
0300
0200
0000
0000
0000
0000
0000
0000
0000
1000
0000
0000
0000
0000
0000
0000
0300
,
0020
0000
0000
0000
0000
0000
0000
0000
1000
0000
0000
0000
0000
0000
0000
0030
0020
0000
0000
0000
0000
0000
0000
0000
0100
0000
0000
0000
0000
0000
0000
0030
0020
0000
0000
0000
0000
0000
0000
0000
0100
0000
0000
0000
0000
0000
0000
0030
0020
0000
0000
0000
0000
0000
0000
0000
1000
0000
0000
0000
0000
0000
0000
0030
,
0020
0000
0000
0000
0000
0000
0000
0000
0100
0000
0000
0000
0000
0000
0000
0030
0020
0000
0000
0000
0000
0000
0000
0000
1000
0000
0000
0000
0000
0000
0000
0030
0002
0000
0000
0000
0000
0000
0000
0000
0010
0000
0000
0000
0000
0000
0000
0003
0002
0000
0000
0000
0000
0000
0000
0000
0010
0000
0000
0000
0000
0000
0000
0003
,
0200
0000
0000
0000
0000
0000
0000
0000
1000
0000
0000
0000
0000
0000
0000
0300
0200
0000
0000
0000
0000
0000
0000
0000
0010
0000
0000
0000
0000
0000
0000
0300
0200
0000
0000
0000
0000
0000
0000
0000
0010
0000
0000
0000
0000
0000
0000
0300
0200
0000
0000
0000
0000
0000
0000
0000
1000
0000
0000
0000
0000
0000
0000
0300
,
0200
0000
0000
0000
0000
0000
0000
0000
0010
0000
0000
0000
0000
0000
0000
0300
0200
0000
0000
0000
0000
0000
0000
0000
1000
0000
0000
0000
0000
0000
0000
0300
0200
0000
0000
0000
0000
0000
0000
0000
1000
0000
0000
0000
0000
0000
0000
0300
0200
0000
0000
0000
0000
0000
0000
0000
0010
0000
0000
0000
0000
0000
0000
0300
,
0200
0000
0000
0000
0000
0000
0000
0000
1000
0000
0000
0000
0000
0000
0000
0300
0200
0000
0000
0000
0000
0000
0000
0000
0010
0000
0000
0000
0000
0000
0000
0300
0200
0000
0000
0000
0000
0000
0000
0000
0010
0000
0000
0000
0000
0000
0000
0300
0200
0000
0000
0000
0000
0000
0000
0000
1000
0000
0000
0000
0000
0000
0000
0300
,
1001
0011
1001
1010
,
0010
0100
0001
1000
0100
1000
0001
0010
0100
0010
0001
1000
0001
0100
0010
1000
,
0001
0010
0100
0010
0001
1000
0001
0100
0010
0100
0010
1000
0100
1000
0010
1000
,
0100
1000
0001
0100
0001
1000
0100
0010
0001
1000
0001
0100
0010
1000
0001
0010
,
0100
1000
0100
0010
0001
1000
0100
1000
0010
0100
0010
1000
0001
0010
0100
1000
,
0010
0100
0001
1000
0001
1000
0100
0010
0001
0010
0100
1000
0001
0100
0010
1000
,
0001
0100
0010
1000
0001
0010
0100
0010
0001
0010
0100
1000
0001
1000
0010
0100
,
0001
1000
0100
0010
0100
1000
0001
0100
0010
1000
0010
1000
0001
0010
0001
1000
,
0001
0100
0010
1000
0001
1000
0010
1000
0001
0010
0000
0100
0000
0010
0100
1000
,
0010
1000
0001
0100
0010
1000
0010
1000
0001
0010
0100
1000
0001
1000
0010
0100
,
0001
1000
0100
1000
0001
0100
0010
1000
0100
1000
0001
1000
0010
0100
0010
1000
,
0100
0010
0001
0010
0100
1000
0001
1000
0001
0100
0010
1000
0001
0010
0001
1000
,
0010
0100
0001
1000
0100
0010
0100
1000
0001
0010
0100
1000
0010
1000
0100
1000
,
0010
1000
0001
0010
0100
1000
0100
0010
0100
1000
0001
0100
0001
1000
0010
0100
,
0001
1000
0001
0010
0100
0010
0001
1000
0100
1000
0001
0100
0010
1000
0001
0100
,
0001
1000
0001
0010
0100
1000
0001
0010
0100
0010
0001
1000
0001
0100
0001
1000
,
0001
0100
0010
1000
0100
0010
0001
0100
0010
1000
0100
0010
0001
0100
0010
1000
,
0100
0010
0001
1000
0010
1000
0001
0100
0010
0100
0001
1000
0001
0010
0100
1000
,
0001
0100
0010
0100
0001
1000
0001
0010
0100
0010
0100
1000
0010
1000
0100
1000
,
0010
1000
0001
0010
0001
1000
0010
0100
0001
1000
0001
0010
0100
1000
0001
0100
,
0010
1000
0010
0100
0001
1000
0010
1000
0100
0010
0100
1000
0001
0100
0010
1000
,
0100
0010
0001
1000
0001
1000
0010
0100
0001
0100
0010
1000
0001
0010
0100
1000
,
0001
0010
0100
1000
0001
0100
0010
0100
0001
0100
0010
1000
0001
1000
0100
0010
,
0001
1000
0010
0100
0010
1000
0001
0010
0100
1000
0100
1000
0001
0100
0001
1000
,
0001
0010
0100
1000
0001
1000
0100
1000
0001
0100
0000
0010
0000
0100
0010
1000
,
0100
1000
0001
0010
0100
1000
0100
1000
0001
0100
0010
1000
0001
1000
0100
0010
,
0001
1000
0010
1000
0001
0010
0100
1000
0010
1000
0001
1000
0100
0010
0100
1000
,
0010
0100
0001
0100
0010
1000
0001
1000
0001
0010
0100
1000
0001
0100
0001
1000
,
0100
0010
0001
1000
0010
0100
0010
1000
0001
0100
0010
1000
0100
1000
0010
1000
,
0100
1000
0001
0100
0010
1000
0010
0100
0010
1000
0001
0010
0001
1000
0100
0010
,
0001
1000
0001
0100
0010
0100
0001
1000
0010
1000
0001
0010
0100
1000
0001
0010
,
0001
1000
0001
0100
0010
1000
0001
0100
0010
0100
0001
1000
0001
0010
0001
1000
,
0001
0010
0100
1000
0010
0100
0001
0010
0100
1000
0010
0100
0001
0010
0100
1000
,
0001
0100
0010
1000
0100
0010
0001
1000
0001
1000
0010
0100
0001
0100
0001
1000
,
0001
0100
0010
1000
0100
0010
0001
1000
0001
1000
0010
0100
0001
0100
0001
1000
,
0001
0100
0010
1000
0100
0010
0001
1000
0001
1000
0010
0100
0001
0100
0001
1000
,
0001
0100
0010
1000
0100
0010
0001
1000
0001
1000
0010
0100
0001
0100
0001
1000
,
0001
0010
0100
1000
0010
0100
0001
1000
0001
1000
0100
0010
0001
0010
0001
1000
,
0001
0010
0100
1000
0010
0100
0001
1000
0001
1000
0100
0010
0001
0010
0001
1000
,
0001
0010
0100
1000
0010
0100
0001
1000
0001
1000
0100
0010
0001
0010
0001
1000
,
0001
0010
0100
1000
0010
0100
0001
1000
0001
1000
0000
0100
0000
0010
0001
1000
,
0001
0100
0010
1000
0001
1000
0010
0100
0001
0010
0100
0010
0100
1000
0001
1000
,
0001
0100
0010
1000
0001
1000
0010
0100
0001
0010
0100
0010
0100
1000
0001
1000
,
0001
0100
0010
1000
0001
1000
0010
0100
0001
0010
0100
0010
0100
1000
0001
1000
,
0001
0100
0010
1000
0001
1000
0010
0100
0001
0010
0100
0010
0100
1000
0001
1000
,
0001
0010
0100
1000
0001
1000
0100
0010
0001
0100
0010
0100
0010
1000
0001
1000
,
0001
0010
0100
1000
0001
1000
0100
0010
0001
0100
0010
0100
0010
1000
0001
1000
,
0001
0010
0100
1000
0001
1000
0100
0010
0001
0100
0010
0100
0010
1000
0001
1000
,
0001
0000
0010
0000
0100
0000
0010
0000
0001
0000
1000
0000
0010
1000
0001
1000
,
0001
0010
0100
0010
0001
0100
0010
1000
0001
0010
0100
1000
0100
1000
0010
1000
,
0001
0010
0100
0010
0001
0100
0010
1000
0001
0010
0100
1000
0100
1000
0010
1000
,
0001
0010
0100
0010
0001
0100
0010
1000
0001
0010
0100
1000
0100
1000
0010
1000
,
0001
0010
0100
0010
0001
0100
0010
1000
0001
0010
0100
1000
0100
1000
0010
1000
,
0001
0100
0010
0100
0001
0010
0100
1000
0001
0100
0010
1000
0010
1000
0100
1000
,
0001
0100
0010
0100
0001
0010
0100
1000
0001
0100
0010
1000
0010
1000
0100
1000
,
0001
0100
0010
0100
0001
0010
0100
1000
0001
0100
0010
1000
0010
1000
0100
1000
,
0001
0100
0010
0100
0001
0010
0100
1000
0001
0100
0000
0010
0000
1000
0100
1000
,
0001
0100
0001
1000
0010
1000
0100
1000
0001
0010
0100
1000
0010
0100
0001
1000
,
0001
0100
0001
1000
0010
1000
0100
1000
0001
0010
0100
1000
0010
0100
0001
1000
,
0001
0100
0001
1000
0010
1000
0100
1000
0001
0010
0100
1000
0010
0100
0001
1000
,
0001
0100
0001
1000
0010
1000
0100
1000
0001
0010
0100
1000
0010
0100
0001
1000
,
0001
0010
0001
1000
0100
1000
0010
1000
0001
0100
0010
1000
0100
0010
0001
1000
,
0001
0010
0001
1000
0100
1000
0010
1000
0001
0100
0010
1000
0100
0010
0001
1000
,
0001
0010
0001
0100
0010
1000
0100
1000
0001
0010
0001
0100
0010
1000
0100
1000
,
0001
0010
0001
0100
0001
1000
0010
1000
0100
1000
0010
1000
0001
0100
0001
0010
,
0001
0000
0000
0000
,
0000
0000
0000
0000
,
0000
0000
0000
0000
,
0000
0000
0000
0000
,
00M0
0000
0000
00M0
0000
0000
00M0
0000
00M0
0000
0000
00M0
0000
0000
00M0
0000
,
00M0
0000
0000
00M0
0000
0000
00M0
0000
00M0
0000
0000
00M0
0000
0000
00M0
0000
,
00M0
0000
0000
00M0
0000
0000
00M0
0000
00M0
0000
0000
00M0
0000
0000
00M0
0000
,
0M00
0000
0000
0M00
0000
0000
0M00
0000
M000
0000
0000
M000
0000
0000
M000
0000
,
0001
0000
0000
0001
0000
0000
0001
0000
0001
0000
0000
0001
0000
0000
0001
0000
,
0001
0000
0000
0001
0000
0000
0001
0000
0001
0000
0000
0001
0000
0000
0001
0000
,
0100
0000
0000
0100
0000
0000
0100
0000
0100
0000
0000
0100
0000
0000
0100
0000
,
0100
0000
0000
0100
0000
0000
0100
0000
0100
0000
0000
0100
0000
0000
0100
0000
,
0010
0000
0000
0010
0000
0000
0010
0000
0010
0000
0000
0010
0000
0000
0010
0000
,
0010
0000
0000
0010
0000
0000
0010
0000
0010
0000
0000
0010
0000
0000
0010
0000
,
0010
0000
0000
0010
0000
0000
0010
0000
0010
0000
0000
0010
0000
0000
0010
0000
,
1000
0000
0000
1000
0000
0000
1000
0000
0001
0000
0000
0001
0000
0000
0001
0000
,
1000
0000
0010
0100
0000
0001
1000
0000
0001
0000
0010
0100
0000
1000
0100
0000
,
1000
0000
0001
1000
0000
0010
1000
0000
0001
0000
1000
0100
0000
0010
0001
0000
,
1000
0000
0010
0100
0000
0001
1000
0000
0010
0000
1000
0100
0000
0010
0001
0000
,
1000
0000
0010
0100
0000
0001
1000
0000
0001
0000
0010
0100
0000
1000
0001
0000
,
0100
0000
0001
1000
0000
0001
0010
0000
0100
0000
0010
0001
0000
1000
0010
0000
,
1000
0000
0001
0100
0000
0010
1000
0000
0100
0000
1000
0001
0000
0100
0001
0000
,
0010
0000
0100
1000
0000
0001
1000
0000
0010
0000
0100
0001
0000
1000
0001
0000
,
0010
0000
0100
1000
0000
0001
1000
0000
0010
0000
0100
0001
0000
1000
0100
0000
,
0010
0000
0001
1000
0000
0001
0100
0000
0001
0000
1000
0100
0000
1000
0010
0000
,
0100
0000
0001
1000
0000
0001
0100
0000
0010
0000
1000
0100
0000
1000
0001
0000
,
1000
0000
0010
0100
0000
0001
1000
0000
0001
0000
0010
0100
0000
1000
0100
0000
,
1000
0000
0001
0100
0000
0010
1000
0000
0001
0000
1000
0100
0000
1000
0001
0000
,
0100
0000
0010
1000
0000
0001
0010
0000
0100
0000
0010
0001
0000
1000
0010
0000
,
0100
0000
0001
1000
0000
0001
0010
0000
0100
0000
1000
0001
0000
1000
0010
0000
,
1000
0000
0001
0010
0000
0100
1000
0000
0100
0000
1000
0001
0000
0100
0010
0000
,
1000
0000
0001
1000
0000
0001
0010
0000
0100
0000
0010
0001
0000
0100
0010
0000
,
1000
0000
0001
1000
0000
0001
1000
0000
0001
0000
1000
0001
0000
1000
0001
0000
,
0010
0000
0001
0010
0000
0001
0010
0000
0001
0000
0010
0001
0000
0010
0001
0000
,
1000
0000
0010
1000
0000
0010
1000
0000
0010
0000
1000
0010
0000
1000
0010
0000
,
1000
0000
0001
1000
0000
0001
1000
0000
0001
0000
1000
0001
0000
1000
0001
0000
,
0010
0000
0100
0010
0000
0100
0010
0000
0100
0000
0010
0100
0000
0010
0100
0000
,
1000
0000
0001
1000
0000
0001
1000
0000
0001
0000
1000
0001
0000
1000
0001
0000
,
0100
0000
0001
0100
0000
0001
0100
0000
0001
0000
0100
0001
0000
0100
0001
0000
,
1000
0000
0001
1000
0000
0001
1000
0000
0001
0000
1000
0001
0000
1000
0001
0000
,
2000
3100
0020
0031
2000
3010
0200
0301
,
2000
3100
0020
0031
0200
0301
2000
3010
,
2000
3001
2000
3001
2000
3001
2000
3001
2000
3001
2000
3001
2000
3001
2000
3001
,
4000
3400
0340
0430
0340
0034
0403
0340
0430
0304
4003
3040
0430
0304
0043
0430
,
1300
0000
0000
0000
,
00M0
0000
0000
00M0
0000
0000
00M0
0000
00M0
0000
0000
00M0
0000
0000
00M0
0000
,
0001
0000
0010
0100
0000
1000
0100
0000
0010
0000
0001
1000
0000
0010
0100
0000
,
0001
0000
1000
0100
0000
1000
0001
0000
0100
0000
0010
1000
0000
0001
0010
0000
,
0001
0010
0001
1000
0010
0100
0001
0010
0100
1000
0100
1000
0001
0100
0010
1000
,
0100
1000
0001
0100
0001
0010
0100
1000
0001
0100
0010
1000
0100
1000
0001
1000
,
0010
0100
0010
1000
0100
1000
0001
0010
0100
0010
0001
1000
0010
1000
0001
0010
,
0100
0010
0001
1000
0010
1000
0010
0100
0001
0010
0100
1000
0100
0010
0001
0100
,
0001
1000
0010
1000
0100
1000
0001
0010
0100
1000
0100
1000
0001
1000
0010
0100
,
0001
0010
0001
1000
0010
1000
0100
1000
0001
0100
0001
1000
0100
1000
0100
0010
,
0001
1000
0001
0100
0010
0100
0001
0010
0100
0010
0001
0100
0010
1000
0001
1000
,
0001
0100
0001
1000
0100
1000
0001
0100
0010
1000
0000
0010
0000
0100
0010
1000
,
0001
0100
0001
1000
0100
1000
0010
0100
0001
1000
0001
0010
0001
1000
0010
1000
,
0001
0010
0001
1000
0010
0100
0001
0010
0100
0010
0001
0100
0010
1000
0001
1000
,
0100
0010
0100
1000
0010
1000
0001
0010
0100
1000
0100
0010
0100
0010
0001
0100
,
0010
1000
0010
1000
0001
1000
0100
0010
0001
0010
0001
1000
0010
1000
0100
0010
,
0001
0010
0001
1000
0010
0100
0001
0010
0100
1000
0001
0100
0001
1000
0010
0100
,
0001
0010
0100
1000
0010
1000
0001
0010
0001
1000
0010
1000
0001
0010
0100
1000
,
0001
0100
0010
1000
0100
1000
0001
0010
0100
1000
0100
1000
0010
1000
0001
0010
,
0100
0010
0001
1000
0010
1000
0100
0010
0100
1000
0001
0100
0010
0100
0001
1000
,
0001
0010
0001
1000
0010
0100
0001
0010
0100
1000
0100
1000
0001
0100
0010
1000
,
0100
1000
0001
0100
0001
0010
0100
1000
0001
0100
0010
1000
0100
1000
0001
1000
,
0010
0100
0010
1000
0100
1000
0001
0010
0100
0010
0001
1000
0010
1000
0001
0010
,
0100
0010
0001
1000
0010
1000
0010
0100
0001
0010
0100
1000
0100
0010
0001
0100
,
0001
1000
0010
1000
0100
1000
0001
0010
0100
1000
0100
1000
0001
1000
0010
0100
,
0001
0010
0001
1000
0010
1000
0100
1000
0001
0100
0001
1000
0100
1000
0100
0010
,
0001
1000
0001
0100
0010
0100
0001
0010
0100
0010
0001
0100
0010
1000
0001
1000
,
0001
0100
0001
1000
0100
1000
0001
0100
0010
1000
0000
0010
0000
0100
0010
1000
,
0001
0100
0001
1000
0100
1000
0010
0100
0001
1000
0001
0010
0001
1000
0010
1000
,
0001
0010
0001
1000
0010
0100
0001
0010
0100
0010
0001
0100
0010
1000
0001
1000
,
0100
0010
0100
1000
0010
1000
0001
0010
0100
1000
0100
0010
0100
0010
0001
0100
,
0010
1000
0010
1000
0001
1000
0100
0010
0001
0010
0001
1000
0010
1000
0100
0010
,
0001
0010
0001
1000
0010
0100
0001
0010
0100
1000
0001
0100
0001
1000
0010
0100
,
0001
0010
0100
1000
0010
1000
0001
0010
0001
1000
0010
1000
0001
0010
0100
1000
,
0001
0100
0010
1000
0100
1000
0001
0010
0100
1000
0100
1000
0010
1000
0001
0010
,
0100
0010
0001
1000
0010
1000
0100
0010
0100
1000
0001
0100
0010
0100
0001
1000
,
0001
0100
0010
1000
0100
0010
0001
1000
0001
1000
0010
0100
0001
0100
0001
1000
,
0001
0100
0010
1000
0100
0010
0001
1000
0001
1000
0010
0100
0001
0100
0001
1000
,
0001
0100
0010
1000
0100
0010
0001
1000
0001
1000
0010
0100
0001
0100
0001
1000
,
0001
0100
0010
1000
0100
0010
0001
1000
0001
1000
0010
0100
0001
0100
0001
1000
,
0001
0010
0100
1000
0010
0100
0001
1000
0001
1000
0100
0010
0001
0010
0001
1000
,
0001
0010
0100
1000
0010
0100
0001
1000
0001
1000
0100
0010
0001
0010
0001
1000
,
0001
0010
0100
1000
0010
0100
0001
1000
0001
1000
0100
0010
0001
0010
0001
1000
,
0001
0010
0100
1000
0010
0100
0001
1000
0001
1000
0000
0100
0000
0010
0001
1000
,
0001
0100
0010
1000
0001
1000
0010
0100
0001
0010
0100
0010
0100
1000
0001
1000
,
0001
0100
0010
1000
0001
1000
0010
0100
0001
0010
0100
0010
0100
1000
0001
1000
,
0001
0100
0010
1000
0001
1000
0010
0100
0001
0010
0100
0010
0100
1000
0001
1000
,
0001
0100
0010
1000
0001
1000
0010
0100
0001
0010
0100
0010
0100
1000
0001
1000
,
0001
0010
0100
1000
0001
1000
0100
0010
0001
0100
0010
0100
0010
1000
0001
1000
,
0001
0010
0100
1000
0001
1000
0100
0010
0001
0100
0010
0100
0010
1000
0001
1000
,
0001
0010
0100
1000
0001
1000
0100
0010
0001
0100
0010
0100
0010
1000
0001
1000
,
0001
0010
0100
1000
0010
0100
0001
0010
0100
1000
0010
0100
0001
0010
0100
1000
,
00M2
0000
0000
0000
,
0000
0000
0000
0000
,
0000
0000
0000
0000
,
0000
0000
0000
0000
,
0003
0000
0000
0000
;
