#TITLE:V;
#SUBTITLE:;
#ARTIST:dj TAKA;
#TITLETRANSLIT:;
#SUBTITLETRANSLIT:;
#ARTISTTRANSLIT:;
#CREDIT:;
#BANNER:V.BANNER.bmp;
#BACKGROUND:V.bg.bmp;
#LYRICSPATH:;
#CDTITLE:cd.tittle.bmp;
#MUSIC:V.mp3;
#OFFSET:1.850;
#SAMPLESTART:60.940;
#SAMPLELENGTH:12.000;
#SELECTABLE:YES;
#BPMS:0.000=150.000;
#STOPS:;
#BGCHANGES:;
// cache tags:
#FIRSTBEAT:5.000;
#LASTBEAT:313.000;
#SONGFILENAME:Songs/IzzySM Keyboard Mega Pack/V.B.m.W challenge/V.sm;
#HASMUSIC:1;
#HASBANNER:1;
#MUSICLENGTH:128.295;
// end cache tags

//---------------dance-single - ----------------
#NOTES:
     dance-single:
     :
     Challenge:
     10:
     1.000,1.000,1.000,0.016,0.951,762.000,234.000,2.000,0.000,0.000:


0000
0000
0000
0000
,
0000
0000
0000
0000
1000
0001
1000
0001
1000
0001
1000
0001
1000
0001
1000
0001
,
1000
0001
1000
0000
1100
0000
0000
0000
0011
0000
0000
0000
1100
0000
0000
0000
,
0011
1100
0011
1100
,
0011
1001
0110
1001
,
0110
1001
0110
1001
,
0110
0101
1010
0101
,
1010
0101
1010
0101
,
0110
0110
1001
0000
0011
0000
1001
0000
,
0011
1001
0011
1001
,
0011
0000
0000
0000
0110
0000
0000
0100
1000
0000
0000
0000
0011
0000
0000
0100
,
0010
0000
0000
0000
1001
0000
0000
0100
0010
0000
0000
0000
1010
0000
0000
0100
,
0001
0000
0000
0000
1010
0000
0000
0100
0010
0000
0000
0000
0011
0000
0000
0100
,
1000
0000
0000
0000
1010
0000
0000
0100
1000
0000
0000
0000
0101
0000
0000
0100
,
1000
1100
0110
0011
,
0110
1100
0110
0011
,
0110
1100
0110
0011
,
0110
0000
0000
0000
1000
0001
1000
0001
1000
0001
1000
0001
1000
0001
1000
0001
,
1000
0001
1000
0000
1001
0000
1000
0000
0100
0000
0010
0000
0001
0000
1000
0000
,
0100
0000
0010
0000
1001
0100
0010
0001
1000
0100
0010
0001
1000
0100
0010
0001
,
1000
0100
0010
0001
1000
0100
1000
0010
1000
0100
1000
0010
1000
0100
1000
0010
,
1000
0100
1000
0000
1001
0000
0000
0100
0001
0000
0000
0000
1001
0000
0000
0010
,
0001
0000
0000
0000
1100
0000
0000
0100
0010
0000
0000
0000
0101
0000
0000
1000
,
0010
0000
0110
0001
0010
0100
1000
0001
,
0010
0000
0100
0000
1000
0001
0010
0100
1000
0001
0010
0100
1000
0001
0010
0100
,
1000
0001
0010
0100
1000
0100
0010
0100
1000
0100
0010
0100
1000
0100
0010
0100
,
1000
0100
0010
0100
1001
0000
0000
0100
1000
0000
0000
0000
0101
0000
0000
0010
,
1000
0000
0000
0000
1001
0000
0000
0100
0010
0000
0000
0000
0101
0000
0000
0001
,
0010
0000
1001
0001
0100
0010
1000
0001
,
0100
0000
0010
1000
0001
0100
0010
1000
0001
0100
0010
1000
0001
0100
0010
1000
,
0001
0100
0010
1000
0001
0100
0001
0010
0001
0100
0001
0010
0001
0100
0001
0010
,
0001
0100
0001
0010
1100
0000
0000
0000
0101
0000
0000
0000
1100
0000
0000
0000
,
0101
1010
0011
1010
,
0011
0000
0110
1001
0110
1001
0110
1001
,
0110
1001
0110
1100
0011
1100
0011
1100
,
0011
1100
1001
0110
1001
0110
1001
0110
,
1001
0110
1100
0011
1100
0011
1100
0011
,
1100
0011
1100
0110
1100
0110
1100
0110
,
1100
0110
0011
1100
0011
1100
0011
1100
,
0011
0000
1100
0000
0011
0000
0010
0100
0010
0100
0010
0100
0010
0000
0110
0000
,
0110
0110
1001
0110
1001
0110
1001
0110
,
1001
0000
0110
0000
1001
0000
0100
0010
0100
0010
0100
0010
0100
0000
1100
0000
,
1100
1100
1001
1100
1001
1100
1001
1100
,
1001
0000
1100
0000
1001
0000
0010
1000
0010
1000
0010
1000
0010
0000
0011
0000
,
0011
0011
1001
0011
1001
0011
1001
0011
,
1001
0000
0011
0000
1001
0000
0100
0010
0100
0010
0100
0000
0110
0000
0110
0000
,
0110
0110
1100
0011
1100
0011
1100
0011
,
1100
0000
0011
0000
1000
0100
0010
0001
0100
0010
1000
0100
0010
0001
0100
0010
,
1000
0100
0010
0001
0100
0010
1000
0100
0010
0001
0100
0010
1000
0100
0010
0001
,
0100
0010
1000
0100
0010
0000
0001
0010
0100
1000
0010
0100
0001
0010
0100
1000
,
0010
0100
0001
0010
0100
1000
0010
0100
0001
0010
0100
1000
0010
0100
0001
0010
,
0100
1000
0010
0100
1000
0100
0010
0001
1000
0100
0010
0001
1000
0100
0010
0001
,
1000
0100
0010
0001
1000
0000
1000
0001
0100
0010
1000
0001
0100
0010
1000
0001
,
0100
0010
0001
0010
0100
1000
0001
0010
0100
1000
0001
0010
0100
1000
0001
0010
,
0100
1000
0100
0010
0001
1000
0100
0010
0001
1000
0100
0010
0001
1000
0100
0010
,
0001
1000
0100
0010
0001
0000
1000
0100
0010
0001
0100
0010
1000
0100
0010
0001
,
0100
0010
1000
0100
0010
0001
0100
0010
1000
0100
0010
0001
1000
0100
0010
0001
,
1000
0100
0010
0001
0010
0100
1000
0001
0010
0100
1000
0001
0010
0100
1000
0001
,
0010
0100
1000
0100
1000
0100
1000
0100
1000
0100
1000
0100
0010
0001
1000
0100
,
0010
0001
0010
0001
0010
0001
0010
0001
0010
0001
0010
0001
0010
0100
1000
0001
,
0010
0100
1000
0100
0010
0001
0010
0100
1000
0100
0010
0001
0010
0100
1000
0100
,
0010
0001
0010
0100
1000
0100
0010
0001
0010
0100
1000
0100
0010
0001
0010
0100
,
1000
0100
0010
0001
1001
0000
1000
0100
1000
0100
1000
0100
1000
0000
1001
0000
,
1001
1001
1001
0110
1001
0110
1001
0110
,
1001
0000
0110
0000
1001
0000
0001
0010
0001
0010
0001
0010
0001
0000
0011
0000
,
0011
0011
1001
0011
1001
0011
1001
0011
,
1001
0000
0011
0000
1001
0000
1000
0100
1000
0100
1000
0100
1000
0000
1100
0000
,
1100
1100
1001
1100
1001
1100
1001
1100
,
1001
0000
1100
0000
1001
0000
0001
1000
0001
1000
0001
1000
0001
0000
0101
0000
,
0101
0000
0101
0000
1000
0100
0010
0001
0100
0010
1000
0100
0010
0001
0100
0010
,
1000
0100
0010
0001
0100
0000
1000
0100
1000
0100
1000
0100
1000
0000
1001
0000
,
0110
0000
1001
0000
0110
0000
1000
0001
1000
0001
1000
0001
1000
0000
1100
0000
,
0011
0000
1100
0000
0011
0000
1000
0010
1000
0010
1000
0010
1000
0000
1001
0000
,
1100
0000
1001
0000
1100
0000
0100
0001
0100
0001
0100
0001
0100
0000
1010
0000
,
0101
0000
1010
0000
0101
0000
0100
0010
0100
0010
0100
0010
0100
0000
1001
0000
,
0101
0000
1001
0000
0101
0000
0100
1000
0100
1000
0100
1000
0100
0000
1001
0000
,
0110
1001
0220
0000
0000
0000
0000
0000
,
0000
0000
0000
0000
,
0000
0330
0000
0000
,;
