#TITLE:Konamized;
#SUBTITLE:EXoduz Violation;
#ARTIST:RushJet1;
#TITLETRANSLIT:;
#SUBTITLETRANSLIT:;
#ARTISTTRANSLIT:;
#CREDIT:;
#BANNER:../Banner.png;
#BACKGROUND:../Background.png;
#LYRICSPATH:;
#CDTITLE:;
#MUSIC:Konamized.ogg;
#OFFSET:-0.421;
#SAMPLESTART:32.120;
#SAMPLELENGTH:12.000;
#SELECTABLE:YES;
#DISPLAYBPM:226.000;
#BPMS:0.000=224.750,48.000=225.500,80.000=230.000,84.000=228.000,88.000=226.000;
#STOPS:;
#BGCHANGES:;
// cache tags:
#FIRSTBEAT:12.000;
#LASTBEAT:400.000;
#SONGFILENAME:Songs/EXoduz Violation/Konamized/Konamized.sm;
#HASMUSIC:1;
#HASBANNER:1;
#MUSICLENGTH:108.757;
// end cache tags

//---------------dance-single - ----------------
#NOTES:
     dance-single:
     :
     Challenge:
     14:
     1.000,1.000,0.542,0.561,1.000,852.000,59.000,61.000,4.000,2.000:

0000
0000
0000
0000
,
0000
0000
0000
0000
,
0000
0000
0000
0000
,
MMMM
0000
0000
0000
,
1000
0001
0100
0010
1000
0100
0010
0001
0100
0000
0010
0000
1000
0000
0001
0000
,
0100
0010
1000
0100
0010
0001
0100
0001
,
0010
0100
1000
0001
0010
0100
1000
0010
0100
0000
0001
0000
1000
0000
0100
0000
,
0010
0100
0010
0100
1000
0010
1000
0001
,
1000
0010
0100
0001
0010
0001
0010
0100
1000
0000
0001
0000
1000
0000
0001
0000
,
1000
0010
0100
0010
0100
0001
0010
0100
,
1000
0001
1000
0001
1000
0010
0100
0001
0010
0000
0100
0000
1000
0000
0001
0000
,
1000
0010
0100
0010
0100
0001
0010
0100
,
1000
0001
1000
0001
1000
0010
0100
0010
0100
0001
0010
0100
1000
0010
1000
0010
,
1000
0100
0010
0001
1000
0100
0010
0001
1000
0001
1000
0010
0100
0010
0100
0001
,
0010
0100
1000
0010
0100
0010
0100
0010
1000
0100
1000
0010
1000
0100
0010
0001
,
1000
0001
1000
0010
0100
0010
0100
0001
0010
0100
1000
0001
0010
0100
1000
0010
,
1000
0100
0010
0001
0100
0001
0100
0001
0010
0100
0010
0100
1000
0010
0100
0001
,
1000
0010
1000
0100
0010
0001
0010
0001
0010
0001
0010
0100
1000
0100
1000
0100
,
1000
0100
0000
1000
0100
0000
1000
0100
,
0000
0000
0000
0001
0000
0000
0100
0000
0000
0000
0000
0000
1000
0000
0100
0000
0010
0000
0001
0000
0000
0010
0000
0000
,
0100
1000
0001
1000
0001
1000
0010
0100
,
0001
0010
0100
1000
0001
1000
0010
0100
,
0010
0000
0100
0000
0001
0000
0010
0000
0100
0000
1000
0000
0001
1000
0001
1000
,
0001
0000
1000
0000
0010
0000
0100
0000
0010
0000
1000
0100
0010
0001
0010
0100
,
1000
0001
1000
0010
1000
0010
1000
0100
,
0010
0001
1000
0001
1000
0010
0100
0010
,
1000
0100
0010
0001
0100
0001
0010
0100
,
1000
0100
1000
0010
0100
0010
0100
0001
,
1000
0001
1000
0001
0000
0000
1000
0010
1000
0010
0000
0000
0100
0001
0100
0001
0000
0000
1000
0100
1000
0100
0000
0000
,
0010
0001
0010
0001
0000
0000
0100
0000
0000
1000
0010
1000
0010
0000
0000
0100
0010
0100
0010
0100
0010
0100
0000
0000
,
0001
1000
0001
1000
0000
0000
0001
0100
0001
0100
0000
0000
0010
1000
0010
1000
0000
0000
0001
0000
0000
0100
0000
0000
,
0010
0000
0000
1000
0100
1000
0100
0000
0000
0010
0100
0010
0100
0000
0000
1000
0010
1000
0010
0000
0000
1000
0000
0000
,
0002
0000
0103
1000
0010
0100
0001
0010
,
0200
1000
1300
0010
0100
0001
0010
0100
,
1000
0001
1000
0000
0010
0000
0100
0000
0001
1000
0010
0000
0100
0000
0100
0000
,
0001
0000
0100
0000
0001
1000
0010
0000
1000
0000
0001
0000
1000
0000
0010
0000
,
0100
0010
1000
0000
0100
0000
1000
0001
0100
0000
0010
0000
1000
0000
0100
0000
,
0010
0000
0001
0000
0100
0000
0010
0100
0010
0000
1000
0000
0001
0000
0100
0000
,
0110
0110
0110
0110
0010
1000
0100
0010
,
0001
1001
1001
1001
1001
0001
0001
1000
,
0020
0000
0000
0000
0000
0100
0130
0110
,
0020
0000
0030
0000
2002
0000
0000
3003
,
0220
0000
0000
0000
0330
0100
1000
0100
,
1100
0000
0000
0000
0202
0000
0000
0303
,
2020
0000
0000
0000
3030
0110
0001
1000
,
1020
0000
1030
0000
,
2200
0000
0000
0000
3300
0100
0120
0130
,
0220
0000
0000
0000
0330
1001
0001
0100
,
0220
0000
0000
0000
0000
0000
0330
0000
1000
0010
1000
0000
0000
0000
0100
1000
,
0100
0001
1000
0010
0100
0010
0100
0001
,
1000
0100
1000
0100
1000
0000
0001
0000
1000
0000
0001
0000
1000
0000
0010
0000
,
0100
0010
0100
0010
0100
0000
0001
0000
0100
0000
0010
0000
1000
0000
0001
0000
,
1001
0000
0000
0000
0000
2000
3200
2300
,
3200
0300
0000
1010
0000
0000
0000
0000
,
0110
0000
0000
0000
0000
0020
1030
0002
,
0103
0000
0000
1111
0000
0000
0000
1010
,
0101
0000
0000
0000
0000
0000
2000
3200
,
1300
0000
0000
0000
0000
1010
2200
3300
,
2002
0000
0000
0000
0000
0000
0000
3003
,
1001
0000
0020
0230
0300
2000
3002
0003
,
0220
0000
0000
0000
0330
1010
0010
2000
,
0010
0000
0000
0000
0000
0000
0000
0000
0000
0000
3000
0000
0100
0000
0010
1000
,
0001
0100
0010
1000
0001
0100
0010
0100
0010
0100
0001
1000
0020
0000
0000
0000
,
0000
0000
0000
0000
0000
0000
0000
0000
0030
0000
0100
1000
0100
1000
0100
1000
,
0100
0001
1000
0010
0100
0001
1000
0001
,
1000
0010
0100
0001
0100
1000
0010
0000
,
1000
0001
0100
0010
1000
0001
1000
0001
1000
0010
0100
0000
0001
0000
1000
0000
,
0010
0100
0010
0100
0001
0010
0100
1000
,
0001
1000
0001
1000
0010
1000
0100
0010
0001
1000
0010
0000
0100
0000
0001
0000
,
0100
0001
1000
0010
0100
0001
0010
0100
,
1000
0001
1000
0001
0000
0000
1000
0010
1000
0010
0000
0000
0100
0001
0100
0001
0000
0000
0000
0000
0000
1001
0000
0000
,
0000
0001
1000
0010
0100
0001
1000
0000
,
0001
1000
0010
0100
0000
0000
0100
0010
0100
0010
0000
0000
1000
0010
0100
0001
0000
0000
0000
0000
0000
1010
0000
0000
,
0000
0001
1000
0001
0100
0010
1000
0000
,
0002
0023
0230
2300
3000
0000
0002
0023
0230
2300
3000
0000
0002
0023
0230
2300
3000
0000
0000
0000
0000
1001
0000
0000
,
0000
0001
1000
0010
0100
0001
1000
0000
,
1000
0100
1000
0100
0000
0000
0010
0001
0100
0001
0000
0000
0010
0100
1000
0001
0000
0000
0000
0000
0000
1100
0000
0000
,
0000
0001
1000
0010
0100
0001
1000
0000
,
0001
1000
0010
0100
0001
0010
0001
0010
0100
1000
0010
0100
0010
0100
0001
0100
,
0001
0010
0100
1000
0001
1000
0001
1000
0010
0100
0010
1000
0010
0100
0010
1000
,
0100
0010
0001
1000
0001
1000
0010
0100
0001
0010
0100
1000
0001
1000
0010
0100
,
0001
0010
0100
1000
0001
1000
0001
1000
0010
0100
0010
1000
0100
0010
0001
0100
,
0001
0010
0100
1000
0001
0010
0100
1000
0001
1000
0001
1000
0010
0100
0001
0010
,
0100
1000
0001
0010
0100
1000
0010
0100
0010
0100
0001
0100
0010
1000
0100
0010
,
0004
0000
0000
0000
,
0000
0000
0000
0000
,
1003
0001
1000
0010
0100
0010
0100
0001
0010
0100
1000
0100
1000
0010
0100
0001
,
1000
0010
0100
0001
0010
0001
0010
0100
0010
0100
1000
0100
1000
0010
0100
0010
,
1000
0100
0010
0001
1000
0001
1000
0010
0100
0010
0100
0010
1000
0010
1000
0100
,
0010
0001
0010
0001
1000
0010
0100
0001
0010
0100
1000
0001
1000
0010
0100
0001
,
0010
0001
0100
0010
0100
0010
1000
0010
0100
0001
0010
0100
1000
0001
0010
0001
,
0010
0001
1000
0010
1000
0010
1000
0010
0100
0010
0100
0001
1000
0010
0100
0001
,
1000
0001
0100
0010
1000
0002
0200
0000
,
0000
0000
0000
0000
0000
0303
0000
0000
,
0110
1010
0101
0011
0110
1100
0220
0000
,
0000
0000
0000
0000
0000
0000
0000
0330
,
0011
1100
0110
0011
0101
1010
2020
0000
,
0000
0000
0000
0000
0000
0000
0000
3030
,
1100
0110
0011
1001
1001
1001
2022
0000
,
0000
0000
0000
0000
,
3033
0000
0000
0000
;
