#TITLE:Winter;
#SUBTITLE:;
#ARTIST:Banya;
#TITLETRANSLIT:Winter;
#SUBTITLETRANSLIT:;
#ARTISTTRANSLIT:Banya;
#CREDIT:;
#BANNER:winter-bn.png;
#BACKGROUND:winter-bg.png;
#LYRICSPATH:;
#CDTITLE:;
#MUSIC:winter.ogg;
#OFFSET:-0.262;
#SAMPLESTART:78.780;
#SAMPLELENGTH:12.000;
#SELECTABLE:YES;
#BPMS:0.000=168.000;
#STOPS:;
#BGCHANGES:;
// cache tags:
#FIRSTBEAT:8.000;
#LASTBEAT:497.000;
#SONGFILENAME:Songs/SSSC Pack 2/Winter - [Watson]/WINTER.SM;
#HASMUSIC:1;
#HASBANNER:0;
#MUSICLENGTH:179.879;
// end cache tags

//---------------dance-single - Wastum----------------
#NOTES:
     dance-single:
     Wastum:
     Challenge:
     12:
     1.000,1.000,0.372,1.000,1.000,1304.000,67.000,191.000,0.000,2.000:

0000
0000
0000
0000
,
0000
0000
0000
0000
,
2000
3200
0320
0032
2003
3200
0320
0032
,
1003
0000
0001
0100
0010
1000
0001
0100
0001
0000
0001
0100
0010
1000
0001
0100
,
0010
1000
0010
1000
0001
1000
0001
1000
0100
1000
0100
1000
0001
1000
0001
1000
,
0001
0101
0100
0110
,
0010
0000
1010
0000
1000
1000
0001
0001
,
2000
3020
0230
0302
2003
3020
0230
0302
,
2003
0000
3010
0100
0010
1000
0010
0100
0010
0000
0010
0100
0010
1000
0010
0100
,
0001
1000
0001
1000
0001
0010
0001
0010
0001
1000
0001
1000
0001
0100
0001
0100
,
0001
1001
0001
0101
,
0100
0000
1001
0000
0001
0001
1000
1000
,
0002
0203
0320
2030
3002
0203
0320
2030
,
3200
0000
1300
0100
0010
0001
1000
0100
0010
0000
0010
0001
1000
0100
0010
0001
,
1000
0010
0100
0001
0100
0001
1000
0001
1000
0001
0010
0001
0010
0001
1000
0000
,
2002
0000
0000
3003
,
1000
1001
1000
1001
,
0001
0000
1001
0000
1000
1000
0001
0001
,
1000
0100
0010
0001
1000
0100
0010
0001
,
1000
0010
0100
0001
1000
0010
0100
0001
,
1000
0100
0001
0100
1000
0100
0001
0100
,
1000
0010
0001
0010
1000
0010
0001
0010
,
1000
0010
0100
0001
0100
0010
1000
0001
1000
0100
0010
0001
0010
0100
1000
0000
,
1001
0000
0001
0010
0100
1000
0001
0010
0100
0000
0100
0000
0100
0000
0100
0000
,
0110
1000
0110
1000
0110
1000
0110
1000
,
0110
0000
0100
1000
0001
0100
0010
1000
0010
0000
0010
0000
0010
0000
0010
0000
,
1010
0001
1010
0001
1010
0001
1010
0001
,
1010
0000
0001
0100
0010
1000
0001
1000
0001
0000
0001
0000
0001
0000
0001
0000
,
1001
0010
1001
0010
1001
0010
1001
0010
,
1001
0000
1000
0010
0100
0001
1000
0001
0010
0000
0010
0000
0010
0000
0010
0000
,
0011
1000
0011
1000
0011
1000
0011
1000
,
0001
0100
0010
1000
0001
0100
0001
0100
0010
1000
0010
1000
0001
0100
0010
0100
,
0010
1000
0001
0100
0010
0100
0001
1000
0010
0100
0010
0100
0001
1000
0100
0010
,
0002
0000
1003
0100
1000
0000
0001
0010
0100
1000
0001
0010
0100
1000
0001
1000
,
0001
0100
0010
1000
0001
0100
0010
1000
0001
0100
0010
1000
0001
0100
0010
1000
,
0001
0010
0100
1000
0001
1000
0100
1000
0001
0010
0100
1000
0001
1000
0100
1000
,
0002
0000
1003
0100
1000
0000
0001
0010
0100
1000
0001
1000
0100
0010
0001
1000
,
0010
0100
0001
1000
0010
0100
0001
1000
0010
0100
0001
1000
0010
0100
0001
1000
,
0100
0010
0100
1000
0100
0010
0001
1000
0100
0010
0100
1000
0100
0010
0001
1000
,
0002
0000
0013
0100
0010
0000
0001
0100
0010
1000
0010
0100
0001
1000
0100
0010
,
0001
0010
0100
1000
0010
0100
0001
1000
0100
0010
0100
1000
0001
0100
0010
1000
,
0001
0010
0100
1000
0001
1000
0100
0010
0001
1000
0010
0100
0001
1000
0001
0100
,
0010
0100
0001
1000
0010
0100
0001
1000
0010
1000
0100
0010
0001
0010
0100
1000
,
0001
0010
0001
1000
0100
1000
0001
0100
0001
1000
0100
1000
0001
0100
0010
1000
,
0001
0010
0100
1000
0001
0100
0010
1000
0010
0100
0001
1000
0100
0010
0001
1000
,
0002
0000
0000
0003
1100
0110
0011
1001
,
1000
0010
1000
0001
1000
0010
0100
0001
1000
0100
0010
0001
1000
0010
1000
0001
,
1000
0100
1000
0100
1000
0100
1000
0100
1000
0100
1000
0100
1000
0100
1000
0100
,
0010
0001
1000
0100
0010
0100
1000
0001
0100
0010
1000
0001
0100
0010
1000
0001
,
0100
0001
0100
0001
0100
0001
0100
0001
0100
0001
0100
0001
0100
0001
0100
0001
,
1000
0100
0010
0001
1000
0010
0100
0001
1000
0100
1000
0001
0010
0100
1000
0001
,
0010
0100
0010
0100
0010
0100
0010
0100
0010
0100
0010
0100
0010
0100
0010
0100
,
1000
0001
0100
0010
1000
0001
0010
0001
1000
0100
0010
0001
1000
0010
0100
0001
,
1000
0010
1000
0010
1000
0010
1000
0010
1000
0010
1000
0010
1000
0010
1000
0010
,
0100
0001
0100
0001
0100
0001
0100
0001
0100
0001
0100
0001
0100
0001
0100
0001
,
1000
0100
0010
0001
1000
0100
0010
0001
1000
0010
0100
0001
1000
0010
0100
0001
,
2000
3000
1001
0011
0110
1100
0110
1001
,
2000
0000
0000
0000
3200
0000
0320
0032
0023
0000
0000
0000
0032
0000
2003
0000
,
3020
0230
0000
0302
,
0023
0000
0032
2003
3200
0000
2300
0000
3020
0000
0000
0000
0230
0000
0000
0000
,
0302
0023
0000
0230
,
2300
0000
3002
0203
0320
0000
0230
0302
,
2003
0000
3200
0320
0032
0000
0203
0320
,
2030
0000
3200
0320
0230
0000
2300
3002
,
0203
0000
0320
2030
3002
0000
0023
0230
,
2300
0000
0000
0000
0000
3200
0320
0032
,
0203
0000
0000
0000
0000
0320
2030
3002
,
0023
0000
0000
0000
0000
0230
2300
3020
,
0230
0000
0000
0000
0000
0302
0203
0320
,
2030
3200
0000
0320
,
0032
0000
0023
0230
2300
0000
3200
0000
0320
0000
0032
0000
0203
0000
0320
0000
,
2030
3002
4003
0000
0000
0000
3002
0000
,
0203
0000
0000
0000
0310
1000
0001
0100
0010
1000
0001
1000
0001
0010
0100
1000
,
0020
0000
0000
0000
0230
0000
0302
0023
0230
0000
0000
0000
2300
0000
3200
0000
,
0320
0032
0000
2003
,
3200
0000
0320
0230
0320
0000
0032
0000
0203
0000
0000
0000
0320
0000
0000
0000
,
0032
0000
0023
0000
0000
0000
0000
2030
,
3002
0000
0023
0032
2003
0000
3200
0000
2300
0000
0000
0000
3200
0000
0000
0000
,
0302
0203
0000
0320
,
0230
0000
2300
3200
0320
0000
0032
0203
,
0320
0000
2030
3200
0320
0000
0230
2300
,
3020
0000
0230
0302
0023
0000
0230
2300
,
3020
0000
0000
0000
0000
0000
0230
0302
,
0023
0230
2300
3020
0230
0302
0023
0230
,
2300
0000
0000
0000
3002
0000
0000
0000
0000
0000
1003
0100
0010
0001
0010
0100
,
2000
3002
0023
0230
2300
3002
0203
0320
,
2030
0000
0000
0000
3200
0000
0000
0000
0000
0300
0010
0100
0010
0001
1000
0001
,
2000
0000
0000
0000
3002
0000
0023
0030
0210
0000
0000
0000
0000
0000
0000
0000
,
0021
0000
0000
0000
0031
0010
0100
1000
0001
0100
0010
1000
0001
1000
0010
0100
,
0001
0000
0100
0010
1000
0000
0100
0010
0001
0000
1000
0000
1000
0000
1000
0000
,
1100
0001
1100
0001
1100
0001
1100
0001
,
1100
0000
1000
0010
0100
0001
0100
0010
0100
0000
0100
0000
0100
0000
0100
0000
,
0110
1000
0110
1000
0110
1000
0110
1000
,
0110
0000
0010
0100
0001
1000
0010
0100
0001
0000
0001
0000
0001
0000
0001
0000
,
0011
1000
0011
1000
0011
1000
0011
1000
,
0011
0000
0010
0100
1000
0001
0100
0010
0100
0000
0100
0000
0100
0000
0100
0000
,
0110
0001
0110
0001
0110
0001
0110
0001
,
1000
0010
0100
0001
1000
0010
0100
0010
1000
0001
0100
0001
1000
0010
0100
0010
,
0100
0001
1000
0010
0100
0010
1000
0001
0100
0010
0100
0010
1000
0001
0010
0100
,
2000
0000
3001
0010
0001
0000
1000
0100
0010
0001
1000
0100
0010
0001
1000
0001
,
1000
0010
0100
0001
1000
0010
0100
0001
1000
0010
0100
0001
1000
0010
0100
0001
,
1000
0100
0010
0001
1000
0001
0010
0001
1000
0100
0010
0001
1000
0001
0010
0001
,
2000
0000
3001
0010
0001
0000
1000
0100
0010
0001
1000
0001
0010
0100
1000
0001
,
0100
0010
1000
0001
0100
0010
1000
0001
0100
0010
1000
0001
0100
0010
1000
0001
,
0010
0100
0010
0001
0010
0100
1000
0001
0010
0100
0010
0001
0010
0100
1000
0001
,
2000
0000
3100
0010
0100
0000
1000
0010
0100
0001
0100
0010
1000
0001
0010
0100
,
1000
0100
0010
0001
0100
0010
1000
0001
0010
0100
0010
0001
1000
0010
0100
0001
,
1000
0100
0010
0001
1000
0001
0010
0100
1000
0001
0100
0010
1000
0001
1000
0010
,
0100
0010
1000
0001
0100
0010
1000
0001
0100
0001
0010
0100
1000
0100
0010
0001
,
1000
0100
1000
0001
0010
0001
1000
0010
1000
0001
0010
0001
1000
0010
0100
0001
,
1000
0100
0010
0001
1000
0010
0100
0001
0100
0010
1000
0001
0010
0100
1000
0001
,
0020
0000
0000
0030
0011
1001
0101
1001
,
1000
0100
0010
0001
1000
0010
0100
0001
1000
0001
0010
0100
1000
0100
0010
0001
,
1000
0100
1000
0100
1000
0100
1000
0100
1000
0100
1000
0100
1000
0100
1000
0100
,
1000
0001
0010
0100
1000
0001
0100
0010
1000
0001
0100
0010
1000
0001
0010
0100
,
1000
0001
1000
0001
1000
0001
1000
0001
1000
0001
1000
0001
1000
0001
1000
0001
,
1000
0100
0010
0100
1000
0001
0010
0001
1000
0010
0100
0001
0100
0010
1000
0001
,
1000
0010
1000
0010
1000
0010
1000
0010
1000
0010
1000
0010
1000
0010
1000
0010
,
1000
0001
0010
0100
0010
0001
1000
0010
0100
0001
1000
0100
0010
0100
1000
0001
,
1000
0010
1000
0010
1000
0010
1000
0010
1000
0010
1000
0010
1000
0010
1000
0010
,
0100
0001
0100
0001
0100
0001
0100
0001
0100
0001
0100
0001
0100
0001
0100
0001
,
1000
0100
0010
0001
1000
0001
0010
0100
0010
0001
1000
0010
0100
0001
1000
0001
,
0100
0220
0000
0000
,
0000
0000
0000
0000
,
0000
0330
0000
0000
;
