#TITLE:Broken Thunder Fire;
#SUBTITLE:;
#ARTIST:S.S.H;
#TITLETRANSLIT:;
#SUBTITLETRANSLIT:;
#ARTISTTRANSLIT:;
#CREDIT:;
#BANNER:Broken Thunder Fire.png;
#BACKGROUND:Broken Thunder Fire.jpg;
#LYRICSPATH:;
#CDTITLE:CDtitletiger.png;
#MUSIC:Broken Thunder Fire.mp3;
#OFFSET:-0.200;
#SAMPLESTART:32.244;
#SAMPLELENGTH:12.000;
#SELECTABLE:YES;
#BPMS:0.000=186.080;
#STOPS:;
#BGCHANGES:;
// cache tags:
#FIRSTBEAT:0.000;
#LASTBEAT:617.667;
#SONGFILENAME:Songs/new cedric/Broken Thunder Fire/Broken Thunder Fire.sm;
#HASMUSIC:1;
#HASBANNER:1;
#MUSICLENGTH:201.932;
// end cache tags

//---------------dance-single - ----------------
#NOTES:
     dance-single:
     :
     Challenge:
     12:
     1.000,1.000,1.000,0.966,1.000,1604.000,272.000,195.000,0.000,29.000:
1001
0000
0011
0000
0011
1100
0000
1100
0001
1000
0010
0100
0012
0000
0000
0000
,
1003
1000
0001
0001
0010
0010
0100
0100
,
1000
0001
1000
0000
0001
0000
0001
0000
1000
0000
0100
0000
0010
0000
1001
0000
,
0010
0010
0100
0100
0001
0001
0100
0100
,
1000
0100
1000
0000
0010
0000
0010
0000
0100
0000
0001
0010
0100
1000
0012
0000
,
1003
1000
0010
0010
1000
1000
0001
0001
,
0100
0010
0100
0000
0001
0000
0001
0000
1000
0000
1000
0000
1000
0000
0102
0000
,
0013
1002
0103
1020
0031
2100
3001
1020
,
0031
1000
0010
0100
0010
0100
0001
0010
0100
1000
0001
0010
2100
0000
3012
0000
,
1003
0000
0010
0100
1001
0000
0001
1000
0100
0000
0001
0100
1010
0000
1000
0001
,
0010
0000
1000
0100
1001
0000
0001
0100
0010
0000
0010
1000
0101
0000
1000
0100
,
1000
0000
0001
0010
1001
0000
1000
0010
0100
0000
0001
0100
1010
0000
0001
0010
,
0001
0000
0100
1000
0011
0000
0100
0010
0100
0000
0001
0010
2100
3000
0012
0003
,
1000
0100
0010
0001
1100
0000
0001
0010
0100
0000
1000
0100
0011
0000
0100
1000
,
0010
0000
0010
0001
1100
0000
0001
0100
0001
0000
1000
0010
1001
0000
0010
0100
,
0001
1000
0100
1000
0100
0001
1000
0010
,
0001
1000
0010
0000
1001
0000
1000
0010
0100
0010
1000
0100
0010
0100
1002
0000
,
0000
1003
0110
1000
1000
0011
1000
0120
,
0000
0031
1100
0001
0101
1010
0110
2100
,
0000
0000
3010
0000
1200
0000
0301
0000
0001
0000
0120
0030
1001
0000
0012
0000
,
0000
0000
1003
0000
0120
0030
1000
0000
1000
0000
0102
0003
1010
0000
2001
0000
,
0000
0000
3011
0000
0101
0000
1100
0000
1000
0000
0012
0003
1000
0000
0120
0000
,
0000
0000
0130
0000
1002
0003
0100
0000
0101
0000
1002
0003
0110
0000
2010
0000
,
0000
0000
3010
0100
1002
0003
0010
0000
0010
0000
0201
0300
1010
0000
2100
0000
,
0000
0000
3001
0010
1100
0000
0001
0000
0001
0000
1100
0000
0110
0000
0012
0000
,
1003
0100
0010
0001
1100
0000
0010
0000
0010
0000
2100
3000
0001
0000
0120
0000
,
0000
0000
1030
0000
0120
0030
1000
0000
1010
0000
0102
0003
1100
0000
0012
0000
,
1003
0100
1000
0000
0012
0003
1000
0000
1000
0000
0201
0300
1010
0000
1002
0000
,
0000
0000
0103
0010
1002
0003
0100
0000
0100
0000
0021
0030
1100
0000
2010
0000
,
0000
0000
3011
0000
0210
0300
1001
0000
0001
0000
2010
3000
0001
0000
0210
0000
,
0000
0000
0301
0000
2001
3000
0000
0000
0110
0000
1010
0000
0011
0000
2100
0000
,
0000
0000
3010
0000
2100
3000
0010
0000
0010
0000
0102
0003
1010
0000
1002
0000
,
1003
0100
1000
0100
0011
0000
0001
0010
0100
1000
0010
0100
1010
0000
1000
0100
,
0010
0001
1000
0100
1000
0100
0001
0010
0100
1000
0001
0010
0001
0010
0100
0010
,
1100
0001
0010
0100
1000
0010
0100
0010
1001
0100
0010
0001
0100
0010
0100
0010
,
1100
0001
1000
0001
0100
0010
0100
0000
1000
0100
0010
0001
0100
0010
0100
0010
,
1001
0100
0010
0001
0100
0010
0100
0010
1001
0100
1000
0100
1001
0010
0100
1000
,
0011
1000
0100
1000
0001
0010
0100
1000
0011
0000
1100
0000
0110
0000
0101
0000
,
1000
0100
1000
0100
1010
0001
0100
0010
1100
0010
1000
0100
1001
0100
0010
0001
,
1100
0000
0110
0120
0000
0000
0000
0000
,
1030
0100
0010
0001
1100
0000
0001
0010
0100
1000
0011
0000
0010
0100
0010
0100
,
0001
0010
0100
1000
0011
0000
0000
0000
0210
0000
0000
0312
0000
0000
0123
0000
,
1130
0001
1000
0001
1000
0001
1000
0001
1010
0100
1000
0100
1000
0100
1000
0100
,
1001
0010
0100
0010
0100
0010
0100
0010
1100
0001
0100
0010
1001
0100
0010
0001
,
1100
0010
1000
0010
1000
0100
0001
0010
2100
0000
0000
0000
0000
0000
0000
0000
,
3012
0000
0000
0000
1103
0110
0011
1100
,
0001
0010
0100
1000
0001
0010
0100
1000
0011
0100
0010
0100
0010
0100
0010
0100
,
1001
0010
0100
0000
0100
0000
1000
0100
1000
0000
1000
0000
0001
0010
0001
0000
,
0100
0000
1001
0000
1001
0110
0000
0110
1001
0000
0011
0000
1100
0000
0110
0000
,
0001
1000
0010
1000
0001
0110
1001
1010
,
0010
0001
1000
0010
0100
1010
1001
1100
,
0010
1000
0100
1000
0001
1100
0011
1010
,
0110
0000
0011
0000
1100
0000
0110
0000
1001
0000
0110
0000
0001
0010
0100
1000
,
0011
0000
1000
0000
0100
0000
1000
0000
0001
0000
0100
0000
0010
0000
1000
0100
,
0011
0100
0010
1000
0001
1000
1000
1000
,
0110
0001
0010
0001
1000
0010
0100
0001
,
1000
0100
1000
0000
0011
0000
0001
0010
0001
0010
0100
1000
0001
0010
0100
1000
,
0001
0000
1000
0000
0010
0100
0001
0000
0010
0000
0100
0000
0010
1000
0001
0000
,
1000
0100
0010
0001
1000
0100
0010
0001
1000
0100
1000
0001
0010
0001
0100
0010
,
2000
0000
0000
3200
0000
0000
0320
0000
0032
0000
0000
2003
0000
0000
3020
0000
,
0230
0000
0000
0302
0000
0000
2003
0000
3020
0000
0000
0230
0000
0000
0302
0000
,
1003
0100
0010
0001
1100
0000
0001
0000
1000
0000
0010
0000
0100
0000
0001
0010
,
1100
0000
1000
0000
0110
0000
0010
0000
1100
0000
0010
0000
0001
0010
1100
0000
,
0010
1000
0100
1000
0001
0100
0010
0001
,
2001
0000
0100
0000
0010
0000
0001
0000
0100
0010
0001
0000
3101
0000
0101
0000
,
1010
1000
0001
0001
0010
0010
0100
0100
,
0100
0010
0100
0000
0001
0000
0001
0000
1000
0000
1000
0000
0010
0000
2100
0000
,
3001
0001
0100
0100
0010
0010
1000
1000
,
0001
0010
0001
0000
1000
0000
1000
0000
0100
0000
0100
0010
0100
0010
1002
0000
,
1003
0100
0020
0000
1030
0100
0002
0000
0013
1000
0200
0000
0301
1000
0020
0000
,
1030
0100
2000
0000
3001
0010
0002
0000
0103
0010
0200
0000
0301
0000
1002
0000
,
0013
1000
0100
1000
0001
0100
0010
0001
,
1000
0100
0010
0001
1000
0100
0010
0001
0100
0010
0100
0001
0100
1000
0020
0000
,
0030
0000
1000
0010
1000
0100
0010
0001
1000
0010
1000
0100
0010
0001
1000
0010
,
1000
0100
0010
0001
0100
0010
0100
0010
1000
0100
0010
0001
1000
0100
0010
0001
,
1000
0000
0100
0000
1000
0000
0010
0000
0001
0000
0100
0000
0010
0000
0001
0010
,
0001
0010
0100
1000
0010
0100
0010
1000
0100
1000
0001
0010
0001
0100
0010
1000
,
0001
0000
0000
0010
0000
0000
0100
0000
0000
1000
0000
0000
0010
0000
0000
0100
0000
0000
0010
0000
0000
0100
0000
0000
0001
0000
0000
1000
0000
0000
0001
0000
0000
1000
0000
0000
0010
0000
0000
0000
1000
0000
0000
0000
0010
0000
0000
0000
,
0002
0000
0013
0100
1000
0001
0010
0100
1000
0001
0100
0010
1000
0100
0010
0001
,
1000
0100
1000
0001
0010
0001
0100
0010
0100
0001
0010
0001
1000
0100
0010
0001
,
1100
0010
0100
0010
1001
0000
1000
0010
1000
0100
0010
0001
1100
0000
0120
0000
,
0032
2003
3200
0320
0000
2030
0000
3002
,
0000
2003
3020
0230
0000
0302
2003
3200
,
0000
0302
2003
3020
0000
0032
0000
2003
,
0000
3200
0302
0023
0000
2030
3200
0320
,
0000
2030
3002
0203
0000
0000
0000
0000
,
0000
0302
2003
0000
3002
0203
0320
1032
,
0000
0000
0103
0000
0012
0003
0100
0000
0100
0000
0012
0003
1100
0000
2010
0000
,
0000
0000
0000
3002
0000
0000
1003
0000
0100
0000
1000
0000
0001
0000
0010
0000
0001
0000
2000
0000
0000
3012
0000
0000
,
0000
2003
3120
0032
0000
2003
3020
0230
,
0301
0010
0001
0010
0100
0010
0100
1000
0100
1000
0001
1000
,
0001
0000
0000
0000
0010
0000
0000
0000
0001
0000
0000
0000
0100
0000
0000
0010
0000
0000
0200
0000
0000
0000
0000
0000
0301
0000
0000
0000
1000
0000
0000
0000
0001
0000
0000
0000
1000
0000
0000
0000
0100
0000
0000
0000
1000
0000
0000
0000
,
0001
0000
0000
0000
0010
0000
0000
0000
0001
0000
0000
0000
1000
0000
0000
0100
0000
0000
1000
0000
0000
0100
0000
0000
1000
0000
0000
0100
0000
0000
0010
0000
0000
0001
0000
0000
1000
0000
0000
0100
0000
0000
0010
0000
0000
0001
0000
0000
,
0100
0010
0100
0010
1000
0001
2000
0000
0000
0000
3020
0000
0000
0000
2030
0000
,
0000
0000
0000
3002
0000
0000
0023
0000
0000
0230
0000
0000
0000
0000
0301
0000
0010
0000
0001
0000
0100
0000
0001
0000
,
1000
0100
0010
0001
1000
0100
0010
1000
0010
1000
0100
0010
0001
1000
0010
1000
,
0001
0010
0100
1000
0001
0010
0100
1000
0011
0000
0110
0000
1100
0000
0120
0000
,
1030
0100
0010
0001
1000
0100
0010
0001
0100
0010
0100
0010
0100
0010
0100
0010
,
1001
0100
1000
0010
0100
0010
1000
0001
0110
1000
0010
0100
0001
0100
0001
0100
,
2010
0000
0000
0000
0000
0000
0000
0000
3001
0010
0100
1000
0010
0100
0010
0100
,
0011
1000
0001
1000
0001
1000
0001
1000
0101
0010
1000
0010
1100
0001
0010
0001
,
1100
0001
0010
0100
1000
0010
0100
0010
1100
0000
0110
0000
0011
0000
1001
0000
,
0001
0010
0100
1000
0011
0100
0010
0100
0011
1000
0001
1000
0011
0100
0010
0100
,
1010
0100
0001
0100
1001
0000
1002
0000
0000
0000
0000
0000
0000
0000
0000
0000
,
1003
0100
0010
0001
1000
0000
0001
0010
0100
1000
0001
0000
0100
0010
0100
0010
,
1000
0100
0010
0001
1100
0000
0000
0000
0012
0000
0000
2103
0000
0000
3120
0000
,
1032
0000
2103
0000
,
3201
0000
0312
2103
,
3012
0000
0000
0000
0000
0000
1003
0100
2010
0000
0000
0000
0000
0000
0000
0000
,
3012
0000
0000
0000
0113
1100
0011
1100
,
1000
0001
1000
0001
1000
0001
1000
0001
0110
0001
0100
0001
0100
0001
0100
0001
,
1010
0100
0010
0000
0010
0000
0010
0100
0001
0000
0001
0000
0001
1000
0100
0000
,
0010
0000
1100
0000
1100
0011
0000
0011
1200
0300
1020
0030
0102
0003
2100
0000
,
0010
0001
0100
3001
1000
0101
0110
1100
,
0001
0001
0010
0010
0100
1001
1100
0101
,
0010
0001
0100
0001
1000
0101
1010
1100
,
0011
0000
0011
0000
1010
0000
1010
0000
0101
0000
1010
0000
1000
0100
1002
0000
,
0013
0100
0001
0100
1010
0000
0100
0000
0001
0000
0010
0000
1000
0000
0001
0010
,
1100
0000
0100
0000
0010
0000
0010
0000
0001
0000
1000
0000
1000
0000
1000
0100
,
0011
0000
0100
0000
0001
0000
0100
0000
1000
0000
0001
0000
0010
0000
1000
0100
,
1000
0100
0010
0001
1000
0100
0010
0001
0100
0010
0100
0010
1000
0001
1000
0001
,
0100
0000
0010
0000
0010
0100
1000
0000
0100
0000
0010
0000
0010
0100
1000
0000
,
0001
0010
0100
1000
0001
0010
0001
1000
0100
1000
0010
0100
0010
1000
0100
0010
,
0002
0000
0000
0023
0000
0000
2030
0000
3200
0000
0000
0320
0000
0000
0032
0000
,
2003
0000
0000
3200
0000
0000
0320
0000
0032
0000
0000
2003
0000
0000
3020
0000
,
1030
0100
0010
0001
1100
0000
0001
0000
1000
0000
0100
0000
0010
0000
1000
0100
,
0011
0000
0001
0000
0110
0000
0010
0000
1100
0000
0001
0000
0001
1000
0011
0000
,
0010
0100
0001
0100
1000
0100
0010
1000
,
0101
0010
1000
0100
1010
0000
0100
0010
0100
0010
1000
0100
0010
0001
2100
0000
,
3001
0010
0001
0010
0100
1000
0010
0100
0010
0100
0001
0010
0100
1000
0010
0100
,
0001
0010
0100
1000
0001
0010
0100
1000
0010
0100
0010
0100
0001
1000
0001
1000
,
0010
0100
0010
1000
0100
1000
0001
0010
0001
0100
0010
0100
0001
1000
0001
1000
,
0010
0100
0010
1000
0100
1000
0001
0010
0001
0100
0010
0100
0001
0010
0100
1000
,
0010
0100
0010
0100
0001
1000
0001
1000
0010
1000
0010
1000
0001
0100
0001
0100
,
0010
0100
0010
0100
0001
0010
0001
1000
0001
0100
0001
0010
0001
0010
2100
0000
,
0000
0000
0000
0000
0000
3002
0203
0320
,
0000
0000
0000
0000
0000
0000
1030
0100
1000
0100
1000
0010
1000
0100
0020
0000
,
1030
0100
1000
0010
1000
0010
0100
0001
0100
0001
1000
0010
1000
0100
0010
0001
,
1000
0010
1000
0100
0010
0001
1000
0010
1000
0100
0010
0001
0100
0010
1000
0100
,
0010
0001
0100
0010
0100
0010
1000
0001
1000
0001
0100
0010
0100
0010
0100
0001
,
1000
0100
0020
1030
0100
0020
1030
0100
0020
0032
0103
0010
0100
0010
1000
0100
,
0001
0000
0000
0000
0010
0000
0000
0000
0100
0000
0000
0000
1000
0000
0000
0010
0000
0000
1000
0000
0000
0010
0000
0000
0100
0000
0000
0010
0000
0000
0100
0000
0000
0010
0000
0000
1000
0000
0000
0100
0000
0000
0010
0000
0000
0001
0000
0000
,
1000
0100
0010
0001
1000
0100
0010
0001
0100
0010
0100
0010
1000
0100
1000
0100
,
1000
0001
1000
0001
0100
0010
0100
0010
1000
0100
1000
0001
0010
0001
0100
0010
,
0100
0001
0010
0001
1000
0100
1000
0010
0100
0010
1000
0100
0010
0001
2100
0000
,
0000
3020
0230
0001
0001
0001
0001
0001
,
0001
0010
0001
0000
0001
0000
0001
0000
0001
0000
2300
0000
3002
0000
2003
0000
,
0000
3020
1032
1000
1000
1000
1000
1000
,
1000
0100
1000
0000
1000
0000
1000
0000
1000
0000
0023
0000
0230
0000
1302
0000
,
0000
0023
2031
0001
0001
0001
0001
0001
,
3201
0010
0001
0000
0001
0000
0001
0000
2301
0000
0010
0000
0010
0000
3202
0003
,
0000
0000
2300
0000
3102
0000
0100
0000
0100
0000
0100
0000
0013
0100
2000
0000
,
0000
3001
0110
1000
0101
0110
1100
1002
,
0000
0000
0000
0000
,
0000
0000
0000
0003
0000
0000
1000
0010
0202
0000
0303
0000
0000
0000
0000
0000
0000
0000
0000
0000
0000
0000
0000
0000
;
