#TITLE:0x1311;
#SUBTITLE:;
#ARTIST:nao.paradigm;
#TITLETRANSLIT:;
#SUBTITLETRANSLIT:;
#ARTISTTRANSLIT:;
#CREDIT:;
#BANNER:0x1311-bn.png;
#BACKGROUND:0x1311-bg.png;
#LYRICSPATH:;
#CDTITLE:!bahamutxCDtitle.png;
#MUSIC:0x1311.mp3;
#OFFSET:-7.510;
#SAMPLESTART:14.801;
#SAMPLELENGTH:12.000;
#SELECTABLE:YES;
#DISPLAYBPM:65.000:130.000;
#BPMS:0.000=130.000,110.000=65.000,111.000=32.500,125.000=65.000,126.500=260.000,128.500=130.000,192.000=65.000,193.000=32.500;
#STOPS:128.500=1.155
;
#BGCHANGES:;
// cache tags:
#FIRSTBEAT:0.000;
#LASTBEAT:193.500;
#SONGFILENAME:Songs/Fresh Flock of Fantastic Files F4/(Bahamut-X) 0x1311/0x1311.sm;
#HASMUSIC:1;
#HASBANNER:1;
#MUSICLENGTH:121.312;
// end cache tags

//---------------dance-single - ----------------
#NOTES:
     dance-single:
     :
     Hard:
     10:
     1.000,1.000,1.000,0.297,1.000,754.000,175.000,36.000,0.000,0.000:
1001
0000
1000
0001
0010
0001
1000
0000
0001
1000
0100
1000
0011
0000
1001
0000
,
0100
1000
0010
1000
0100
0000
0010
1000
0001
1000
0010
0100
0011
0000
1001
0000
,
0100
0010
1000
0100
0010
0000
0010
0001
1000
0100
1000
0001
0110
0000
1001
0000
,
0101
0000
0000
0000
0100
0000
0010
0000
0100
0000
1000
0000
0001
0000
0010
0000
0100
0000
1000
0000
0100
0000
0010
0000
1001
0000
0000
0000
0000
0000
0010
0000
0000
0100
0000
0000
1001
0000
0000
0100
0000
0000
0010
0000
0000
0000
0000
0000
,
1001
0000
1000
0100
1000
0100
0011
1100
0000
0000
1010
0000
0110
0000
0101
0000
,
1100
0000
0101
0000
0001
0100
0001
0100
1010
0100
0100
1010
0000
0100
1010
0000
,
0101
0000
0100
0010
0100
0010
1100
0011
0000
0000
0101
0000
0110
0000
1100
0000
,
0110
0000
1010
0000
0100
1000
0100
1000
0011
0000
0011
0000
0011
0011
0011
0000
,
1010
0000
1000
0100
1000
0100
1010
0101
0000
0000
0011
0000
1010
0000
0110
0000
,
0101
0000
0000
0000
0000
0000
0010
0000
0000
0000
0000
0000
0100
0000
0000
1000
0000
0000
0100
0000
0000
0010
0000
0000
0001
0000
0100
0000
0001
0000
0100
0000
0000
1001
0000
0000
0000
0000
0000
0000
0000
0000
1001
0000
0000
1001
0000
0000
,
1010
0000
0001
0100
0001
0100
1001
0110
0000
0000
1100
0000
1010
0000
1001
0000
,
1100
0000
0000
0000
0000
0000
1001
0000
0000
0000
0000
0000
0100
0000
0000
1000
0000
0000
0001
0000
0000
0100
0000
0000
0010
0000
0001
0000
1000
0000
0001
0000
0000
0000
0000
0000
0000
0000
0000
0000
0000
0000
0100
0000
1000
0000
0001
0000
,
0110
1000
0001
1000
0100
0010
0100
1010
0010
0110
0010
0011
1000
0100
1000
0001
,
1000
0100
0010
0100
0010
0001
1000
0001
0100
0010
0100
0001
0010
0001
1000
0010
,
1100
0000
0100
0001
1100
0000
0101
0000
0000
1000
0100
0000
0011
0000
0000
0000
,
0000
0010
0100
0000
1001
0000
0110
0000
0000
0001
0000
0001
1000
0000
0110
0000
,
0110
1000
0001
0100
0010
0100
0010
1100
1000
1010
1000
1001
0100
0010
0001
1000
,
0001
0000
0010
0000
0100
0000
0010
0000
0100
0000
1000
0000
0001
0000
1000
0000
0010
0000
0100
0000
0010
0000
1000
0000
0100
0000
1000
0000
0001
0010
0100
1000
,
0011
0000
0000
0000
0100
0000
0010
0000
1000
0000
0000
0000
0100
0000
0010
0001
1000
0000
0100
0000
1000
0000
0000
0000
0100
0000
0000
0000
0000
0000
0000
0000
,
0001
0000
0010
0000
0000
0000
0100
0000
1000
0000
0000
0000
1000
0000
0100
0010
0001
0000
0010
0000
0000
0000
0000
0000
0001
1000
0100
0000
0001
1000
0100
0010
,
1001
0100
1000
0100
0010
0001
0010
0100
1000
0001
0010
0100
0010
0001
0010
0100
,
1000
0000
0010
0000
0100
0000
0001
0000
0100
0000
0010
0000
1000
0000
0001
0000
1010
0000
0000
0000
0110
0000
0000
0000
0001
0000
1000
0000
0001
1000
0100
0000
,
1001
0100
0010
0100
1000
0001
0100
0001
0100
0010
1000
0010
1000
0001
1000
0100
,
0011
0100
1000
0001
1000
0100
0010
0001
0100
0010
1000
0010
0100
0001
0010
0100
,
0011
1000
0100
0010
0100
0001
0010
1000
0010
0001
0100
1000
0100
0001
0100
1000
,
0100
0000
0010
0000
0001
0000
1000
0000
0100
0000
1000
0000
0001
0000
0010
0000
1001
0000
0000
0000
0110
0000
0000
0000
0001
0000
0100
0000
0010
0001
0100
0000
,
0011
1000
0001
1000
0001
0100
0010
0100
0010
1000
0100
0010
0001
0010
0100
1000
,
0011
0000
0000
0000
0100
0000
0000
0000
0010
0000
0000
0000
1000
0000
0000
0000
0100
0000
0000
0000
0010
0000
0000
0000
0100
0000
0000
0000
1000
0000
0000
0000
0011
0000
0000
0000
1000
0000
0100
0000
0010
0000
0000
0000
0001
0000
0000
0000
1000
0010
1000
0100
0011
0000
1000
0100
2002
3003
0000
0000
0000
0000
0100
0010
,
1001
0010
0100
1000
0101
0000
0001
1000
0220
0330
0000
0000
0000
0000
0001
0010
0101
1000
0100
0010
1100
0000
0001
0010
2002
3003
0000
0000
0000
0000
0100
0001
1010
0100
0001
0100
1010
0000
0001
0010
2002
3003
0000
0000
0000
0000
1000
0001
0110
0001
1000
0010
1100
0000
0100
0010
2002
3003
0000
0000
0000
0000
0100
0001
,
1100
0010
1000
0001
1010
0000
0100
0001
0220
0330
0000
0000
0000
0000
1000
0100
0011
1000
0100
1000
0011
0000
0100
0001
0220
0330
0000
0000
0000
0000
0001
0010
1100
0001
0010
0001
1100
0000
0010
1000
0220
0330
0000
0000
0000
0000
0100
0010
1001
0010
0100
1000
0101
0000
0001
1000
0220
0330
0000
0000
0000
0000
0001
0010
,
0101
1000
0100
0010
1100
0000
0001
0010
2002
3003
0000
0000
0000
0000
0100
0001
1010
0100
0001
0100
1010
0000
0001
0010
2002
3003
0000
0000
0000
0000
1000
0100
1010
0001
0010
0100
0011
0000
1000
0100
2002
3003
0000
0000
0000
0000
1000
0100
0001
0001
1000
1000
0100
0100
1000
1000
0001
0001
0010
0010
0100
0100
0010
0010
,
1000
1000
0010
0010
1000
1000
0100
0100
0001
0001
0010
0010
0001
0001
1000
1000
0001
0000
1000
0000
0001
0000
1000
0000
0001
0000
1000
0000
0001
0000
1000
0000
0001
0000
1000
0000
0001
0000
1000
0000
0001
0000
0000
0000
1000
0000
0000
0000
0001
0000
0000
0000
1000
0000
0000
0000
0001
0000
0000
0000
1000
0000
0000
0000
,
0001
1000
0011
0000
1001
0000
0000
0000
1100
0000
0101
0000
0000
0011
0000
0110
,
0000
1000
0101
0000
0011
0000
0110
0000
1100
0000
1001
0000
0000
0101
0000
0010
,
1000
0100
1000
0000
0010
0000
1100
0000
0010
0000
0100
0000
1001
0000
0000
0000
0011
0000
0000
0000
1010
0000
0000
0000
0000
0000
1100
0000
0000
0000
0101
0000
,
0000
0001
0110
0000
1100
0000
0110
0000
0011
0000
0101
0000
0000
1100
0000
0100
,
0011
0000
0000
0000
1010
0000
0000
0000
1010
0000
1100
0000
0101
0000
0000
0000
1001
0000
0000
0000
0001
0000
1000
0000
0002
0003
1000
0000
0101
0000
1010
0000
,
0000
0000
0000
0000
1010
0000
0000
0000
2200
3300
0000
0000
0101
0000
0000
0000
0011
0000
0000
0000
1100
0000
0000
0000
0002
0003
0010
0000
0100
0000
1000
0000
,
0010
0000
0000
0000
0000
0000
0000
0000
0100
0000
0000
0000
0000
0000
0000
0000
0010
0000
0000
0000
0000
0000
0000
0000
0100
0000
0000
0000
0000
0000
0000
0000
0000
0000
0000
0000
2002
0000
0000
0000
0000
0000
3003
0000
0000
0000
0000
0000
0000
0000
0000
0000
0000
0000
0000
0000
0000
0000
0000
0000
0000
0000
0000
0000
0000
0000
0000
0000
0000
0000
0000
0000
1100
0000
0000
0000
0000
0000
0000
0000
0000
0000
0000
0000
1100
0000
0000
0000
0000
0000
0000
0000
0000
0000
0000
0000
0110
0000
0000
0000
0000
0000
0000
0000
0000
0000
0000
0000
0000
0000
0000
0000
0000
0000
0000
0000
0000
0000
0000
0000
1000
0000
0000
0000
0000
0000
0000
0000
0000
0000
0000
0000
0010
0000
0000
0000
0000
0000
0000
0000
0000
0000
0000
0000
2000
0000
0000
0000
0000
0000
3000
0000
0000
0000
0000
0000
0010
0000
0000
0000
0000
0000
0000
0000
0000
0000
0000
0000
1100
0000
0000
0000
0000
0000
0000
0000
0000
0000
0000
0000
0011
0000
0000
0000
0000
0000
0000
0000
0000
0000
0000
0000
,
0000
0000
0000
0000
0011
0000
0000
0000
2020
3030
0000
0000
1100
0000
0000
0000
0101
0000
0000
0000
1010
0000
0000
0000
0200
0300
0001
0000
1000
0000
0010
0000
,
0100
0000
1000
0000
0001
0000
1000
0000
0000
0000
0000
0000
0000
0000
0000
0000
0000
0000
0001
0000
1000
0000
0001
0000
1100
0000
0000
0001
0000
0000
1000
0000
0000
0100
0000
0000
0010
0000
0000
0001
0000
0000
0010
0000
0000
0100
0000
0000
,
0010
1000
0010
1000
0100
0010
0100
1000
0100
0010
1000
0010
0001
0010
1000
0100
,
0011
0000
0000
0000
1010
0000
0000
0000
1000
0000
0010
0000
0100
1000
0010
0000
1100
0000
0001
0000
1000
0000
0100
0000
0001
0000
0100
0000
1000
0000
0010
0000
,
1000
0001
1000
0100
0010
0100
1000
0100
0011
1000
0100
0001
1000
0010
0001
0010
,
0100
0010
0001
0010
1001
0000
0000
0000
1001
0010
0100
1000
0100
0001
1000
0100
,
1000
0010
0100
1000
0100
0001
0100
1000
0010
1000
0100
1000
0010
0100
0010
0100
,
1001
0000
0000
0000
1100
0000
0000
0000
0001
0000
1000
0000
0010
0001
0100
0000
1010
0000
0001
0000
1000
0000
0100
0000
1000
0000
0010
0000
0100
0000
0010
0000
,
1000
0100
0010
0100
1000
0001
1000
0001
0110
1000
0001
0010
0100
0010
0001
1000
,
0110
0000
0001
0010
0100
0000
1000
0000
2002
0000
0000
0000
3003
0000
0000
0000
0000
0000
0000
0000
0000
0000
0000
0000
0000
0000
0000
0000
0000
0000
0000
0000
;
