#TITLE:TetrimaX;
#SUBTITLE:;
#ARTIST:KgZ;
#TITLETRANSLIT:;
#SUBTITLETRANSLIT:;
#ARTISTTRANSLIT:;
#CREDIT:;
#BANNER:tetrimaxban.jpg;
#BACKGROUND:tetrinet.jpg;
#LYRICSPATH:;
#CDTITLE:;
#MUSIC:TetrimaX.mp3;
#OFFSET:-0.060;
#SAMPLESTART:71.997;
#SAMPLELENGTH:12.000;
#SELECTABLE:YES;
#BPMS:0.000=140.000;
#STOPS:;
#BGCHANGES:;
// cache tags:
#FIRSTBEAT:0.000;
#LASTBEAT:406.000;
#SONGFILENAME:Songs/Keys of Flames/TetrimaX (KgZ)/tx.sm;
#HASMUSIC:1;
#HASBANNER:1;
#MUSICLENGTH:174.915;
// end cache tags

//---------------dance-single - Blank----------------
#NOTES:
     dance-single:
     Blank:
     Hard:
     11:
     0.954,0.986,1.000,0.120,0.472,788.000,359.000,21.000,0.000,0.000:

1001
0100
0100
0100
0100
0100
0100
0100
,
1100
1100
1100
1100
1100
1100
1100
1100
,
0110
0110
0110
0110
0110
0110
0110
0110
,
1100
0010
1100
0010
0101
1000
0101
1000
,
2002
0000
0000
0000
0000
0000
0000
3003
,
1000
0100
0010
0001
1000
0100
0010
0001
1000
0100
0010
0001
1000
0100
0010
0001
,
1000
0100
0010
0001
1000
0100
0010
0001
1000
0100
0010
0001
1000
0100
0010
0001
,
0110
0001
0110
0001
0110
1000
0110
1000
,
0011
0110
0011
0100
0010
1100
0001
0110
,
1000
1100
1010
0110
0011
0010
1100
0010
,
0101
1010
0101
1000
0100
1100
0001
0110
,
0100
1001
1100
0101
0011
1000
0101
0010
,
1001
0000
0110
0000
1001
0000
0100
1000
0100
0000
1100
0010
0100
0010
1001
0000
,
0100
1001
1100
0110
0011
1000
0110
0010
,
0101
0000
0110
0000
0101
0000
0010
0100
0010
0000
1100
0010
0100
1000
0101
0000
,
0010
0000
0110
0000
0101
0000
0110
0000
1010
0001
0010
0100
1001
0000
0010
0000
,
0110
0000
1100
0000
0110
0000
0001
0100
0001
0000
1100
0001
0010
1000
0110
0000
,
1000
0000
0110
0000
1010
0000
1001
0000
1100
0010
0100
1000
0110
0000
0010
0000
,
1100
0000
1001
0000
1100
0000
0010
0100
0001
0000
0110
1000
0100
0010
1100
0000
,
0010
1001
1010
0110
0011
1000
0110
0010
,
2002
0000
0000
0000
,
0000
0000
0000
0000
,
0000
0000
0000
0000
,
0003
0000
0010
0000
0100
0000
0001
0000
0100
0000
0010
0000
0001
0000
0010
3000
,
0200
0000
0000
0000
,
0000
0300
0001
0010
0001
0100
0011
0100
,
1000
0020
0000
0000
0000
0000
0000
0000
,
0000
0030
0100
1000
0100
0010
0001
0010
,
2002
0000
0000
0000
0000
0000
0000
0000
0000
0000
0000
0000
0000
0000
0000
3003
,
1000
0100
0010
0001
1000
0100
0010
0001
1000
0100
0010
0001
1000
0100
0010
0001
,
1000
0100
0010
0001
1000
0100
0010
0001
1000
0100
0010
0001
1000
0100
0010
0001
,
0110
1001
0110
1001
1100
0011
1100
0011
,
1001
0110
1001
0100
1000
0110
0100
1001
,
0100
0110
1001
1100
0011
0100
1010
0001
,
0011
0110
0011
1000
0100
0110
0001
0011
,
1000
0011
1100
1010
0101
0010
0110
1000
,
0101
0000
1010
0000
0101
0000
0100
0010
0100
0000
1010
0100
0010
1000
0101
0000
,
0010
0000
0101
0000
0110
0000
1010
0000
1001
0100
1000
0001
0110
0000
1000
0000
,
0110
0000
0101
0000
0110
0000
0001
1000
0010
0000
0101
0000
0010
0000
0110
0000
,
0001
0000
1100
0000
0110
0000
1010
0000
1001
0100
0010
0001
1010
0000
0100
0000
,
1100
0000
1010
0000
1100
0000
0001
0100
0001
0000
1010
0000
0100
0000
1100
0000
,
0010
0000
1100
0000
1001
0000
0110
0000
1010
0001
0010
0001
0110
0000
0100
0000
,
1010
0000
0101
0000
1010
0000
0100
0010
0001
0000
0101
0000
0010
0000
1010
0000
,
0100
0000
1010
0000
1100
0000
0110
0000
1001
0010
0100
1000
0110
0000
0001
0000
,
1000
0000
0100
0000
0000
1000
0000
1000
0100
0000
0010
0000
0000
0001
0000
0001
,
0010
0000
1000
0000
0000
1000
0000
1000
0011
0000
0110
0000
1100
0000
0110
0000
,
0100
0000
1100
0000
0000
1000
0000
1000
0100
0000
0011
0000
0000
0001
0000
0100
,
1000
0000
0110
0000
0000
0010
0000
0010
1100
0000
0110
0000
1010
0000
1100
0000
,
1001
0000
1001
0000
0000
1100
0000
1100
0010
0000
0011
0000
0000
0101
0000
0101
,
0010
0000
0110
0000
0000
0110
0000
0001
0110
0000
0101
0000
0011
0000
0101
0000
,
1010
0000
1010
0000
0000
0101
0000
0101
1000
0000
1100
0000
0000
1100
0000
1100
,
0001
0000
0110
0000
0000
1010
0000
0010
1100
0000
0101
0000
0011
0000
0101
0000
,
1001
0100
1100
0100
1001
0100
1100
0100
,
1001
0000
0000
1100
0000
0000
1100
0000
0011
0000
0000
0101
0000
0000
0101
0000
,
1001
0010
1100
0010
1001
0010
1100
0010
,
0110
0000
0110
0000
0110
0000
1000
0100
0010
0001
0010
0001
0010
0001
0010
0001
,
1010
0100
1100
0100
1010
0100
1100
0100
,
1010
0000
0000
1100
0000
0000
1100
0000
0011
0000
0000
0101
0000
0000
0101
0000
,
1010
0001
1100
0001
1010
0001
1100
0001
,
1001
0000
1001
0000
1001
0000
1000
0100
1010
0001
0110
0001
1010
0001
0110
0001
,
0110
0100
0100
0100
0100
0100
0100
0100
,
1100
0000
0010
1100
0010
0000
0011
0000
0100
0011
1000
0000
0220
0000
0000
0330
,
1001
0001
0001
0001
0001
0001
0001
0001
,
0101
1010
0101
1010
1100
0011
1100
0011
,
1010
0010
0010
0010
0010
0010
0010
0010
,
0110
0000
0001
0110
0001
1010
0000
0011
1000
0000
0011
0000
2200
0000
0000
3300
,
0011
0001
0001
0001
0001
0001
0001
0001
,
0011
0101
0011
0101
1100
0101
1100
0101
,
1001
0000
1000
0000
0000
1000
0000
1000
0100
0000
1000
0000
0000
0010
0000
0010
,
0100
0000
0001
0000
0000
0001
0000
0001
0110
0000
0101
0000
0011
0000
0101
0000
,
0110
0000
0100
0000
0000
0100
0000
0100
0001
0000
0001
0000
0000
0010
0000
0010
,
1000
0000
0100
0000
0000
0100
0000
0010
1100
0000
0110
0000
1010
0000
1100
0000
,
1001
0000
1001
0000
0000
1100
0000
1100
0010
0000
0011
0000
0000
0101
0000
0101
,
1000
0000
1100
0000
0000
1001
0000
1001
0110
0000
1010
0000
0101
0000
0110
0000
,
1001
0000
0011
0000
0000
0011
0000
0101
1000
0000
1100
0000
0000
1010
0000
1010
,
0100
0000
0110
0000
0000
0110
0000
1010
0101
0000
1010
0000
0011
0000
0101
0000
,
2002
0000
0000
0000
,
0000
0000
0000
0000
,
0000
0000
0000
0000
,
0003
0000
0001
0000
0010
0000
0100
0000
0010
0000
0100
0000
0001
0000
0010
3000
,
0200
0000
0000
0000
,
0000
0300
0001
0010
0101
0010
1100
0001
,
0010
2002
0000
0000
0000
0000
0000
0000
,
0000
3003
0110
1000
0110
0001
0011
1000
,
1001
0100
0100
0100
0100
0100
0100
0100
,
1000
0100
0010
0001
1000
0100
0010
0001
1000
0100
0010
0001
1000
0100
0010
0001
,
1000
0100
0010
0001
1000
0100
0010
0001
1000
0100
0010
0001
1000
0100
0010
0001
,
1010
1100
1010
1100
0011
0101
0011
0101
,
1001
0000
1100
0000
1001
0000
0100
0010
0100
0000
1100
0001
0010
0100
1001
0000
,
0010
0000
1100
0000
1001
0000
0110
0000
0011
1000
0100
0010
0101
0000
0010
0000
,
0101
0000
0110
0000
0101
0000
0001
1000
0001
0000
0110
0000
0010
0000
0101
0000
,
1000
0000
0110
0000
0101
0000
1010
0000
1100
0001
0010
0100
1010
0000
0001
0000
,
1010
0000
0110
0000
1010
0000
0001
1000
0001
0000
0110
0000
0001
0000
1010
0000
,
0100
0000
0110
0000
1010
0000
1100
0000
1001
0010
0100
0001
0110
0000
0100
0000
,
1001
0000
0011
0000
1001
0000
0010
0100
1000
0000
0011
0000
0100
0000
1001
0000
,
0010
0000
0011
0000
0101
0000
1010
0000
1100
0010
1000
0010
0101
0000
0010
0000
,
2002
0000
0000
0000
,
0000
0000
0000
0000
,
0000
0000
0000
0000
0000
0000
0000
0003
,
0010
0100
0010
0000
0000
0000
0000
0000
0010
0100
0010
0000
0000
0000
0000
0000
,
3001
0010
0100
1000
0001
0010
0100
1000
0022
0000
0000
0000
0000
0000
0000
0000
,
0000
0000
0033
0000
;
