#TITLE:Angus Dei;
#SUBTITLE:;
#ARTIST:Asaki;
#TITLETRANSLIT:;
#SUBTITLETRANSLIT:;
#ARTISTTRANSLIT:;
#CREDIT:;
#BANNER:Angus Dei.png;
#BACKGROUND:Angus Dei-bg.png;
#LYRICSPATH:;
#CDTITLE:NVLM-cdtitle.png;
#MUSIC:Angus Dei.mp3;
#OFFSET:-8.433;
#SAMPLESTART:19.848;
#SAMPLELENGTH:12.000;
#SELECTABLE:YES;
#DISPLAYBPM:168.000;
#BPMS:0.000=168.000,173.000=336.000,173.500=168.000,174.000=84.000,174.500=168.000;
#STOPS:174.500=0.500
;
#BGCHANGES:;
// cache tags:
#FIRSTBEAT:0.000;
#LASTBEAT:279.000;
#SONGFILENAME:Songs/new/Angus Dei/Angus Dei.sm;
#HASMUSIC:1;
#HASBANNER:1;
#MUSICLENGTH:108.887;
// end cache tags

//---------------dance-single - ----------------
#NOTES:
     dance-single:
     :
     Hard:
     9:
     0.613,0.577,0.459,0.202,0.005,395.000,50.000,22.000,0.000,0.000:  // measure 1
2002
0000
3003
0000
0010
0100
0001
1000
,  // measure 2
2200
3300
0022
0033
,  // measure 3
2000
3100
0002
0013
,  // measure 4
0200
1300
0020
0130
,  // measure 5
2002
0000
3003
0000
0100
0010
0001
0100
,  // measure 6
0010
1000
0001
0010
0100
1000
0010
0100
,  // measure 7
0001
1000
0100
0001
0100
1000
0010
0100
,  // measure 8
2002
0000
0000
3003
,  // measure 9
0010
0010
1000
1000
0100
0100
0010
0010
,  // measure 10
0001
0001
0100
0100
0010
0010
1000
1000
,  // measure 11
0001
0001
0010
0010
1000
1000
0010
0010
,  // measure 12
0001
0001
0100
0100
0010
0010
1000
1000
,  // measure 13
0100
0100
0001
0001
0010
0010
0100
1000
,  // measure 14
0010
0100
0001
1000
1100
0000
0010
0001
,  // measure 15
0100
1000
0100
0010
1000
0001
0010
0100
,  // measure 16
1000
0010
0100
0001
1000
0100
0001
0100
,  // measure 17
0010
1000
0001
0010
0100
1000
0100
0010
,  // measure 18
1001
1001
1100
0110
,  // measure 19
0011
0000
0101
0000
1000
0100
1000
0100
,  // measure 20
0010
0000
0001
0000
0100
0001
0010
0100
,  // measure 21
1000
0001
1000
0001
0010
0100
0010
0100
,  // measure 22
1000
0010
1000
0010
0100
0001
0100
0001
,  // measure 23
1000
0100
0010
0001
0100
1000
0100
0010
,  // measure 24
1000
0001
0100
0010
0001
0010
1000
0001
,  // measure 25
0010
0100
1100
0000
1010
0000
0100
0001
,  // measure 26
1000
0100
0001
0100
0010
0001
0101
0000
,  // measure 27
1000
0100
0001
0100
1000
0010
0100
0001
,  // measure 28
0010
0100
1000
0010
0100
0001
1000
0100
,  // measure 29
0001
0001
0110
0000
0011
0101
0000
0000
,  // measure 30
0000
0000
1000
0001
0100
0010
1000
0001
,  // measure 31
0100
0010
0001
0100
0010
1000
0001
0100
,  // measure 32
0010
1000
0100
0010
0001
0100
1000
0010
,  // measure 33
0100
0001
1000
0100
0001
0100
0010
0001
,  // measure 34
1000
1000
0100
0100
0001
0001
0010
0010
,  // measure 35
0100
0100
1000
1000
0010
0100
0001
1000
,  // measure 36
0010
0001
0100
0000
0010
0000
0001
0000
,  // measure 37
0100
0000
0000
0000
0010
0000
0000
0000
1000
0000
0000
0000
0001
0000
0000
0001
,  // measure 38
0000
0010
0100
0000
1000
0000
0010
0000
,  // measure 39
0100
0001
1000
0100
,  // measure 40
0010
0001
0100
0010
,  // measure 41
1000
0001
0010
0100
,  // measure 42
1000
0010
0100
0001
,  // measure 43
1000
0100
0010
0001
,  // measure 44
0100
0000
0000
0000
2002
0000
0000
0000
0000
0000
0000
3003
0000
0000
0000
0000
,  // measure 45
0010
0100
1000
0010
0100
0001
1000
0100
,  // measure 46
0010
0001
0100
1000
0010
0100
0001
0100
,  // measure 47
1000
0010
0100
0001
1000
0100
0001
0100
,  // measure 48
0010
1000
0001
0010
0100
1000
0010
0100
,  // measure 49
0001
1000
0100
0010
0001
0100
1000
0100
,  // measure 50
0010
1000
0001
0010
0100
1000
0010
0100
,  // measure 51
0101
1001
1100
0110
,  // measure 52
0011
0101
1010
0110
,  // measure 53
0001
0010
0100
1000
0010
0100
0001
1000
,  // measure 54
1100
0110
0011
1001
,  // measure 55
0010
0100
1000
0010
0100
0001
1000
0100
,  // measure 56
0110
0011
1001
1010
,  // measure 57
0110
0101
0011
0110
,  // measure 58
1100
0000
1010
0000
0001
0010
0100
1000
,  // measure 59
0010
0100
0001
1000
0100
0010
0001
0100
,  // measure 60
0110
1010
1100
0101
,  // measure 61
0011
0000
0110
0000
0100
1000
0010
0100
,  // measure 62
0001
0010
0100
1000
0010
0100
0001
1000
,  // measure 63
0100
0100
0100
0100
,  // measure 64
0000
0000
0000
0000
,  // measure 65
2002
0000
0000
0000
,  // measure 66
0000
0000
3003
0000
0000
0220
0000
0000
,  // measure 67
0000
0000
0000
0000
,  // measure 68
0000
0000
0000
0000
0000
0330
0000
0000
,  // measure 69
0000
2002
0000
0000
,  // measure 70
0000
0000
0000
3003
;

//---------------dance-single - ----------------
#NOTES:
     dance-single:
     :
     Challenge:
     10:
     0.733,0.801,0.707,0.377,0.096,441.000,77.000,41.000,0.000,0.000:  // measure 1
2002
0000
3003
0000
0010
0100
0001
1000
,  // measure 2
2200
0000
0000
3300
0022
0000
0000
0033
,  // measure 3
2001
3100
1002
0013
,  // measure 4
0210
1300
1020
0130
,  // measure 5
2002
0000
3003
0010
0100
0010
0001
0100
,  // measure 6
0010
1000
0001
0010
0100
1000
0010
0100
,  // measure 7
0001
1000
0100
0001
0100
1000
0010
0100
,  // measure 8
2002
0000
0000
3003
,  // measure 9
0110
0001
1000
0010
0100
1000
0010
0100
,  // measure 10
0001
0010
0100
1000
0010
0001
1000
0100
,  // measure 11
0001
0100
0010
0001
1000
0100
0010
1000
,  // measure 12
0001
0010
0100
1000
0010
0001
1000
0010
,  // measure 13
0100
1000
0001
0100
0010
0001
0100
1000
,  // measure 14
0010
0100
0001
1000
1100
0100
0010
0001
,  // measure 15
0100
1000
0100
0010
1000
0001
0010
0100
,  // measure 16
1000
0010
0100
0001
1000
0100
0001
0100
,  // measure 17
0010
1000
0001
0010
0100
1000
0100
0010
,  // measure 18
1001
1001
1100
0110
,  // measure 19
0011
0000
0101
0000
1000
0100
1000
0100
,  // measure 20
0010
0010
0001
0001
0100
0100
0010
0010
,  // measure 21
1000
0100
1000
0000
0001
0010
0001
0000
0010
0100
0010
0000
0100
1000
0100
0000
,  // measure 22
1000
0010
1000
0000
0001
0010
0100
0000
1000
0100
0010
0000
0001
1000
0001
0000
,  // measure 23
1000
0100
1000
0000
0100
0010
0100
0000
0001
0000
0010
0000
0100
0000
1000
0000
,  // measure 24
0010
0001
0100
0010
0001
0010
1000
0001
,  // measure 25
0010
0100
1001
0010
0110
0000
0101
0001
,  // measure 26
1000
0100
0001
0100
0010
0001
0202
0303
,  // measure 27
1000
0100
0001
0100
1000
0010
0100
0001
,  // measure 28
0010
0100
1000
0010
0100
0001
1000
0100
,  // measure 29
0001
0000
0001
0000
0110
0000
0000
0000
0011
0000
0101
0000
0000
0000
0000
0010
,  // measure 30
0100
0010
0100
0010
1000
0000
0001
0000
0100
0000
0010
0000
1000
0000
0001
0000
,  // measure 31
0100
0010
0001
0100
0010
1000
0001
0100
,  // measure 32
0010
1000
0100
0001
0010
0100
1000
0010
,  // measure 33
0100
0000
0001
0000
1000
0100
1000
0000
0010
0100
0010
0000
0100
0001
0100
0000
,  // measure 34
0001
0010
0001
0000
1000
0010
1000
0000
0100
0010
0100
0000
0010
0001
0010
0000
,  // measure 35
0100
0100
1000
1000
0010
0100
0001
1000
,  // measure 36
0010
0001
0102
0000
0013
0000
2001
0000
,  // measure 37
3100
0000
0000
0000
0120
0000
0000
0000
1030
0000
0000
0000
0101
0000
0000
0011
,  // measure 38
0000
0110
1200
0000
1300
0000
2010
0000
,  // measure 39
3100
0012
1003
1200
,  // measure 40
0310
0012
0103
0120
,  // measure 41
1030
0102
0013
1200
,  // measure 42
1300
2010
3100
0012
,  // measure 43
1003
1200
0310
0012
,  // measure 44
0103
0000
0000
0000
2002
0000
0000
0000
0000
0000
0000
3003
0000
0000
0000
0000
,  // measure 45
0011
0100
1000
0010
0100
0001
1000
0100
,  // measure 46
0010
0001
0100
1000
0010
0100
0001
0100
,  // measure 47
1000
0010
0100
0001
1000
0100
0001
0100
,  // measure 48
0010
1000
0001
0010
0100
1000
0010
0100
,  // measure 49
0001
1000
0100
0010
0001
0100
1000
0100
,  // measure 50
0010
1000
0001
0010
0100
1000
0010
0100
,  // measure 51
0101
0001
1001
0000
1100
0100
0110
0000
,  // measure 52
0011
0001
0101
0000
1010
0010
0110
0000
,  // measure 53
1001
0010
0100
1000
0010
0100
0001
1000
,  // measure 54
1100
0100
0110
0000
0011
0001
1001
0000
,  // measure 55
0010
0100
1000
0010
0100
0001
1000
0100
,  // measure 56
0110
0010
0011
0000
1001
1000
1010
0000
,  // measure 57
0110
0100
0101
0000
0011
0010
0110
0000
,  // measure 58
1100
1000
1010
0010
0001
0010
0100
1000
,  // measure 59
0010
0100
0001
1000
0100
0010
0001
0100
,  // measure 60
0110
0010
1010
0000
1100
0100
0101
0000
,  // measure 61
0011
0010
0110
0000
0100
1000
0010
0100
,  // measure 62
0001
0010
0100
1000
0010
0100
0001
1000
,  // measure 63
0100
0010
0100
1000
0100
0001
0100
2002
,  // measure 64
0000
3003
0000
0000
0000
0000
0000
0000
,  // measure 65
2002
0000
0000
0000
,  // measure 66
0000
0000
3003
0000
0000
0220
0000
0000
,  // measure 67
0000
0000
0000
0000
,  // measure 68
0000
0000
0000
0000
0000
0330
0000
0000
,  // measure 69
0000
2002
0000
0000
,  // measure 70
0000
0000
0000
3003
;

//---------------dance-double - ----------------
#NOTES:
     dance-double:
     :
     Hard:
     9:
     0.635,0.577,0.174,0.220,0.005,441.000,19.000,24.000,0.000,0.000:  // measure 1
00022000
00000000
00033000
00000000
01000000
00100000
00010000
00001000
,  // measure 2
00020200
00030300
00202000
00303000
,  // measure 3
00020000
01030000
20000000
30100000
,  // measure 4
00020000
00031000
00000200
00000310
,  // measure 5
00002002
00000000
00003003
00000000
00000100
00001000
00010000
01000000
,  // measure 6
10000000
01000000
00010000
00100000
01000000
10000000
00100000
01000000
,  // measure 7
00010000
00100000
00001000
00010000
00000100
00001000
00000010
00000100
,  // measure 8
00002002
00000000
00000000
00003003
,  // measure 9
00000100
00000010
00001000
00000100
00010000
00001000
00100000
00010000
,  // measure 10
01000000
00100000
10000000
01000000
00010000
01000000
00100000
00010000
,  // measure 11
01000000
00001000
00010000
00000100
00001000
00010000
00001000
00000100
,  // measure 12
00001000
00010000
01000000
00100000
10000000
01000000
00010000
00001000
,  // measure 13
00000010
00000001
00000100
00001000
00010000
00100000
10000000
01000000
,  // measure 14
00100000
00010000
01000000
00001000
00010000
00000100
00001000
00000010
,  // measure 15
00000100
00000001
00001000
00000100
00000001
00000100
00001000
00010000
,  // measure 16
00100000
10000000
00100000
01000000
00010000
10000000
01000000
00100000
,  // measure 17
00010000
00001000
00000100
00000010
00000001
00000100
00000010
00001000
,  // measure 18
00010100
00011000
01001000
01100000
,  // measure 19
00110000
00000000
01010000
00000000
10000000
01000000
00010000
00001000
,  // measure 20
00000100
00000001
00000010
00000100
00001000
00000010
00010000
00001000
,  // measure 21
00100000
00010000
01000000
00100000
10000000
00010000
00100000
01000000
,  // measure 22
00010000
00100000
00001000
00010000
00000100
00001000
00000010
00000100
,  // measure 23
00000001
00001000
00000100
00000001
00000100
00001000
00010000
00100000
,  // measure 24
01000000
10000000
00100000
01000000
00010000
10000000
01000000
00010000
,  // measure 25
00001000
00010000
00100000
00010000
00001000
00000100
00000010
00000001
,  // measure 26
00000100
00000010
00010000
00001000
00100000
00010000
01000000
00100000
,  // measure 27
10000000
00010000
00100000
01000000
00001000
00100000
00010000
01000000
,  // measure 28
00001000
00010000
00100000
00010000
00001000
00000100
00000010
00000001
,  // measure 29
00000100
00000010
00001010
00000000
00001100
00022000
00000000
00000000
,  // measure 30
00033000
00000000
00100000
01000000
10000000
00100000
01000000
00010000
,  // measure 31
00100000
00001000
00010000
00000100
00000010
00000001
00000100
00001000
,  // measure 32
00010000
00100000
10000000
01000000
00010000
00010000
00001000
00000100
,  // measure 33
00001000
00010000
00100000
00010000
00001000
00000100
00000010
00001000
,  // measure 34
00000001
00000010
00000100
00001000
00000010
00010000
00001000
00100000
,  // measure 35
00010000
01000000
00100000
10000000
01000000
00010000
01000000
00100000
,  // measure 36
00010000
00001000
01001000
00000000
10000000
00000000
00100000
00000000
,  // measure 37
00010000
00000000
00000000
00000000
00001000
00000000
00000000
00000000
00000100
00000000
00000000
00000000
00000010
00000000
00000000
00000001
,  // measure 38
00000000
00000001
00000100
00000000
00001000
00000000
00010000
00000000
,  // measure 39
00100000
01000000
10000000
00100000
,  // measure 40
00010000
00001000
00000010
00000001
,  // measure 41
00000100
00001000
00010000
01000000
,  // measure 42
10000000
00100000
01000000
00001000
,  // measure 43
00010000
00000100
00001000
00000010
,  // measure 44
00000100
00022000
00000000
00033000
,  // measure 45
00000001
00000100
00001000
00010000
00100000
10000000
01000000
00100000
,  // measure 46
00010000
01000000
00100000
10000000
00010000
00100000
00001000
00010000
,  // measure 47
00000010
00001000
00000100
00000010
00000001
00000100
00001000
00010000
,  // measure 48
00100000
10000000
01000000
00100000
00010000
01000000
00001000
00010000
,  // measure 49
00000100
00001000
00000010
00000100
00000001
00001000
00000100
00010000
,  // measure 50
00001000
00100000
00010000
01000000
00100000
10000000
01000000
00010000
,  // measure 51
01000000
00100000
00010000
00001000
00000100
00000010
00000001
00000100
,  // measure 52
00000010
00001000
00000100
00010000
00001000
00100000
00010000
01000000
,  // measure 53
10000000
01000000
00100000
10000000
00010000
00100000
01000000
00010000
,  // measure 54
00100000
00001000
00010000
00000100
00001000
00000010
00000100
00000001
,  // measure 55
00000001
00001000
00000100
00000001
00000100
00001000
00010000
00100000
,  // measure 56
10000000
01000000
00100000
00010000
01000000
00001000
00010000
00000100
,  // measure 57
00001000
00000010
00000100
00000001
00000010
00000100
00001000
00000100
,  // measure 58
00010000
00001000
00100000
00010000
01000000
00100000
10000000
00010000
,  // measure 59
01000000
00001000
00010000
00000100
00001000
00000010
00000100
00000001
,  // measure 60
00001000
00000100
00010000
00001000
00100000
01000000
10000000
00100000
,  // measure 61
01000000
00001000
00010000
00000100
00001000
00000010
00000100
00000001
,  // measure 62
00001000
00000100
00010000
00001000
00100000
01000000
10000000
00100000
,  // measure 63
01000000
00001000
00010000
00000010
00001000
00000001
00000010
00000100
,  // measure 64
00010000
00001000
00100000
00010000
01000000
00001000
10000000
01000000
,  // measure 65
00220000
00000000
00000000
00000000
,  // measure 66
00000000
00000000
00330000
00000000
00000000
00002200
00000000
00000000
,  // measure 67
00000000
00000000
00000000
00000000
,  // measure 68
00000000
00000000
00000000
00000000
00000000
00003300
00000000
00000000
,  // measure 69
00000000
00022000
00000000
00000000
,  // measure 70
00000000
00000000
00000000
00033000
;

//---------------dance-double - ----------------
#NOTES:
     dance-double:
     :
     Challenge:
     10:
     0.761,0.929,0.716,0.349,0.087,464.000,78.000,38.000,0.000,0.000:  // measure 1
00022000
00000000
00000000
00033000
11000000
00100000
00010000
00001000
,  // measure 2
00020200
00000000
00000000
00030300
00202000
00000000
00000000
00303000
,  // measure 3
10020000
01030000
20010000
30100000
,  // measure 4
00120000
00031000
00001200
00000310
,  // measure 5
00002002
00000000
00003003
00000010
00000100
00001000
00010000
01000000
,  // measure 6
10000000
01000000
00010000
00100000
01000000
10000000
00100000
01000000
,  // measure 7
00010000
00100000
00001000
00010000
00000100
00001000
00000010
00000100
,  // measure 8
00002002
00000000
00000000
00003003
,  // measure 9
00000110
00000010
00001000
00000100
00010000
00001000
00100000
00010000
,  // measure 10
01010000
00100000
10000000
01000000
00010000
01000000
00100000
00010000
,  // measure 11
01010000
00001000
00010000
00000100
00001000
00010000
00001000
00000100
,  // measure 12
00001000
00010000
01000000
00100000
10000000
01000000
00010000
00001000
,  // measure 13
00001010
00000001
00000100
00001000
00010000
00100000
10000000
01000000
,  // measure 14
00110000
00010000
01000000
00001000
00010000
00000100
00001000
00000010
,  // measure 15
00000110
00000001
00001000
00000100
00000001
00000100
00001000
00010000
,  // measure 16
00110000
10000000
00100000
01000000
00010000
10000000
01000000
00100000
,  // measure 17
00110000
00001000
00000100
00000010
00000001
00000100
00000010
00001000
,  // measure 18
00010100
00010000
00011000
00000000
01001000
01000000
01100000
00000000
,  // measure 19
00110000
00010000
01010000
00000000
11000000
01000000
00010000
00001000
,  // measure 20
00000110
00000001
00000010
00000100
00001000
00000010
00010000
00001000
,  // measure 21
00110000
00010000
01000000
00100000
10000000
00010000
00100000
01000000
,  // measure 22
01010000
00100000
00001000
00010000
00000100
00001000
00000010
00000100
,  // measure 23
00001001
00001000
00000100
00000001
00000100
00001000
00010000
00100000
,  // measure 24
11000000
10000000
00100000
01000000
00010000
10000000
01000000
00010000
,  // measure 25
00011000
00010000
00100000
00010000
00001000
00000100
00000010
00000001
,  // measure 26
00000101
00000010
00010000
00001000
00100000
00010000
01000000
00100000
,  // measure 27
10100000
00010000
00100000
01000000
00001000
00100000
00010000
01000000
,  // measure 28
01001000
00010000
00100000
00010000
00001000
00000100
00000010
00000001
,  // measure 29
00000100
00000010
00001010
00001000
00001100
00022000
00000000
00000000
,  // measure 30
00033000
00000000
00110000
01000000
10000000
00100000
01000000
00010000
,  // measure 31
00100000
00001000
00010000
00000100
00000010
00000001
00000100
00001000
,  // measure 32
00010000
00100000
10000000
01000000
00010000
00010000
00001000
00000100
,  // measure 33
00001000
00000000
00010000
00000000
00100000
00000000
00010000
00000000
00001000
00000001
00001000
00000001
00001000
00000001
00001000
00000001
,  // measure 34
00000010
00000100
00000010
00000100
00000010
00000100
00000010
00000100
00001000
00010000
00001000
00010000
00001000
00010000
00001000
00010000
,  // measure 35
00100000
01000000
00100000
01000000
00100000
01000000
00100000
01000000
10000000
00010000
10000000
00010000
10000000
00000000
00100000
00000000
,  // measure 36
00010000
00001000
01001000
00000000
20000000
00000000
30100000
00000000
,  // measure 37
00020000
00000000
00000000
00000000
00031000
00000000
00000000
00000000
00000100
00000000
00000000
00000000
00000011
00000000
00000000
00000101
,  // measure 38
00000000
00001001
00020100
00000000
00031000
00000000
00021000
00000000
,  // measure 39
00130000
02100000
13000000
10200000
,  // measure 40
00310000
00001200
00000310
00001002
,  // measure 41
00000103
00102000
00013000
01020000
,  // measure 42
10030000
20100000
31000000
00201000
,  // measure 43
00310000
00020100
00031000
00002010
,  // measure 44
00003100
00022000
00000000
00033000
,  // measure 45
00000011
00000100
00001000
00010000
00100000
10000000
01000000
00100000
,  // measure 46
01010000
01000000
00100000
10000000
00010000
00100000
00001000
00010000
,  // measure 47
00010010
00001000
00000100
00000010
00000001
00000100
00001000
00010000
,  // measure 48
00110000
10000000
01000000
00100000
00010000
01000000
00001000
00010000
,  // measure 49
00010100
00001000
00000010
00000100
00000001
00001000
00000100
00010000
,  // measure 50
00101000
00100000
00010000
01000000
00100000
10000000
01000000
00010000
,  // measure 51
01100000
00100000
00010000
00001000
00000100
00000010
00000001
00000100
,  // measure 52
00001010
00001000
00000100
00010000
00001000
00100000
00010000
01000000
,  // measure 53
11000000
01000000
00100000
10000000
00010000
00100000
01000000
00010000
,  // measure 54
00101000
00001000
00010000
00000100
00001000
00000010
00000100
00000001
,  // measure 55
00001001
00001000
00000100
00000001
00000100
00001000
00010000
00100000
,  // measure 56
11000000
01000000
00100000
00010000
01000000
00001000
00010000
00000100
,  // measure 57
00011000
00000010
00000100
00000001
00000010
00000100
00001000
00000100
,  // measure 58
00010100
00001000
00100000
00010000
01000000
00100000
10000000
00010000
,  // measure 59
01010000
00001000
00010000
00000100
00001000
00000010
00000100
00000001
,  // measure 60
00001001
00000100
00010000
00001000
00100000
01000000
10000000
00100000
,  // measure 61
01010000
00001000
00010000
00000100
00001000
00000010
00000100
00000001
,  // measure 62
00001001
00000100
00010000
00001000
00100000
01000000
10000000
00100000
,  // measure 63
01010000
00001000
00010000
00000010
00001000
00000001
00000010
00000100
,  // measure 64
00011000
00001000
00100000
00010000
01000000
00001000
10000000
01000000
,  // measure 65
00220000
00000000
00000000
00000000
,  // measure 66
00000000
00000000
00330000
00000000
00000000
00002200
00000000
00000000
,  // measure 67
00000000
00000000
00000000
00000000
,  // measure 68
00000000
00000000
00000000
00000000
00000000
00003300
00000000
00000000
,  // measure 69
00000000
00002002
00000000
00000000
,  // measure 70
00000000
00000000
00000000
00003003
;

//---------------dance-single - ----------------
#NOTES:
     dance-single:
     :
     Easy:
     5:
     0.400,0.544,0.395,0.211,0.000,239.000,43.000,23.000,0.000,0.000:  // measure 1
2002
3003
0010
0100
,  // measure 2
2000
0000
3002
0000
,  // measure 3
2003
0000
3020
0000
,  // measure 4
0230
0000
0302
0000
,  // measure 5
2003
0000
3100
0010
,  // measure 6
0001
0100
0010
1000
,  // measure 7
0001
0010
0100
1000
,  // measure 8
2002
0000
0000
3003
,  // measure 9
0010
0100
1000
0010
,  // measure 10
0100
0001
1000
0100
,  // measure 11
0001
0100
0010
0001
,  // measure 12
0100
0010
1000
0001
,  // measure 13
0010
0100
1000
0010
,  // measure 14
0100
0001
1000
0100
,  // measure 15
0010
0001
0100
0010
,  // measure 16
1000
0010
0001
0100
,  // measure 17
1000
0010
0100
0001
,  // measure 18
1001
1001
0110
0110
,  // measure 19
0101
0101
1000
0001
,  // measure 20
0010
1000
0010
0100
,  // measure 21
1000
0001
0010
0100
,  // measure 22
1000
0010
0100
0001
,  // measure 23
1000
0100
0001
0100
,  // measure 24
0010
0001
0100
0010
,  // measure 25
1000
0001
0010
0100
,  // measure 26
1000
0010
0100
0001
,  // measure 27
1000
0100
0010
0001
,  // measure 28
0100
0010
1000
0001
,  // measure 29
0010
0110
2002
0000
,  // measure 30
3003
0010
0100
1000
,  // measure 31
0010
0100
0001
1000
,  // measure 32
0100
0010
0001
0100
,  // measure 33
0010
1000
0001
0010
,  // measure 34
0100
1000
0010
0100
,  // measure 35
0001
1000
0100
0010
,  // measure 36
0001
0010
0010
0010
,  // measure 37
0010
0100
0100
2002
,  // measure 38
3003
0010
0010
0010
,  // measure 39
0010
0001
0001
0001
,  // measure 40
0001
0010
0010
0010
,  // measure 41
0010
0100
0100
0100
,  // measure 42
0100
1000
1000
1000
,  // measure 43
1000
0100
0100
0100
,  // measure 44
0100
0000
0000
0000
2002
0000
0000
0000
0000
0000
0000
3003
0000
0000
0000
0000
,  // measure 45
0010
0100
1000
0010
,  // measure 46
0100
0001
1000
0100
,  // measure 47
0010
0001
0100
0010
,  // measure 48
1000
0001
0010
0100
,  // measure 49
1000
0010
0100
0001
,  // measure 50
1000
0100
0010
0001
,  // measure 51
1001
1001
1100
0110
,  // measure 52
0011
0011
1001
1001
,  // measure 53
0010
0010
0010
0010
,  // measure 54
1100
0110
0011
1001
,  // measure 55
0100
0100
1000
1000
,  // measure 56
0110
0101
1001
1010
,  // measure 57
0110
0101
1001
0110
,  // measure 58
1010
0110
0001
0001
,  // measure 59
0001
0010
0100
1000
,  // measure 60
0110
1010
1001
0101
,  // measure 61
0110
1001
0001
0010
,  // measure 62
0100
1000
0010
0010
,  // measure 63
0100
0100
0100
0100
,  // measure 64
0000
0000
0000
0000
,  // measure 65
2002
0000
0000
0000
,  // measure 66
0000
3003
0220
0000
,  // measure 67
0000
0000
0000
0000
,  // measure 68
0000
0000
0000
0000
0000
0330
0000
0000
,  // measure 69
0000
2002
0000
0000
,  // measure 70
0000
0000
0000
3003
;

//---------------dance-single - ----------------
#NOTES:
     dance-single:
     :
     Medium:
     7:
     0.502,0.544,0.487,0.377,0.005,289.000,53.000,41.000,0.000,0.000:  // measure 1
2002
0000
3003
0000
0010
0100
0001
0000
,  // measure 2
2002
3003
0220
0330
,  // measure 3
2000
3100
0020
0031
,  // measure 4
0200
0310
2000
3100
,  // measure 5
2002
3003
0100
0010
,  // measure 6
0001
0100
0010
1000
,  // measure 7
0001
0010
0100
1000
,  // measure 8
2002
0000
0000
3003
,  // measure 9
0010
1000
0100
0000
0020
0000
0031
0000
,  // measure 10
0001
1000
0100
0000
0020
0000
0031
0000
,  // measure 11
0100
0010
1000
0000
0002
0000
0013
0000
,  // measure 12
0100
1000
0001
0000
2000
0000
3100
0000
,  // measure 13
0010
0001
1000
0000
0002
0000
0013
0000
,  // measure 14
0100
1000
0001
0000
2000
0000
3100
0000
,  // measure 15
0010
0001
1000
0000
0002
0000
0103
0000
,  // measure 16
0010
0100
1000
0000
0002
0000
0013
0000
,  // measure 17
0100
0001
1000
0000
0200
0000
0310
0000
,  // measure 18
1001
1001
1100
0110
,  // measure 19
0011
0011
1000
1000
,  // measure 20
0001
0001
0010
0010
,  // measure 21
0100
1000
0100
0000
0100
0001
0100
0000
,  // measure 22
0100
0010
0100
0000
0100
1000
0100
0000
,  // measure 23
0100
0010
0100
0000
0100
0001
0100
0000
,  // measure 24
0001
0010
0100
0000
2000
0000
3010
0000
,  // measure 25
0200
0000
0301
0000
1000
0100
0010
0000
,  // measure 26
0002
0103
1000
0110
,  // measure 27
0002
0000
0013
0000
0100
1000
1000
0000
,  // measure 28
0001
0001
0100
0000
1000
1000
0100
0000
,  // measure 29
0010
0000
0110
0000
1001
1001
0000
0000
,  // measure 30
0000
0000
1000
1000
0100
0000
0010
0000
,  // measure 31
1001
0000
0001
0001
0100
0000
0010
0000
,  // measure 32
1010
0000
1000
1000
0100
0000
0010
0000
,  // measure 33
0011
0000
0001
0001
1000
0000
0010
0000
,  // measure 34
0110
0000
0100
0100
0001
0000
1000
0000
,  // measure 35
1100
0000
0010
0010
0001
0000
1000
0000
,  // measure 36
1010
0001
0001
0001
,  // measure 37
0001
0000
0000
0000
0010
0000
0000
0000
0010
0000
0000
0000
0100
0000
0000
0100
,  // measure 38
0000
0100
0100
0000
0100
0000
0010
0000
,  // measure 39
0010
0001
0001
0001
,  // measure 40
0001
0010
0010
0010
,  // measure 41
0010
0100
0100
0100
,  // measure 42
0100
1000
1000
1000
,  // measure 43
1000
0100
0100
0100
,  // measure 44
0100
0000
0000
0000
2002
0000
0000
0000
0000
0000
0000
3003
0000
0000
0000
0000
,  // measure 45
0010
0100
1000
0000
0002
0000
0103
0000
,  // measure 46
1000
0100
0001
0000
0020
0000
0130
0000
,  // measure 47
0001
0010
0100
0000
2000
0000
3010
0000
,  // measure 48
0100
0001
1000
0000
0200
0000
0310
0000
,  // measure 49
0001
1000
0100
0000
0020
0000
0031
0000
,  // measure 50
0100
0010
1000
0000
0002
0000
0013
0000
,  // measure 51
0101
1001
1100
0110
,  // measure 52
0011
0101
1010
0110
,  // measure 53
0001
0010
0100
0000
1000
0100
0001
0000
,  // measure 54
1100
0110
0011
1001
,  // measure 55
0010
0100
1000
0000
0001
0001
1000
0000
,  // measure 56
0110
0011
1001
1010
,  // measure 57
0110
0101
0011
0110
,  // measure 58
1100
0000
1010
0000
0001
0010
0100
0000
,  // measure 59
1000
0100
0001
0000
0001
0100
1000
0000
,  // measure 60
0110
1001
1100
0101
,  // measure 61
0011
0000
0110
0000
0100
1000
0010
0000
,  // measure 62
0001
0010
0100
0000
1000
0100
0001
0000
,  // measure 63
0010
0010
0010
0010
,  // measure 64
0000
0000
0000
0000
,  // measure 65
2002
0000
0000
0000
,  // measure 66
0000
0000
3003
0000
0000
0220
0000
0000
,  // measure 67
0000
0000
0000
0000
,  // measure 68
0000
0000
0000
0000
0000
0330
0000
0000
,  // measure 69
0000
2002
0000
0000
,  // measure 70
0000
0000
0000
3003
;
