#TITLE:ANNIVERSARY;
#SUBTITLE:(CHRISTMAS VERSION);
#ARTIST:DAVE, DOMINO, & VIRGINELLE;
#TITLETRANSLIT:;
#SUBTITLETRANSLIT:;
#ARTISTTRANSLIT:;
#CREDIT:;
#BANNER:Anniversary (Christmas Version).png;
#BACKGROUND:Anniversary (Christmas Version)-bg.png;
#LYRICSPATH:Anniversary (Christmas Version).lrc;
#CDTITLE:Super Euro X'mas Nonstop Best.png;
#MUSIC:Anniversary (Christmas Version).mp3;
#OFFSET:-0.005;
#SAMPLESTART:38.280;
#SAMPLELENGTH:12.660;
#SELECTABLE:YES;
#BPMS:0.000=150.100,192.000=75.040;
#STOPS:;
#BGCHANGES:;
// cache tags:
#FIRSTBEAT:16.000;
#LASTBEAT:210.000;
#SONGFILENAME:Songs/DDRExtreme.co.uk presents ChristmasMix/Anniversary (Christmas Version)/Anniversary (Christmas Version).sm;
#HASMUSIC:1;
#HASBANNER:1;
#MUSICLENGTH:92.455;
// end cache tags

//---------------dance-single - ----------------
#NOTES:
     dance-single:
     :
     Beginner:
     1:
     0.164,0.195,0.000,0.000,0.000,106.000,0.000,0.000,0.000,0.000:  // measure 1
0000
0000
0000
0000
,  // measure 2
0000
0000
0000
0000
,  // measure 3
0000
0000
0000
0000
,  // measure 4
0000
0000
0000
0000
,  // measure 5
1000
1000
1000
0000
,  // measure 6
1000
0000
1000
0000
,  // measure 7
0001
0001
0001
0000
,  // measure 8
0001
0000
0001
0000
,  // measure 9
0100
0000
0100
0000
,  // measure 10
0010
0000
0010
0000
,  // measure 11
0100
0000
0100
0000
,  // measure 12
0010
0000
0010
0000
,  // measure 13
1000
0000
1000
0000
,  // measure 14
0001
0000
0001
0000
,  // measure 15
1000
0000
1000
0000
,  // measure 16
0001
0000
0001
0000
,  // measure 17
0100
0100
0100
0000
,  // measure 18
0100
0100
0100
0000
,  // measure 19
0010
0000
0010
0000
,  // measure 20
0010
0000
0010
0000
,  // measure 21
0010
0010
0010
0000
,  // measure 22
0010
0010
0010
0000
,  // measure 23
0100
0000
0100
0000
,  // measure 24
0100
0000
0100
0000
,  // measure 25
1000
1000
1000
1000
,  // measure 26
0001
0000
0001
0000
,  // measure 27
0001
0000
1000
0000
,  // measure 28
1000
0000
1000
0000
,  // measure 29
0100
0000
0100
0000
,  // measure 30
0010
0000
0010
0000
,  // measure 31
0100
0000
0000
0000
,  // measure 32
0010
0000
0000
0000
,  // measure 33
0001
0001
0001
0001
,  // measure 34
1000
0000
1000
0000
,  // measure 35
1000
0000
0001
0000
,  // measure 36
0001
0000
0001
0000
,  // measure 37
0100
0000
0100
0000
,  // measure 38
0010
0000
0010
0000
,  // measure 39
0100
0000
0000
0000
,  // measure 40
0010
0000
0000
0000
,  // measure 41
0010
0010
0010
0000
,  // measure 42
0010
0000
0010
0000
,  // measure 43
0100
0100
0100
0000
,  // measure 44
0100
0000
0100
0000
,  // measure 45
0010
0010
0010
0000
,  // measure 46
0010
0000
0010
0000
,  // measure 47
0100
0100
0100
0000
,  // measure 48
0100
0000
0100
0000
,  // measure 49
1000
0000
1000
0000
,  // measure 50
1000
0000
1000
0000
,  // measure 51
0001
0000
0001
0000
,  // measure 52
0001
0000
0001
0000
;

//---------------dance-single - ----------------
#NOTES:
     dance-single:
     :
     Easy:
     4:
     0.312,0.312,0.141,0.141,0.000,176.000,13.000,13.000,0.000,0.000:  // measure 1
0000
0000
0000
0000
,  // measure 2
0000
0000
0000
0000
,  // measure 3
0000
0000
0000
0000
,  // measure 4
0000
0000
0000
0000
,  // measure 5
1000
2000
0002
3003
,  // measure 6
0001
0001
1000
1000
,  // measure 7
0001
0002
2000
3003
,  // measure 8
1000
1000
0001
0001
,  // measure 9
0100
0100
0010
0100
,  // measure 10
0001
0100
0010
1001
,  // measure 11
1000
0100
0100
0100
,  // measure 12
0001
0100
0100
0100
,  // measure 13
1000
0100
1000
0100
,  // measure 14
0001
0100
0001
0100
,  // measure 15
0010
0100
0010
0100
,  // measure 16
0010
0010
0010
0010
,  // measure 17
1000
1000
1000
1000
,  // measure 18
0001
0001
0001
0001
,  // measure 19
0100
0010
0100
0010
,  // measure 20
0100
0100
0010
0010
,  // measure 21
1000
1000
1000
1000
,  // measure 22
0001
0001
0001
0001
,  // measure 23
0100
0010
0100
0100
,  // measure 24
0010
0100
0010
0000
,  // measure 25
1000
1001
0001
1001
,  // measure 26
1000
0001
1000
0001
,  // measure 27
0100
0100
0100
0100
,  // measure 28
0010
0010
0010
0010
,  // measure 29
0100
0001
0001
0001
,  // measure 30
0100
1000
1000
1000
,  // measure 31
1100
0000
0101
0000
,  // measure 32
1100
0000
0101
0000
,  // measure 33
0001
1001
1000
1001
,  // measure 34
0001
1000
0001
1000
,  // measure 35
0100
0100
0100
0100
,  // measure 36
0010
0010
0010
0010
,  // measure 37
0100
1000
1000
1000
,  // measure 38
0100
0001
0001
0001
,  // measure 39
0101
0000
1100
0000
,  // measure 40
0101
0000
1100
0000
,  // measure 41
0010
0020
0200
0330
,  // measure 42
0100
0100
0010
0010
,  // measure 43
0100
0200
0020
0330
,  // measure 44
0100
0100
0010
0010
,  // measure 45
1000
0200
0020
0330
,  // measure 46
0001
0001
1000
1000
,  // measure 47
0001
0200
0020
0330
,  // measure 48
0001
1000
0001
1000
,  // measure 49
1000
0100
0010
0001
,  // measure 50
0001
0010
0100
1000
,  // measure 51
1000
0010
0100
0001
,  // measure 52
0001
0100
0020
0000
,  // measure 53
0000
0000
0030
0000
;

//---------------dance-single - ----------------
#NOTES:
     dance-single:
     :
     Medium:
     6:
     0.460,0.454,0.173,0.346,0.000,250.000,16.000,32.000,0.000,0.000:  // measure 1
0000
0000
0000
0000
,  // measure 2
0000
0000
0000
0000
,  // measure 3
0000
0000
0000
0000
,  // measure 4
0000
0000
0000
0000
,  // measure 5
0100
0020
2000
3030
,  // measure 6
1000
0001
1000
0002
0000
2003
0000
0000
,  // measure 7
3100
0020
0002
0033
,  // measure 8
0001
1000
0001
2000
0000
3002
0000
0000
,  // measure 9
0103
0001
0100
0001
0000
0101
0000
1100
,  // measure 10
0000
0000
1000
0010
1000
0010
1000
0000
,  // measure 11
0100
1000
0100
1000
0000
1100
0000
0101
,  // measure 12
0000
0000
0010
0100
0010
0100
0100
0000
,  // measure 13
1000
0100
1000
0100
0000
0100
0000
1000
,  // measure 14
0100
0000
0000
0100
0000
0100
0000
0100
,  // measure 15
0001
0100
0001
0100
0001
0000
0100
0001
,  // measure 16
0100
0000
0000
0100
0000
0100
0000
0000
,  // measure 17
1000
0100
1000
0100
1000
0000
1000
0000
,  // measure 18
0001
0100
0001
0100
0001
0000
0001
0000
,  // measure 19
0001
0010
0001
0010
0001
0010
0001
0000
,  // measure 20
0011
0101
0011
0101
,  // measure 21
1000
0100
1000
0100
1000
0000
1000
0000
,  // measure 22
0001
0100
0001
0100
0001
0000
0001
0000
,  // measure 23
1000
0010
1000
0010
1000
0010
0000
0010
,  // measure 24
0100
0010
0100
0010
0000
0110
0000
0000
,  // measure 25
0100
0100
0100
0000
0001
0001
0001
0000
,  // measure 26
0001
0100
0001
0100
0000
0101
0000
0000
,  // measure 27
0001
0010
0001
0010
0001
0010
0000
0011
,  // measure 28
0000
1000
0100
1000
0100
1000
0000
0000
,  // measure 29
0100
0010
0000
0001
0000
1000
0000
0100
,  // measure 30
0000
0100
0010
0100
0010
0100
0010
0000
,  // measure 31
0100
0010
0100
0020
0000
0000
0031
1000
,  // measure 32
0001
1000
0001
1000
0000
1100
0000
0000
,  // measure 33
0100
0100
0100
0000
1000
1000
1000
0000
,  // measure 34
1000
0100
1000
0100
0000
1100
0000
0000
,  // measure 35
1000
0010
1000
0010
1000
0010
0000
1010
,  // measure 36
0000
0001
0100
0001
0100
0001
0000
0000
,  // measure 37
0100
0010
0000
1000
0000
0001
0000
0100
,  // measure 38
0000
0100
0010
0100
0010
0100
0010
0000
,  // measure 39
0100
0010
0100
0020
0000
0000
1030
0001
,  // measure 40
1000
0001
1000
0001
0000
0101
0000
0000
,  // measure 41
0001
0020
0200
0330
,  // measure 42
1000
0100
1000
0200
0000
2300
0000
0000
,  // measure 43
3010
0020
0200
0330
,  // measure 44
0001
0100
0001
2000
0000
3002
0000
0000
,  // measure 45
1003
0020
0200
0330
,  // measure 46
0001
0100
0001
0200
0000
0302
0000
0000
,  // measure 47
0013
0020
0200
0330
,  // measure 48
1000
0100
1000
0002
0000
2003
0000
0000
,  // measure 49
3002
0000
0000
0203
0320
0000
0000
2030
,  // measure 50
0000
3001
0001
1000
1000
0100
0100
0010
,  // measure 51
0010
0100
0100
1000
1000
0001
0001
0100
,  // measure 52
0100
0010
0010
2002
0000
0000
0000
0000
,  // measure 53
0000
0000
3003
0000
;

//---------------dance-single - ----------------
#NOTES:
     dance-single:
     :
     Hard:
     8:
     0.527,0.681,0.400,0.379,0.097,269.000,37.000,35.000,0.000,0.000:  // measure 1
0000
0000
0000
0000
,  // measure 2
0000
0000
0000
0000
,  // measure 3
0000
0000
0000
0000
,  // measure 4
0000
0000
0000
0000
,  // measure 5
1100
0020
0002
0033
,  // measure 6
1000
0100
1000
0200
0000
0320
0000
0030
,  // measure 7
0101
0020
2030
0000
,  // measure 8
3001
0100
0001
0200
0000
0320
0000
0030
,  // measure 9
1000
0100
0010
0001
0000
1100
0000
1001
,  // measure 10
0000
0000
1000
0010
0001
0010
1000
0000
,  // measure 11
0001
0100
0010
1000
0000
0101
0000
1001
,  // measure 12
0000
0000
0000
0000
0001
0000
0100
0000
0010
0000
1000
0100
1000
0000
0000
0000
,  // measure 13
0001
0010
0100
0100
1000
0010
0100
0100
,  // measure 14
0001
1000
0001
1000
0000
0110
0000
1000
,  // measure 15
0001
0100
0001
1000
0010
1000
0100
0010
,  // measure 16
0001
0000
0000
0110
0000
1001
0000
0000
,  // measure 17
0001
0010
0100
0010
0001
0000
0101
0000
,  // measure 18
1000
0010
0100
0010
1000
0000
1100
0000
,  // measure 19
0010
0100
0010
0100
0001
1000
0001
1000
,  // measure 20
1100
1001
0101
1001
,  // measure 21
0001
0100
0010
0100
0001
0000
0011
0000
,  // measure 22
1000
0100
0010
0100
1000
0000
1010
0000
,  // measure 23
0010
0100
0001
1000
0100
0010
0000
0010
,  // measure 24
0001
1000
0100
0010
0000
0110
0000
0000
,  // measure 25
0001
0001
0001
0000
1000
1000
1000
0000
,  // measure 26
0010
0100
0001
0010
0000
0110
0000
0000
,  // measure 27
0010
0001
0100
0010
1000
0100
0000
0011
,  // measure 28
0000
1000
0100
1000
0001
0100
0000
0000
,  // measure 29
0001
0100
0010
0100
0000
1010
0000
1100
,  // measure 30
0000
1000
0100
0001
0100
1000
0010
0000
,  // measure 31
0010
1000
0100
2000
0000
0000
3010
0100
,  // measure 32
0001
0100
0010
0100
0000
0101
0000
0000
,  // measure 33
1000
1000
1000
0000
0001
0001
0001
0000
,  // measure 34
0010
0100
1000
0010
0000
0110
0000
0000
,  // measure 35
0010
1000
0100
0010
0001
0100
0000
1010
,  // measure 36
0000
0001
0100
0001
1000
0100
0000
0000
,  // measure 37
1000
0100
0010
0100
0000
0011
0000
0101
,  // measure 38
0000
0001
0100
1000
0100
0001
0010
0000
,  // measure 39
0010
0001
0100
0002
0000
0000
0013
0100
,  // measure 40
1000
0100
0010
0100
0000
1100
0000
0000
,  // measure 41
0110
2100
0002
3003
,  // measure 42
0001
0100
0010
2000
0000
3200
0000
0300
,  // measure 43
0011
0210
2000
3300
,  // measure 44
0100
1000
0010
0200
0000
0302
0000
0003
,  // measure 45
0110
0102
2000
3003
,  // measure 46
1000
0100
0010
0002
0000
0203
0000
0300
,  // measure 47
1010
0210
0002
0303
,  // measure 48
0100
0001
0010
0200
0000
2300
0000
0000
,  // measure 49
3002
0000
0000
0203
0000
0000
0320
0000
2030
0000
0000
3200
0000
0000
2000
0000
,  // measure 50
3300
0000
1000
0000
0001
0000
1000
0100
0010
0001
0000
0010
0100
1000
0010
0100
,  // measure 51
0001
0100
0001
0100
0000
0010
0000
2000
0000
0000
3001
0100
0000
0100
0010
0000
,  // measure 52
1000
0100
1000
0100
0000
0010
0000
2002
0000
0000
0000
0000
0000
0000
0000
0000
,  // measure 53
0000
0000
3003
0000
;
