#TITLE:Flower Forever;
#SUBTITLE:;
#ARTIST:DJ Sharpnel;
#TITLETRANSLIT:;
#SUBTITLETRANSLIT:;
#ARTISTTRANSLIT:;
#CREDIT:;
#BANNER:flowerforeverbn.png;
#BACKGROUND:flowerforeverbg.png;
#LYRICSPATH:;
#CDTITLE:;
#MUSIC:flowerforever.ogg;
#OFFSET:2.116;
#SAMPLESTART:218.441;
#SAMPLELENGTH:21.917;
#SELECTABLE:YES;
#DISPLAYBPM:175.000;
#BPMS:0.000=175.200;
#STOPS:;
#BGCHANGES:;
// cache tags:
#FIRSTBEAT:8.000;
#LASTBEAT:1104.000;
#SONGFILENAME:Songs/SHARPNELSTREAMZ v2/Flower Forever/flowerforever.sm;
#HASMUSIC:1;
#HASBANNER:1;
#MUSICLENGTH:376.555;
// end cache tags

//---------------dance-single - 15+ (Archi)----------------
#NOTES:
     dance-single:
     15+ (Archi):
     Hard:
     15:
     1.000,1.000,0.143,0.648,1.000,3008.000,54.000,244.000,10.000,5.000:
0000
0000
0000
0000
,
0000
0000
0000
0000
,
0010
1000
0010
0100
0002
0000
0003
0000
,
001M
1000
0010
0100
0002
0000
0003
0000
,
1000
0100
1000
0010
0200
0000
0000
0320
,
0000
1030
0001
0000
,
0100
0010
0100
0001
2000
0000
3000
0000
,
M100
0010
0100
0001
2000
0000
3001
0200
,
0000
0300
0010
0000
2000
0000
0000
0000
,
0000
0000
0000
3000
,
0010
0100
0010
1000
0002
0000
0003
0000
,
001M
0100
0010
1000
0002
0000
0003
0000
,
1000
0010
1000
0100
0020
0000
0000
0032
,
0000
0103
0010
0000
,
2000
0000
0000
0000
0000
0000
0000
0000
0000
0000
0000
0000
0000
0000
0000
0000
3200
0000
0000
0000
0000
0000
0000
0000
0000
0000
0000
0000
0000
0000
0000
0000
0320
0000
0000
0000
0000
0000
0000
0000
0000
0000
0000
0000
0000
0000
0000
0000
0000
0000
0000
0000
0000
0000
0000
0030
0020
0000
0000
0000
0000
0000
0000
0000
,
0000
0000
0032
0000
0103
0010
1000
0010
,
1000
0000
0010
0000
1000
0000
0010
0000
0100
0001
1000
0010
0100
0001
1000
0010
,
0100
0000
0000
0010
0000
0000
1000
0000
0000
0001
0000
0000
0100
0000
0000
0010
0000
0000
1000
0000
0000
0001
0000
0000
4000
0000
0004
0000
0000
0000
0000
0000
0000
0000
0000
0000
0000
0000
0000
0000
0000
0000
0000
0000
0000
0000
0000
0000
,
0000
0000
0000
3003
0110
0000
0000
0000
,
0000
0000
1001
0000
0110
0000
0000
0000
1001
0000
0001
1000
0001
0010
0100
0000
,
0010
0001
0100
0010
1000
0001
0100
0001
1000
0000
0001
1000
0001
0100
0010
0000
,
0100
0001
0010
0100
1000
0001
0010
0100
1000
0000
0001
1000
0001
0100
0010
0000
,
0100
0001
0100
0010
1000
0001
0010
0001
1000
0000
0001
1000
0001
0010
0100
0000
,
0010
0001
0010
0100
1000
0001
0100
0010
1000
0000
0001
1000
0001
0010
0100
0000
,
0010
0001
0100
0010
1000
0001
0010
0001
1000
0000
0001
1000
0001
0100
0010
0000
,
0100
0001
0010
0100
1000
0001
0010
0100
1000
0000
0001
1000
0001
0100
0010
0000
,
0100
0001
0100
0010
1000
0001
0010
0001
1000
0000
0001
1000
0001
0010
0100
0000
,
0010
0001
0010
0100
1000
0010
0100
0001
1001
0000
0001
0000
0101
0000
0100
0000
,
0001
1000
0001
0000
0010
0100
0010
0100
1000
0000
0100
0000
0110
0000
0010
0000
,
0001
1000
0001
0000
0100
0010
0100
0010
1000
0000
0001
0000
0011
0000
0010
0000
,
0100
1000
0100
0000
0010
0001
0010
0001
0100
0000
0010
0000
1010
0000
1000
0000
,
0001
0100
0001
0000
1000
0100
1000
0100
0010
0000
0001
0000
1001
0000
1000
0000
,
0010
0100
0010
0000
1000
0001
1000
0001
0010
0000
0100
0000
1100
0000
1000
0000
,
0001
0010
0001
0000
1000
0100
1000
0100
0010
0001
1000
0100
0010
0001
1000
0100
,
0010
0000
0000
0100
0000
0000
1000
0000
0000
0001
0000
0000
0010
0000
0000
0100
0000
0000
1000
0000
0000
0001
0000
0000
4000
0000
0004
0000
0000
0000
0000
0000
0000
0000
0000
0000
0000
0000
0000
0000
0000
0000
0000
0000
0000
0000
0000
0000
,
0000
0000
0000
0000
0000
0000
3003
0000
1000
0100
0010
0000
0001
0010
0100
0000
,
1000
0010
0100
0000
0001
0100
0010
0000
1000
0010
0100
0000
0001
0010
0100
0000
,
0010
0100
1000
0000
0010
0100
0001
0000
1000
0100
0010
0000
0001
0100
0010
0000
,
0100
0010
1000
0000
0100
0010
0001
0000
1000
0010
0100
0000
0001
0010
0100
0000
,
0010
0100
1000
0000
0010
0100
0001
0000
1000
0100
0010
0000
0001
0100
0010
0000
,
0100
0010
1000
0000
0100
0010
0001
0000
1000
0010
0100
0000
0001
0010
0100
0000
,
0010
0100
1000
0000
0010
0100
0001
0000
1000
0100
0010
0000
0001
0100
0010
0000
,
0100
0010
1000
0000
0100
0010
0001
0000
1000
0100
0010
0000
0001
0010
0100
0000
,
1000
0010
0100
0000
0001
0100
0010
0000
1000
0100
0010
0000
0001
0010
0100
0000
,
1000
0010
0100
0000
0001
0100
0010
0000
1000
0010
0100
0000
0001
0100
0010
0000
,
1000
0100
0010
0000
0001
0010
0100
0000
1000
0100
0010
0000
0001
0010
0100
0000
,
1000
0010
0100
0000
0001
0100
0010
0000
1000
0010
0100
0000
0001
0100
0010
0000
,
1000
0100
0010
0000
0001
0010
0100
0000
1000
0100
0010
0000
0001
0010
0100
0000
,
1000
0010
0100
0000
0001
0100
0010
0000
1000
0010
0100
0000
0001
0100
0010
0000
,
1000
0100
0010
0000
0001
0010
0100
0000
1000
0001
0010
0100
1000
0001
0010
0100
,
1000
0000
0000
0100
0000
0000
0010
0000
0000
0001
0000
0000
1000
0000
0000
0100
0000
0000
0010
0000
0000
0001
0000
0000
4000
0000
0004
0000
0000
0000
0000
0000
0000
0000
0000
0000
0000
0000
0000
0000
0000
0000
0000
0000
0000
0000
0000
0000
,
0000
0000
0000
0000
0000
0000
3003
0000
2001
0000
0000
3000
0010
0000
2000
3000
,
0000
0000
0010
0000
1000
0000
0001
0000
0200
0000
0000
0300
0010
0000
0200
0300
,
0000
0000
0001
0000
1000
0000
0100
0000
0020
0000
0000
0030
0001
0000
2000
3000
,
0000
0000
0001
0000
1000
0000
0100
0000
0020
0000
0000
0030
0001
0000
2000
3000
,
0000
0000
0001
0000
1000
0000
0100
0000
2000
0000
0000
3000
0010
0000
2000
3000
,
0000
0000
0010
0000
1000
0000
0001
0000
0200
0000
0000
0300
0010
0000
0200
0300
,
0000
0000
0001
0000
1000
0000
0100
0000
0020
0000
0000
0030
0001
0000
2000
3000
,
0000
0000
0001
0000
1000
0000
0100
0000
0020
0000
0000
0030
0001
0000
2000
3000
,
0000
0000
0001
0000
1000
0000
0100
0000
2001
0000
0000
3000
0010
0000
2000
3000
,
0000
0000
0000
0000
0010
0000
0000
0000
2000
3000
0000
0000
0001
0000
0000
0000
0200
0000
0000
0000
0000
0000
0300
0000
0020
0030
0000
0000
0200
0000
0300
0000
,
0000
0000
0000
0000
0001
0000
0000
0000
2000
3000
0000
0000
0100
0000
0000
0000
0020
0000
0000
0000
0000
0000
0030
0000
0002
0003
0000
0000
2000
0000
3000
0000
,
0000
0000
0000
0000
0001
0000
0000
0000
2000
3000
0000
0000
0100
0000
0000
0000
0020
0000
0000
0000
0000
0000
0030
0000
0002
0003
0000
0000
2000
0000
3000
0000
,
0000
0000
0000
0000
0001
0000
0000
0000
2000
3000
0000
0000
0100
0000
0000
0000
1000
0000
0000
0000
0010
0000
0000
0000
2000
3000
0000
0000
0010
0000
0000
0000
,
1000
0000
0000
0000
0010
0000
0000
0000
2000
3000
0000
0000
0010
0000
0000
0000
0100
0000
0000
0000
0001
0000
0000
0000
0200
0300
0000
0000
0001
0000
0000
0000
,
0100
0000
0000
0000
0001
0000
0000
0000
0200
0300
0000
0000
0001
0000
0000
0000
1000
0000
0001
0000
0100
0000
0010
0000
1000
0000
0001
0000
0100
0000
0010
0000
,
1000
0000
0000
0010
0000
0000
0100
0000
0000
0001
0000
0000
1000
0000
0000
0010
0000
0000
0100
0000
0000
0001
0000
0000
4000
0000
0004
0000
0000
0000
0000
0000
0000
0000
0000
0000
0000
0000
0000
0000
0000
0000
0000
0000
0000
0000
0000
0000
,
0000
0000
0000
0000
0000
0000
3003
0000
1000
0010
1000
0010
0100
0001
0010
0100
,
0010
0100
1000
0001
0010
0001
0100
0010
1000
0100
1000
0100
0010
0001
0100
0010
,
0100
0010
1000
0001
0100
0001
0010
0100
1000
0001
1000
0001
0010
0100
1000
0010
,
1000
0010
0100
0001
0010
0001
0100
0010
1000
0001
1000
0001
0010
0100
1000
0010
,
1000
0010
0100
0001
0010
0001
0100
0010
1000
0100
1000
0100
0010
0001
0100
0010
,
0100
0010
1000
0001
0100
0001
0010
0100
1000
0010
1000
0010
0100
0001
0010
0100
,
0010
0100
1000
0001
0010
0001
0100
0010
1000
0001
1000
0001
0100
0010
1000
0100
,
1000
0100
0010
0001
0100
0001
0010
0100
1000
0001
1000
0001
0100
0010
1000
0100
,
1000
0100
0010
0001
0100
0001
0010
0100
1000
0010
1000
0010
0100
0001
0010
0100
,
0010
0100
1000
0001
0010
0001
0100
0010
1000
0100
1000
0100
0010
0001
0100
0010
,
0100
0010
1000
0001
0100
0001
0010
0100
1000
0001
1000
0001
0010
0100
1000
0010
,
1000
0010
0100
0001
0010
0001
0100
0010
1000
0001
1000
0001
0010
0100
1000
0010
,
1000
0010
0100
0001
0010
0001
0100
0010
1000
0100
1000
0100
0010
0001
0100
0010
,
0100
0010
1000
0001
0100
0001
0010
0100
1000
0010
1000
0010
0100
0001
0010
0100
,
0010
0100
1000
0001
0010
0001
0100
0010
1000
0001
1000
0001
0100
0010
1000
0100
,
1000
0100
0010
0001
0100
0001
0010
0100
1000
0001
1000
0001
0100
0010
1000
0100
,
1000
0100
0010
0001
0100
0001
0010
0100
1000
0010
1000
0010
0100
0001
0010
0100
,
0010
0100
1000
0001
0010
0001
0100
0010
1000
0100
1000
0100
0010
0001
0100
0010
,
0100
0010
1000
0001
0100
0001
0010
0100
1000
0001
1000
0001
0010
0100
1000
0010
,
1000
0010
0100
0001
0010
0001
0100
0010
1000
0001
1000
0001
0010
0100
1000
0010
,
1000
0010
0100
0001
0010
0001
0100
0010
1000
0100
1000
0100
0010
0001
0100
0010
,
0100
0010
1000
0001
0100
0001
0010
0100
1000
0010
1000
0010
0100
0001
0010
0100
,
0010
0100
1000
0001
0010
0001
0100
0010
1000
0001
1000
0001
0100
0010
1000
0100
,
1000
0100
0010
0001
0100
0001
0010
0100
1000
0001
1000
0001
0100
0010
1000
0100
,
1000
0100
0010
0001
0100
0001
0010
0100
1000
0010
1000
0010
0100
0001
0010
0100
,
0010
0100
1000
0001
0010
0001
0100
0010
1000
0100
1000
0100
0010
0001
0100
0010
,
0100
0010
1000
0001
0100
0001
0010
0100
1000
0001
1000
0001
0010
0100
1000
0010
,
1000
0010
0100
0001
0010
0001
0100
0010
1000
0001
1000
0001
0010
0100
1000
0010
,
1000
0010
0100
0001
0010
0001
0100
0010
1000
0100
1000
0100
0010
0001
0100
0010
,
0100
0010
1000
0001
0100
0001
0010
0100
1000
0010
1000
0010
0100
0001
0010
0100
,
0010
0100
1000
0001
0010
0001
0100
0010
0100
0001
1000
0010
0100
0001
1000
0010
,
0100
0000
0000
0010
0000
0000
1000
0000
0000
0001
0000
0000
0100
0000
0000
0010
0000
0000
1000
0000
0000
0001
0000
0000
4000
0000
0004
0000
0000
0000
0000
0000
0000
0000
0000
0000
0000
0000
0000
0000
0000
0000
0000
0000
0000
0000
0000
0000
,
0000
0000
0000
3003
2001
3000
0000
0000
,
1M00
0100
0010
0001
0200
0000
0300
0000
,
1M00
0100
0010
0001
0200
0000
0300
0010
,
0000
0000
0100
0001
0020
0000
0030
0000
,
0001
0010
0100
1000
0020
0000
0030
0000
,
00M1
0010
0100
1000
0020
0000
0030
0100
,
0000
0001
1002
0003
,
0120
0030
0012
0003
,
1000
0100
0010
0001
0200
0310
1000
0001
,
1000
0100
0010
0001
0200
0310
1000
0001
,
1000
0100
0010
0001
0200
0310
1000
0001
,
0100
0010
0100
0001
0020
0130
1000
0001
,
1000
0100
0010
0001
0200
0310
1000
0001
,
1000
0100
0010
0001
0200
0310
1000
0001
,
0100
0010
1000
0001
1200
1300
0100
0010
,
0021
0031
0010
0100
1200
1300
0001
0100
,
0001
0000
0010
0000
0100
0000
1000
0000
0020
0000
0130
0000
0002
0003
2000
3000
,
0001
0000
0020
0030
0200
0300
2000
3000
0020
0000
0130
0000
0002
0003
2000
3000
,
0001
0000
0020
0030
0200
0300
2000
3000
0020
0000
0130
0000
0002
0003
2000
3000
,
0010
0000
0200
0300
0020
0030
2000
3000
0200
0000
0310
0000
0002
0003
2000
3000
,
0001
0000
0020
0030
0200
0300
2000
3000
0020
0000
0130
0000
0002
0003
2000
3000
,
0001
0000
0020
0030
0200
0300
2000
3000
0020
0000
0130
0000
0002
0003
2000
3000
,
0010
0000
0200
0300
0002
0003
2000
3000
0012
0000
0013
0000
0200
0300
2000
3000
,
2100
0000
3200
0300
0020
0030
0002
0003
0021
0000
0031
0000
2000
3000
0020
0030
,
1000
0000
0200
0300
0020
0030
0002
0003
0200
0000
0310
0000
2000
3000
0002
0003
,
1000
0000
0200
0300
0020
0030
0002
0003
0200
0000
0310
0000
2000
3000
0002
0003
,
1000
0000
0200
0300
0020
0030
0002
0003
0200
0000
0310
0000
2000
3000
0002
0003
,
0100
0000
0020
0030
0200
0300
0002
0003
0020
0000
0130
0000
2000
3000
0002
0003
,
1000
0000
0200
0300
0020
0030
0002
0003
0200
0000
0310
0000
2000
3000
0020
0030
,
1000
0000
0020
0030
2000
3000
0020
0030
0200
0000
0301
0000
0200
0300
0002
0003
,
0100
0000
0002
0003
0200
0300
0002
0003
1000
0001
0010
0100
1000
0001
0010
0100
,
1000
0000
0000
0100
0000
0000
0010
0000
0000
0001
0000
0000
1000
0000
0000
0100
0000
0000
0010
0000
0000
0001
0000
0000
4000
0000
0004
0000
0000
0000
0000
0000
0000
0000
0000
0000
0000
0000
0000
0000
0000
0000
0000
0000
0000
0000
0000
0000
,
0000
0000
0000
3003
1001
0000
0000
0000
,
0000
0000
0110
0000
1001
0000
0000
0000
2000
0100
0000
0000
0100
0000
3000
0200
,
0000
0010
0000
0000
0010
0000
0300
0020
0000
0001
0000
0000
0001
0000
0030
0002
,
0000
0100
0000
0000
0100
0000
0000
0103
0020
0000
0030
2000
0000
0000
0001
3000
,
0002
0000
0000
0010
0000
0000
0010
0000
0010
0000
0003
0020
0000
0000
0100
0030
,
0200
0000
0300
2000
0000
0000
0001
3000
0002
0100
0000
0000
0100
0000
0003
0200
,
0000
0010
0000
0000
0010
0000
0300
0020
0000
1000
0000
0000
1000
0000
0030
2000
,
0000
0100
0000
0000
0100
0000
0000
3100
0020
0000
0030
0002
0000
0000
1000
0003
,
2000
0000
0000
0010
0000
0000
0010
0000
0010
0000
3000
0020
0000
0000
0100
0030
,
0200
0000
0300
0002
0000
0000
1000
0003
2000
0010
0000
0000
0010
0000
3000
0020
,
0000
0100
0000
0000
0100
0000
0030
0200
0000
0001
0000
0000
0001
0000
0300
0002
,
0000
0010
0000
0000
0010
0000
0000
0013
0200
0000
0300
2000
0000
0000
0001
3000
,
0002
0000
0000
0100
0000
0000
0100
0000
0100
0000
0003
0200
0000
0000
0010
0300
,
0020
0000
0030
2000
0000
0000
0001
3000
0002
0010
0000
0000
0010
0000
0003
0020
,
0000
0100
0000
0000
0100
0000
0030
0200
0000
1000
0000
0000
1000
0000
0300
2000
,
0000
0010
0000
0000
0010
0000
0000
3010
0200
0000
0300
0002
0000
0000
1000
0003
,
2000
0000
0000
0100
0000
0000
0100
0000
0100
0000
3000
0200
0000
0000
0010
0300
,
0020
0000
0030
0002
0000
0000
1000
0003
0210
0000
0300
0002
0000
0000
1000
0003
,
2000
0000
0000
0100
0000
0000
0100
0000
0100
0000
3000
0200
0000
0000
0010
0300
,
0020
0000
0030
0002
0000
0000
1000
0003
0210
0000
0300
0002
0000
0000
1000
0003
,
2000
0000
0000
0100
0000
0000
0100
0000
0100
0000
3000
0200
0000
0000
0010
0300
,
0020
0000
0030
0002
0000
0000
1000
0003
0210
0000
0300
0002
0000
0000
1000
0003
,
2000
0000
0000
0100
0000
0000
0100
0000
3210
0000
0300
0002
0000
0000
1000
0003
,
2000
0000
0000
0100
0000
0000
0100
0000
3210
0000
0300
0002
0000
0000
1000
0003
,
2000
0000
0000
0100
0000
0000
0100
0000
3210
0000
0300
0002
0000
0000
1000
0003
,
2000
0000
0000
0100
0000
0000
0100
0000
3210
0000
0300
0002
0000
0000
1000
0003
,
2001
0000
0000
0100
0000
0000
0100
0000
3210
0000
0300
0002
0000
0000
1000
0003
,
2001
0000
0000
0100
0000
0000
0100
0000
3100
1000
0001
0010
0100
1000
0001
0010
,
0100
0000
0000
0010
0000
0000
0001
0000
0000
1000
0000
0000
0100
0000
0000
0010
0000
0000
0001
0000
0000
1000
0000
0000
0004
0000
4000
0000
0000
0000
0000
0000
0000
0000
0000
0000
0000
0000
0000
0000
0000
0000
0000
0000
0000
0000
0000
0000
,
0000
0000
0000
3003
0110
0000
0000
0000
,
0000
0000
1001
0000
0110
0000
0000
0000
1000
0001
0010
0100
1000
0001
0010
0001
,
1000
0001
0100
0010
1000
0001
0100
0001
1000
0001
0010
0100
1000
0001
0010
0001
,
1000
0001
0100
0010
1000
0001
0100
0001
1000
0100
1000
0001
0100
0001
1000
0100
,
1000
0100
1000
0001
0010
0001
1000
0010
1000
0010
1000
0001
0010
0001
1000
0100
,
1000
0100
1000
0001
0100
0001
1000
0100
1000
0001
0100
0010
1000
0001
0100
0001
,
1000
0001
0010
0100
1000
0001
0010
0001
1000
0001
0100
0010
1000
0001
0100
0001
,
1000
0001
0010
0100
1000
0001
0010
0001
1000
0010
1000
0001
0010
0001
1000
0010
,
1000
0010
1000
0001
0100
0001
1000
0100
1000
0100
1000
0001
0100
0001
1000
0010
,
1000
0010
1000
0001
0010
0001
1000
0010
1000
0001
0010
0100
1000
0010
0100
0010
,
1000
0001
0100
0010
1000
0100
0010
0100
1000
0001
0010
0100
1000
0010
0100
0010
,
1000
0001
0100
0010
1000
0001
0100
0001
1000
0100
1000
0001
0100
0001
1000
0100
,
1000
0100
1000
0001
0010
0001
1000
0010
1000
0010
1000
0001
0010
0001
1000
0100
,
1000
0100
1000
0001
0100
0001
1000
0100
1000
0001
0100
0010
1000
0100
0010
0100
,
1000
0001
0010
0100
1000
0010
0100
0010
1000
0001
0100
0010
1000
0100
0010
0100
,
1000
0001
0010
0100
1000
0001
0010
0001
1000
0010
1000
0001
0010
0001
1000
0010
,
1000
0010
1000
0001
0100
0001
1000
0100
1000
0100
1000
0001
0100
0001
1000
0010
,
1000
0010
1000
0001
0010
0001
1000
0010
1000
0001
0010
0100
1000
0001
0010
0001
,
1000
0001
0100
0010
1000
0001
0100
0001
1000
0001
0010
0100
1000
0001
0010
0001
,
1000
0001
0100
0010
1000
0001
0100
0001
1000
0100
1000
0001
0100
0001
1000
0100
,
1000
0100
1000
0001
0010
0001
1000
0010
1000
0010
1000
0001
0010
0001
1000
0100
,
1000
0100
1000
0001
0100
0001
1000
0100
1000
0001
0100
0010
1000
0001
0100
0001
,
1000
0001
0010
0100
1000
0001
0010
0001
1000
0001
0100
0010
1000
0001
0100
0001
,
1000
0001
0010
0100
1000
0001
0010
0001
1000
0010
1000
0001
0010
0001
1000
0010
,
1000
0010
1000
0001
0100
0001
1000
0100
1000
0100
1000
0001
0100
0001
1000
0010
,
1000
0010
1000
0001
0010
0001
1000
0010
1000
0001
0010
0100
1000
0010
0100
0010
,
1000
0001
0100
0010
1000
0100
0010
0100
1000
0001
0010
0100
1000
0010
0100
0010
,
1000
0001
0100
0010
1000
0001
0100
0001
1000
0100
1000
0001
0100
0001
1000
0100
,
1000
0100
1000
0001
0010
0001
1000
0010
1000
0010
1000
0001
0010
0001
1000
0100
,
1000
0100
1000
0001
0100
0001
1000
0100
1000
0001
0100
0010
1000
0100
0010
0100
,
1000
0001
0010
0100
1000
0010
0100
0010
1000
0001
0100
0010
1000
0100
0010
0100
,
1000
0001
0010
0100
1000
0001
0010
0001
0100
0001
1000
0010
0100
0001
1000
0010
,
0100
0000
0000
0010
0000
0000
1000
0000
0000
0001
0000
0000
0100
0000
0000
0010
0000
0000
1000
0000
0000
0001
0000
0000
4000
0000
0004
0000
0000
0000
0000
0000
0000
0000
0000
0000
0000
0000
0000
0000
0000
0000
0000
0000
0000
0000
0000
0000
,
0000
0000
0000
0000
0000
0000
3003
0000
1000
0100
0010
0001
1000
0100
1000
0100
,
0010
0001
0100
0010
1000
0001
0100
0010
1000
0100
0010
0001
1000
0100
1000
0100
,
0010
0001
1000
0010
0100
0001
0010
0100
1000
0001
0100
0010
1000
0001
1000
0001
,
0010
0100
1000
0010
0100
0001
0010
0100
1000
0001
0100
0010
1000
0001
1000
0001
,
0100
0010
1000
0100
0010
0001
0100
0010
1000
0100
0010
0001
1000
0100
1000
0100
,
0010
0001
0100
0010
1000
0001
0100
0010
1000
0100
0010
0001
1000
0100
1000
0100
,
0010
0001
1000
0010
0100
0001
0010
0100
1000
0001
0100
0010
1000
0001
1000
0001
,
0100
0010
1000
0100
0010
0001
0100
0010
1000
0001
0100
0010
1000
0001
1000
0001
,
0010
0100
1000
0010
0100
0001
0010
0100
1000
0010
0100
0001
1000
0010
1000
0010
,
0100
0001
0010
0100
1000
0001
0010
0100
1000
0010
0100
0001
1000
0010
1000
0010
,
0100
0001
1000
0100
0010
0001
0100
0010
1000
0001
0010
0100
1000
0001
1000
0001
,
0100
0010
1000
0100
0010
0001
0100
0010
1000
0001
0010
0100
1000
0001
1000
0001
,
0010
0100
1000
0010
0100
0001
0010
0100
1000
0010
0100
0001
1000
0010
1000
0010
,
0100
0001
0010
0100
1000
0001
0010
0100
1000
0010
0100
0001
1000
0010
1000
0010
,
0100
0001
1000
0100
0010
0001
0100
0010
0100
0001
1000
0010
0100
0001
1000
0010
,
0100
0000
0000
0010
0000
0000
1000
0000
0000
0001
0000
0000
0100
0000
0000
0010
0000
0000
1000
0000
0000
0001
0000
0000
4000
0000
0004
0000
0000
0000
0000
0000
0000
0000
0000
0000
0000
0000
0000
0000
0000
0000
0000
0000
0000
0000
0000
0000
,
0000
0000
0000
0000
0000
0000
3003
0000
1000
0010
0100
0001
1000
0010
1000
0010
,
0100
0001
0010
0100
1000
0001
0010
0100
1000
0010
0100
0001
1000
0010
1000
0010
,
0100
0001
1000
0100
0010
0001
0100
0010
1000
0001
0010
0100
1000
0001
1000
0001
,
0100
0010
1000
0100
0010
0001
0100
0010
1000
0001
0010
0100
1000
0001
1000
0001
,
0010
0100
1000
0010
0100
0001
0010
0100
1000
0010
0100
0001
1000
0010
1000
0010
,
0100
0001
0010
0100
1000
0001
0010
0100
1000
0010
0100
0001
1000
0010
1000
0010
,
0100
0001
1000
0100
0010
0001
0100
0010
1000
0001
0010
0100
1000
0001
1000
0001
,
0010
0100
1000
0010
0100
0001
0010
0100
1000
0001
0010
0100
1000
0001
1000
0001
,
0100
0010
1000
0100
0010
0001
0100
0010
1000
0100
0010
0001
1000
0100
1000
0100
,
0010
0001
0100
0010
1000
0001
0100
0010
1000
0100
0010
0001
1000
0100
1000
0100
,
0010
0001
1000
0010
0100
0001
0010
0100
1000
0001
0100
0010
1000
0001
1000
0001
,
0010
0100
1000
0010
0100
0001
0010
0100
1000
0001
0100
0010
1000
0001
1000
0001
,
0100
0010
1000
0100
0010
0001
0100
0010
1000
0100
0010
0001
1000
0100
1000
0100
,
0010
0001
0100
0010
1000
0001
0100
0010
1000
0100
0010
0001
1000
0100
1000
0100
,
0010
0001
1000
0010
0100
0001
0010
0100
0010
0001
1000
0100
0010
0001
1000
0100
,
0010
0000
0000
0100
0000
0000
1000
0000
0000
0001
0000
0000
0010
0000
0000
0100
0000
0000
1000
0000
0000
0001
0000
0000
4000
0000
0004
0000
0000
0000
0000
0000
0000
0000
0000
0000
0000
0000
0000
0000
0000
0000
0000
0000
0000
0000
0000
0000
,
0000
0000
0000
0000
0000
0000
3003
0000
1000
0010
1000
0010
0100
0010
1000
0001
,
1000
0100
0010
0001
1000
0100
0010
0001
1000
0010
1000
0010
0100
0010
1000
0001
,
1000
0100
0010
0001
1000
0100
0010
0001
1000
0010
1000
0010
0100
0001
1000
0100
,
0010
0100
0010
0100
1000
0010
0100
0001
0010
0100
1000
0100
0010
0100
1000
0001
,
1000
0100
0010
0001
1000
0100
0010
0001
1000
0010
1000
0010
0100
0010
1000
0001
,
1000
0100
0010
0001
1000
0100
0010
0001
1000
0010
1000
0010
0100
0001
1000
0100
,
1000
0100
1000
0100
0010
0001
1000
0001
0100
0010
1000
0001
0100
0010
1000
0001
,
0010
0100
1000
0001
0010
0100
1000
0001
1000
0010
0100
0001
1000
0010
0100
0001
,
1000
0100
0010
0001
1000
0100
0010
0001
1000
0010
1000
0010
0100
0010
1000
0001
,
1000
0100
0010
0001
1000
0100
0010
0001
1000
0010
1000
0010
0100
0010
1000
0001
,
1000
0100
0010
0001
1000
0100
0010
0001
1000
0010
1000
0010
0100
0001
1000
0100
,
0010
0100
0010
0100
1000
0010
0100
0001
0010
0100
1000
0100
0010
0100
1000
0001
,
1000
0100
0010
0001
1000
0100
0010
0001
1000
0010
0100
0001
0100
0001
1000
0010
,
0100
0001
0100
0001
1000
0001
0010
0100
1000
0010
0100
0001
0100
0001
1000
0100
,
0010
0001
0010
0001
1000
0100
1000
0001
0100
0010
1000
0010
1000
0001
0010
0100
,
1000
0100
1000
0001
0100
0010
1000
0001
0010
0100
1000
0001
0010
0100
1000
0001
,
1000
0010
0100
0001
1000
0010
0100
0001
1000
0100
1000
0100
0010
0100
1000
0001
,
1000
0010
0100
0001
1000
0010
0100
0001
1000
0100
1000
0100
0010
0100
1000
0001
,
1000
0010
0100
0001
1000
0010
0100
0001
1000
0100
1000
0100
0010
0001
1000
0010
,
0100
0010
0100
0010
1000
0100
0010
0001
0100
0010
1000
0010
0100
0010
1000
0001
,
1000
0010
0100
0001
1000
0010
0100
0001
1000
0100
1000
0100
0010
0100
1000
0001
,
1000
0010
0100
0001
1000
0010
0100
0001
1000
0100
1000
0100
0010
0001
1000
0010
,
1000
0010
1000
0010
0100
0001
1000
0001
0010
0100
1000
0001
0010
0100
1000
0001
,
0100
0010
1000
0001
0100
0010
1000
0001
1000
0100
0010
0001
1000
0100
0010
0001
,
1000
0010
0100
0001
1000
0010
0100
0001
1000
0100
1000
0100
0010
0100
1000
0001
,
1000
0010
0100
0001
1000
0010
0100
0001
1000
0100
1000
0100
0010
0100
1000
0001
,
1000
0010
0100
0001
1000
0010
0100
0001
1000
0100
1000
0100
0010
0001
1000
0010
,
0100
0010
0100
0010
1000
0100
0010
0001
0100
0010
1000
0010
0100
0010
1000
0001
,
1000
0010
0100
0001
1000
0010
0100
0001
1000
0100
0010
0001
0010
0001
1000
0100
,
0010
0001
0010
0001
1000
0001
0100
0010
1000
0100
0010
0001
0010
0001
1000
0010
,
0100
0001
0100
0001
1000
0010
1000
0001
1000
0001
0010
0100
1000
0001
0010
0100
,
1000
0000
0000
0100
0000
0000
0010
0000
0000
0001
0000
0000
1000
0000
0000
0100
0000
0000
0010
0000
0000
0001
0000
0000
4000
0000
0004
0000
0000
0000
0000
0000
0000
0000
0000
0000
0000
0000
0000
0000
0000
0000
0000
0000
0000
0000
0000
0000
,
0000
0000
0000
3003
2001
3000
0000
0000
,
1000
0100
0010
0001
0200
0000
0300
0000
,
1M00
0100
0010
0001
0200
0000
0300
0010
,
0000
0000
0100
0001
0020
0000
0030
0000
,
0001
0010
0100
1000
0020
0000
0030
0000
,
00M1
0010
0100
1000
0020
0000
0030
0100
,
0000
0001
1002
0003
,
0120
0030
0012
0003
,
0001
0010
0100
1000
0020
0000
0030
0000
,
00M1
0010
0100
1000
0020
0000
0030
0000
,
00M1
0010
0100
1000
0020
0000
0030
0100
,
0000
0000
0010
1000
0200
0000
0300
0000
,
1000
0100
0010
0001
0200
0000
0300
0100
,
0000
0000
0010
0000
2000
0000
3000
0010
,
0000
0000
0010
0100
0002
0000
0003
2000
,
0000
3000
0100
0000
0200
0000
0300
0000
,
0010
0000
0001
0100
0020
0000
0000
0000
,
0000
0000
0000
0000
,
0000
0000
0000
0000
,
0030
0000
0000
0000
;

//---------------dance-single - 16- (Archi)----------------
#NOTES:
     dance-single:
     16- (Archi):
     Challenge:
     16:
     1.000,1.000,0.098,0.656,1.000,3272.000,37.000,247.000,10.000,5.000:
0000
0000
0000
0000
,
0000
0000
0000
0000
,
0010
1000
0010
0100
0002
0000
0003
0000
,
001M
1000
0010
0100
0002
0000
0003
0000
,
1000
0100
1000
0010
0200
0000
0000
0320
,
0000
1030
0001
0000
,
0100
0010
0100
0001
2000
0000
3000
0000
,
M100
0010
0100
0001
2000
0000
3001
0200
,
0000
0300
0010
0000
2000
0000
0000
0000
,
0000
0000
0000
3000
,
0010
0100
0010
1000
0002
0000
0003
0000
,
001M
0100
0010
1000
0002
0000
0003
0000
,
1000
0010
1000
0100
0020
0000
0000
0032
,
0000
0103
0010
0000
,
2000
0000
0000
0000
0000
0000
0000
0000
0000
0000
0000
0000
0000
0000
0000
0000
3200
0000
0000
0000
0000
0000
0000
0000
0000
0000
0000
0000
0000
0000
0000
0000
0320
0000
0000
0000
0000
0000
0000
0000
0000
0000
0000
0000
0000
0000
0000
0000
0000
0000
0000
0000
0000
0000
0000
0030
0020
0000
0000
0000
0000
0000
0000
0000
,
0000
0000
0032
0000
0103
0010
1000
0010
,
1000
0000
0010
0000
1000
0000
0010
0000
0100
0001
1000
0010
0100
0001
1000
0010
,
0100
0000
0000
0010
0000
0000
1000
0000
0000
0001
0000
0000
0100
0000
0000
0010
0000
0000
1000
0000
0000
0001
0000
0000
1000
0000
0010
0000
0100
0000
0001
0000
1000
0000
0001
0000
1000
0000
0010
0000
0100
0000
0001
0000
1000
0000
0001
0000
,
1000
0010
0100
0001
1000
0001
1000
0010
0100
0001
1000
0001
2000
0000
0000
3000
0000
0000
0000
0000
0000
0000
0000
0000
,
0000
0000
1001
0000
0110
0000
0000
0000
1001
0000
0001
1000
0001
0010
0100
0000
,
0010
0001
0100
0010
1000
0001
0100
0001
1000
0000
0001
1000
0001
0100
0010
0000
,
0100
0001
0010
0100
1000
0001
0010
0100
1000
0000
0001
1000
0001
0100
0010
0000
,
0100
0001
0100
0010
1000
0001
0010
0001
1000
0000
0001
1000
0001
0010
0100
0000
,
0010
0001
0010
0100
1000
0001
0100
0010
1000
0000
0001
1000
0001
0010
0100
0000
,
0010
0001
0100
0010
1000
0001
0010
0001
1000
0000
0001
1000
0001
0100
0010
0000
,
0100
0001
0010
0100
1000
0001
0010
0100
1000
0000
0001
1000
0001
0100
0010
0000
,
0100
0001
0100
0010
1000
0001
0010
0001
1000
0000
0001
1000
0001
0010
0100
0000
,
0010
0001
0010
0100
1000
0010
0100
0001
1001
0000
0001
0000
0101
0000
0100
0000
,
0001
1000
0001
0000
0010
0100
0010
0100
1000
0000
0100
0000
0110
0000
0010
0000
,
0001
1000
0001
0000
0100
0010
0100
0010
1000
0000
0001
0000
0011
0000
0010
0000
,
0100
1000
0100
0000
0010
0001
0010
0001
0100
0000
0010
0000
1010
0000
1000
0000
,
0001
0100
0001
0000
1000
0100
1000
0100
0010
0000
0001
0000
1001
0000
1000
0000
,
0010
0100
0010
0000
1000
0001
1000
0001
0010
0000
0100
0000
1100
0000
1000
0000
,
0001
0010
0001
0000
1000
0100
1000
0100
0010
0001
1000
0100
0010
0001
1000
0100
,
0010
0000
0000
0100
0000
0000
1000
0000
0000
0001
0000
0000
0010
0000
0000
0100
0000
0000
1000
0000
0000
0001
0000
0000
0010
0000
0100
0000
1000
0000
0001
0000
1000
0000
0001
0000
0010
0000
0100
0000
1000
0000
0001
0000
1000
0000
0001
0000
,
0010
0000
0100
0000
1000
0000
0001
0000
1000
0000
0001
0000
0010
0000
0100
0000
1000
0000
0001
0000
1000
0000
0001
0000
0010
0000
0000
0100
0000
0000
1000
0000
0000
0000
0000
0000
0001
0000
0000
0010
0000
0000
0100
0000
0000
0000
0000
0000
,
1000
0010
0100
0000
0001
0100
0010
0000
1000
0010
0100
0000
0001
0010
0100
0000
,
0010
0100
1000
0000
0010
0100
0001
0000
1000
0100
0010
0000
0001
0100
0010
0000
,
0100
0010
1000
0000
0100
0010
0001
0000
1000
0010
0100
0000
0001
0010
0100
0000
,
0010
0100
1000
0000
0010
0100
0001
0000
1000
0100
0010
0000
0001
0100
0010
0000
,
0100
0010
1000
0000
0100
0010
0001
0000
1000
0010
0100
0000
0001
0010
0100
0000
,
0010
0100
1000
0000
0010
0100
0001
0000
1000
0100
0010
0000
0001
0100
0010
0000
,
0100
0010
1000
0000
0100
0010
0001
0000
1000
0100
0010
0000
0001
0010
0100
0000
,
1000
0010
0100
0000
0001
0100
0010
0000
1000
0100
0010
0000
0001
0010
0100
0000
,
1000
0010
0100
0000
0001
0100
0010
0000
1000
0010
0100
0000
0001
0100
0010
0000
,
1000
0100
0010
0000
0001
0010
0100
0000
1000
0100
0010
0000
0001
0010
0100
0000
,
1000
0010
0100
0000
0001
0100
0010
0000
1000
0010
0100
0000
0001
0100
0010
0000
,
1000
0100
0010
0000
0001
0010
0100
0000
1000
0100
0010
0000
0001
0010
0100
0000
,
1000
0010
0100
0000
0001
0100
0010
0000
1000
0010
0100
0000
0001
0100
0010
0000
,
1000
0100
0010
0000
0001
0010
0100
0000
1000
0001
0010
0100
1000
0001
0010
0100
,
1000
0000
0000
0100
0000
0000
0010
0000
0000
0001
0000
0000
1000
0000
0000
0100
0000
0000
0010
0000
0000
0001
0000
0000
1000
0000
0100
0000
0010
0000
0001
0000
1000
0000
0001
0000
1000
0000
0100
0000
0010
0000
0001
0000
1000
0000
0001
0000
,
1000
0000
0100
0000
0010
0000
0001
0000
1000
0000
0001
0000
1000
0000
0100
0000
0010
0000
0001
0000
1000
0000
0001
0000
2000
0000
0000
0000
0000
0000
0000
0000
0000
3000
0000
0000
0010
0000
0000
0000
0000
0000
2000
0000
0000
3000
0000
0000
,
0000
0000
0010
0000
1000
0000
0001
0000
0200
0000
0000
0300
0010
0000
0200
0300
,
0000
0000
0001
0000
1000
0000
0100
0000
0020
0000
0000
0030
0001
0000
2000
3000
,
0000
0000
0001
0000
1000
0000
0100
0000
0020
0000
0000
0030
0001
0000
2000
3000
,
0000
0000
0001
0000
1000
0000
0100
0000
2000
0000
0000
3000
0010
0000
2000
3000
,
0000
0000
0010
0000
1000
0000
0001
0000
0200
0000
0000
0300
0010
0000
0200
0300
,
0000
0000
0001
0000
1000
0000
0100
0000
0020
0000
0000
0030
0001
0000
2000
3000
,
0000
0000
0001
0000
1000
0000
0100
0000
0020
0000
0000
0030
0001
0000
2000
3000
,
0000
0000
0001
0000
1000
0000
0100
0000
2001
0000
0000
3000
0010
0000
2000
3000
,
0000
0000
0000
0000
0010
0000
0000
0000
2000
3000
0000
0000
0001
0000
0000
0000
0200
0000
0000
0000
0000
0000
0300
0000
0020
0030
0000
0000
0200
0000
0300
0000
,
0000
0000
0000
0000
0001
0000
0000
0000
2000
3000
0000
0000
0100
0000
0000
0000
0020
0000
0000
0000
0000
0000
0030
0000
0002
0003
0000
0000
2000
0000
3000
0000
,
0000
0000
0000
0000
0001
0000
0000
0000
2000
3000
0000
0000
0100
0000
0000
0000
0020
0000
0000
0000
0000
0000
0030
0000
0002
0003
0000
0000
2000
0000
3000
0000
,
0000
0000
0000
0000
0001
0000
0000
0000
2000
3000
0000
0000
0100
0000
0000
0000
1000
0000
0000
0000
0010
0000
0000
0000
2000
3000
0000
0000
0010
0000
0000
0000
,
1000
0000
0000
0000
0010
0000
0000
0000
2000
3000
0000
0000
0010
0000
0000
0000
0100
0000
0000
0000
0001
0000
0000
0000
0200
0300
0000
0000
0001
0000
0000
0000
,
0100
0000
0000
0000
0001
0000
0000
0000
0200
0300
0000
0000
0001
0000
0000
0000
1000
0000
0001
0000
0100
0000
0010
0000
1000
0000
0001
0000
0100
0000
0010
0000
,
1000
0000
0000
0010
0000
0000
0100
0000
0000
0001
0000
0000
1000
0000
0000
0010
0000
0000
0100
0000
0000
0001
0000
0000
1000
0000
0010
0000
0100
0000
0001
0000
1000
0000
0001
0000
1000
0000
0010
0000
0100
0000
0001
0000
1000
0000
0001
0000
,
1000
0000
0010
0000
0100
0000
0001
0000
1000
0000
0001
0000
1000
0000
0010
0000
0100
0000
0001
0000
1000
0000
0001
0000
1000
0000
0000
0010
0000
0000
1000
0000
0000
0010
0000
0000
0100
0000
0000
0001
0000
0000
0010
0000
0000
0100
0000
0000
,
0010
0100
1000
0001
0010
0001
0100
0010
1000
0100
1000
0100
0010
0001
0100
0010
,
0100
0010
1000
0001
0100
0001
0010
0100
1000
0001
1000
0001
0010
0100
1000
0010
,
1000
0010
0100
0001
0010
0001
0100
0010
1000
0001
1000
0001
0010
0100
1000
0010
,
1000
0010
0100
0001
0010
0001
0100
0010
1000
0100
1000
0100
0010
0001
0100
0010
,
0100
0010
1000
0001
0100
0001
0010
0100
1000
0010
1000
0010
0100
0001
0010
0100
,
0010
0100
1000
0001
0010
0001
0100
0010
1000
0001
1000
0001
0100
0010
1000
0100
,
1000
0100
0010
0001
0100
0001
0010
0100
1000
0001
1000
0001
0100
0010
1000
0100
,
1000
0100
0010
0001
0100
0001
0010
0100
1000
0010
1000
0010
0100
0001
0010
0100
,
0010
0100
1000
0001
0010
0001
0100
0010
1000
0100
1000
0100
0010
0001
0100
0010
,
0100
0010
1000
0001
0100
0001
0010
0100
1000
0001
1000
0001
0010
0100
1000
0010
,
1000
0010
0100
0001
0010
0001
0100
0010
1000
0001
1000
0001
0010
0100
1000
0010
,
1000
0010
0100
0001
0010
0001
0100
0010
1000
0100
1000
0100
0010
0001
0100
0010
,
0100
0010
1000
0001
0100
0001
0010
0100
1000
0010
1000
0010
0100
0001
0010
0100
,
0010
0100
1000
0001
0010
0001
0100
0010
1000
0001
1000
0001
0100
0010
1000
0100
,
1000
0100
0010
0001
0100
0001
0010
0100
1000
0001
1000
0001
0100
0010
1000
0100
,
1000
0100
0010
0001
0100
0001
0010
0100
1000
0010
1000
0010
0100
0001
0010
0100
,
0010
0100
1000
0001
0010
0001
0100
0010
1000
0100
1000
0100
0010
0001
0100
0010
,
0100
0010
1000
0001
0100
0001
0010
0100
1000
0001
1000
0001
0010
0100
1000
0010
,
1000
0010
0100
0001
0010
0001
0100
0010
1000
0001
1000
0001
0010
0100
1000
0010
,
1000
0010
0100
0001
0010
0001
0100
0010
1000
0100
1000
0100
0010
0001
0100
0010
,
0100
0010
1000
0001
0100
0001
0010
0100
1000
0010
1000
0010
0100
0001
0010
0100
,
0010
0100
1000
0001
0010
0001
0100
0010
1000
0001
1000
0001
0100
0010
1000
0100
,
1000
0100
0010
0001
0100
0001
0010
0100
1000
0001
1000
0001
0100
0010
1000
0100
,
1000
0100
0010
0001
0100
0001
0010
0100
1000
0010
1000
0010
0100
0001
0010
0100
,
0010
0100
1000
0001
0010
0001
0100
0010
1000
0100
1000
0100
0010
0001
0100
0010
,
0100
0010
1000
0001
0100
0001
0010
0100
1000
0001
1000
0001
0010
0100
1000
0010
,
1000
0010
0100
0001
0010
0001
0100
0010
1000
0001
1000
0001
0010
0100
1000
0010
,
1000
0010
0100
0001
0010
0001
0100
0010
1000
0100
1000
0100
0010
0001
0100
0010
,
0100
0010
1000
0001
0100
0001
0010
0100
1000
0010
1000
0010
0100
0001
0010
0100
,
0010
0100
1000
0001
0010
0001
0100
0010
0100
0001
1000
0010
0100
0001
1000
0010
,
0100
0000
0000
0010
0000
0000
1000
0000
0000
0001
0000
0000
0100
0000
0000
0010
0000
0000
1000
0000
0000
0001
0000
0000
0100
0000
0010
0000
1000
0000
0001
0000
1000
0000
0001
0000
0100
0000
0010
0000
1000
0000
0001
0000
1000
0000
0001
0000
,
0100
0010
1000
0001
1000
0001
0100
0010
1000
0001
1000
0001
0200
0000
0000
0300
0000
0000
0000
0000
0000
0000
0000
0000
,
1M00
0100
0010
0001
0200
0000
0300
0000
,
1M00
0100
0010
0001
0200
0000
0300
0010
,
0000
0000
0100
0001
0020
0000
0030
0000
,
0001
0010
0100
1000
0020
0000
0030
0000
,
00M1
0010
0100
1000
0020
0000
0030
0100
,
0000
0001
1002
0003
,
0120
0030
0012
0003
,
1000
0100
0010
0001
0200
0310
1000
0001
,
1000
0100
0010
0001
0200
0310
1000
0001
,
1000
0100
0010
0001
0200
0310
1000
0001
,
0100
0010
0100
0001
0020
0130
1000
0001
,
1000
0100
0010
0001
0200
0310
1000
0001
,
1000
0100
0010
0001
0200
0310
1000
0001
,
0100
0010
1000
0001
1200
1300
0100
0010
,
0021
0031
0010
0100
1200
1300
0001
0100
,
0001
0000
0010
0000
0100
0000
1000
0000
0020
0000
0130
0000
0002
0003
2000
3000
,
0001
0000
0020
0030
0200
0300
2000
3000
0020
0000
0130
0000
0002
0003
2000
3000
,
0001
0000
0020
0030
0200
0300
2000
3000
0020
0000
0130
0000
0002
0003
2000
3000
,
0010
0000
0200
0300
0020
0030
2000
3000
0200
0000
0310
0000
0002
0003
2000
3000
,
0001
0000
0020
0030
0200
0300
2000
3000
0020
0000
0130
0000
0002
0003
2000
3000
,
0001
0000
0020
0030
0200
0300
2000
3000
0020
0000
0130
0000
0002
0003
2000
3000
,
0010
0000
0200
0300
0002
0003
2000
3000
0012
0000
0013
0000
0200
0300
2000
3000
,
2100
0000
3200
0300
0020
0030
0002
0003
0021
0000
0031
0000
2000
3000
0020
0030
,
1000
0000
0200
0300
0020
0030
0002
0003
0200
0000
0310
0000
2000
3000
0002
0003
,
1000
0000
0200
0300
0020
0030
0002
0003
0200
0000
0310
0000
2000
3000
0002
0003
,
1000
0000
0200
0300
0020
0030
0002
0003
0200
0000
0310
0000
2000
3000
0002
0003
,
0100
0000
0020
0030
0200
0300
0002
0003
0020
0000
0130
0000
2000
3000
0002
0003
,
1000
0000
0200
0300
0020
0030
0002
0003
0200
0000
0310
0000
2000
3000
0020
0030
,
1000
0000
0020
0030
2000
3000
0020
0030
0200
0000
0301
0000
0200
0300
0002
0003
,
0100
0000
0002
0003
0200
0300
0002
0003
1000
0001
0010
0100
1000
0001
0010
0100
,
1000
0000
0000
0100
0000
0000
0010
0000
0000
0001
0000
0000
1000
0000
0000
0100
0000
0000
0010
0000
0000
0001
0000
0000
1000
0000
0100
0000
0010
0000
0001
0000
1000
0000
0001
0000
1000
0000
0100
0000
0010
0000
0001
0000
1000
0000
0001
0000
,
1000
0100
0010
0001
1000
0001
1000
0100
0010
0001
1000
0001
2000
0000
0000
3000
0000
0000
0000
0000
0000
0000
0000
0000
,
0000
0000
0110
0000
1001
0000
0000
0000
2000
0100
0000
0000
0100
0000
3000
0200
,
0000
0010
0000
0000
0010
0000
0300
0020
0000
0001
0000
0000
0001
0000
0030
0002
,
0000
0100
0000
0000
0100
0000
0000
0103
0020
0000
0030
2000
0000
0000
0001
3000
,
0002
0000
0000
0010
0000
0000
0010
0000
0010
0000
0003
0020
0000
0000
0100
0030
,
0200
0000
0300
2000
0000
0000
0001
3000
0002
0100
0000
0000
0100
0000
0003
0200
,
0000
0010
0000
0000
0010
0000
0300
0020
0000
1000
0000
0000
1000
0000
0030
2000
,
0000
0100
0000
0000
0100
0000
0000
3100
0020
0000
0030
0002
0000
0000
1000
0003
,
2000
0000
0000
0010
0000
0000
0010
0000
0010
0000
3000
0020
0000
0000
0100
0030
,
0200
0000
0300
0002
0000
0000
1000
0003
2000
0010
0000
0000
0010
0000
3000
0020
,
0000
0100
0000
0000
0100
0000
0030
0200
0000
0001
0000
0000
0001
0000
0300
0002
,
0000
0010
0000
0000
0010
0000
0000
0013
0200
0000
0300
2000
0000
0000
0001
3000
,
0002
0000
0000
0100
0000
0000
0100
0000
0100
0000
0003
0200
0000
0000
0010
0300
,
0020
0000
0030
2000
0000
0000
0001
3000
0002
0010
0000
0000
0010
0000
0003
0020
,
0000
0100
0000
0000
0100
0000
0030
0200
0000
1000
0000
0000
1000
0000
0300
2000
,
0000
0010
0000
0000
0010
0000
0000
3010
0200
0000
0300
0002
0000
0000
1000
0003
,
2000
0000
0000
0100
0000
0000
0100
0000
0100
0000
3000
0200
0000
0000
0010
0300
,
0020
0000
0030
0002
0000
0000
1000
0003
0210
0000
0300
0002
0000
0000
1000
0003
,
2000
0000
0000
0100
0000
0000
0100
0000
0100
0000
3000
0200
0000
0000
0010
0300
,
0020
0000
0030
0002
0000
0000
1000
0003
0210
0000
0300
0002
0000
0000
1000
0003
,
2000
0000
0000
0100
0000
0000
0100
0000
0100
0000
3000
0200
0000
0000
0010
0300
,
0020
0000
0030
0002
0000
0000
1000
0003
0210
0000
0300
0002
0000
0000
1000
0003
,
2000
0000
0000
0100
0000
0000
0100
0000
3210
0000
0300
0002
0000
0000
1000
0003
,
2000
0000
0000
0100
0000
0000
0100
0000
3210
0000
0300
0002
0000
0000
1000
0003
,
2000
0000
0000
0100
0000
0000
0100
0000
3210
0000
0300
0002
0000
0000
1000
0003
,
2000
0000
0000
0100
0000
0000
0100
0000
3210
0000
0300
0002
0000
0000
1000
0003
,
2001
0000
0000
0100
0000
0000
0100
0000
3210
0000
0300
0002
0000
0000
1000
0003
,
2001
0000
0000
0100
0000
0000
0100
0000
3100
1000
0001
0010
0100
1000
0001
0010
,
0100
0000
0000
0010
0000
0000
0001
0000
0000
1000
0000
0000
0100
0000
0000
0010
0000
0000
0001
0000
0000
1000
0000
0000
0100
0000
0010
0000
0001
0000
1000
0000
0001
0000
1000
0000
0100
0000
0010
0000
0001
0000
1000
0000
0001
0000
1000
0000
,
0100
0010
0001
1000
0001
1000
0100
0010
0001
1000
0001
1000
0200
0000
0000
0300
0000
0000
0000
0000
0000
0000
0000
0000
,
0000
0000
1001
0000
0110
0000
0000
0000
1000
0001
0010
0100
1000
0001
0010
0001
,
1000
0001
0100
0010
1000
0001
0100
0001
1000
0001
0010
0100
1000
0001
0010
0001
,
1000
0001
0100
0010
1000
0001
0100
0001
1000
0100
1000
0001
0100
0001
1000
0100
,
1000
0100
1000
0001
0010
0001
1000
0010
1000
0010
1000
0001
0010
0001
1000
0100
,
1000
0100
1000
0001
0100
0001
1000
0100
1000
0001
0100
0010
1000
0001
0100
0001
,
1000
0001
0010
0100
1000
0001
0010
0001
1000
0001
0100
0010
1000
0001
0100
0001
,
1000
0001
0010
0100
1000
0001
0010
0001
1000
0010
1000
0001
0010
0001
1000
0010
,
1000
0010
1000
0001
0100
0001
1000
0100
1000
0100
1000
0001
0100
0001
1000
0010
,
1000
0010
1000
0001
0010
0001
1000
0010
1000
0001
0010
0100
1000
0010
0100
0010
,
1000
0001
0100
0010
1000
0100
0010
0100
1000
0001
0010
0100
1000
0010
0100
0010
,
1000
0001
0100
0010
1000
0001
0100
0001
1000
0100
1000
0001
0100
0001
1000
0100
,
1000
0100
1000
0001
0010
0001
1000
0010
1000
0010
1000
0001
0010
0001
1000
0100
,
1000
0100
1000
0001
0100
0001
1000
0100
1000
0001
0100
0010
1000
0100
0010
0100
,
1000
0001
0010
0100
1000
0010
0100
0010
1000
0001
0100
0010
1000
0100
0010
0100
,
1000
0001
0010
0100
1000
0001
0010
0001
1000
0010
1000
0001
0010
0001
1000
0010
,
1000
0010
1000
0001
0100
0001
1000
0100
1000
0100
1000
0001
0100
0001
1000
0010
,
1000
0010
1000
0001
0010
0001
1000
0010
1000
0001
0010
0100
1000
0001
0010
0001
,
1000
0001
0100
0010
1000
0001
0100
0001
1000
0001
0010
0100
1000
0001
0010
0001
,
1000
0001
0100
0010
1000
0001
0100
0001
1000
0100
1000
0001
0100
0001
1000
0100
,
1000
0100
1000
0001
0010
0001
1000
0010
1000
0010
1000
0001
0010
0001
1000
0100
,
1000
0100
1000
0001
0100
0001
1000
0100
1000
0001
0100
0010
1000
0001
0100
0001
,
1000
0001
0010
0100
1000
0001
0010
0001
1000
0001
0100
0010
1000
0001
0100
0001
,
1000
0001
0010
0100
1000
0001
0010
0001
1000
0010
1000
0001
0010
0001
1000
0010
,
1000
0010
1000
0001
0100
0001
1000
0100
1000
0100
1000
0001
0100
0001
1000
0010
,
1000
0010
1000
0001
0010
0001
1000
0010
1000
0001
0010
0100
1000
0010
0100
0010
,
1000
0001
0100
0010
1000
0100
0010
0100
1000
0001
0010
0100
1000
0010
0100
0010
,
1000
0001
0100
0010
1000
0001
0100
0001
1000
0100
1000
0001
0100
0001
1000
0100
,
1000
0100
1000
0001
0010
0001
1000
0010
1000
0010
1000
0001
0010
0001
1000
0100
,
1000
0100
1000
0001
0100
0001
1000
0100
1000
0001
0100
0010
1000
0100
0010
0100
,
1000
0001
0010
0100
1000
0010
0100
0010
1000
0001
0100
0010
1000
0100
0010
0100
,
1000
0001
0010
0100
1000
0001
0010
0001
0100
0001
1000
0010
0100
0001
1000
0010
,
0100
0000
0000
0010
0000
0000
1000
0000
0000
0001
0000
0000
0100
0000
0000
0010
0000
0000
1000
0000
0000
0001
0000
0000
1000
0000
0010
0000
0100
0000
0001
0000
1000
0000
0001
0000
1000
0000
0010
0000
0100
0000
0001
0000
1000
0000
0001
0000
,
1000
0000
0010
0000
0100
0000
0001
0000
1000
0000
0001
0000
1000
0000
0010
0000
0100
0000
0001
0000
1000
0000
0001
0000
1000
0000
0000
0100
0000
0000
0010
0000
0000
0001
0000
0000
1000
0000
0000
0100
0000
0000
1000
0000
0000
0100
0000
0000
,
0010
0001
0100
0010
1000
0001
0100
0010
1000
0100
0010
0001
1000
0100
1000
0100
,
0010
0001
1000
0010
0100
0001
0010
0100
1000
0001
0100
0010
1000
0001
1000
0001
,
0010
0100
1000
0010
0100
0001
0010
0100
1000
0001
0100
0010
1000
0001
1000
0001
,
0100
0010
1000
0100
0010
0001
0100
0010
1000
0100
0010
0001
1000
0100
1000
0100
,
0010
0001
0100
0010
1000
0001
0100
0010
1000
0100
0010
0001
1000
0100
1000
0100
,
0010
0001
1000
0010
0100
0001
0010
0100
1000
0001
0100
0010
1000
0001
1000
0001
,
0100
0010
1000
0100
0010
0001
0100
0010
1000
0001
0100
0010
1000
0001
1000
0001
,
0010
0100
1000
0010
0100
0001
0010
0100
1000
0010
0100
0001
1000
0010
1000
0010
,
0100
0001
0010
0100
1000
0001
0010
0100
1000
0010
0100
0001
1000
0010
1000
0010
,
0100
0001
1000
0100
0010
0001
0100
0010
1000
0001
0010
0100
1000
0001
1000
0001
,
0100
0010
1000
0100
0010
0001
0100
0010
1000
0001
0010
0100
1000
0001
1000
0001
,
0010
0100
1000
0010
0100
0001
0010
0100
1000
0010
0100
0001
1000
0010
1000
0010
,
0100
0001
0010
0100
1000
0001
0010
0100
1000
0010
0100
0001
1000
0010
1000
0010
,
0100
0001
1000
0100
0010
0001
0100
0010
0100
0001
1000
0010
0100
0001
1000
0010
,
0100
0000
0000
0010
0000
0000
1000
0000
0000
0001
0000
0000
0100
0000
0000
0010
0000
0000
1000
0000
0000
0001
0000
0000
0100
0000
0010
0000
1000
0000
0001
0000
1000
0000
0001
0000
0100
0000
0010
0000
1000
0000
0001
0000
1000
0000
0001
0000
,
0100
0000
0010
0000
1000
0000
0001
0000
1000
0000
0001
0000
0100
0000
0010
0000
1000
0000
0001
0000
1000
0000
0001
0000
0100
0000
0000
0010
0000
0000
0100
0000
0000
0001
0000
0000
1000
0000
0000
0010
0000
0000
1000
0000
0000
0010
0000
0000
,
0100
0001
0010
0100
1000
0001
0010
0100
1000
0010
0100
0001
1000
0010
1000
0010
,
0100
0001
1000
0100
0010
0001
0100
0010
1000
0001
0010
0100
1000
0001
1000
0001
,
0100
0010
1000
0100
0010
0001
0100
0010
1000
0001
0010
0100
1000
0001
1000
0001
,
0010
0100
1000
0010
0100
0001
0010
0100
1000
0010
0100
0001
1000
0010
1000
0010
,
0100
0001
0010
0100
1000
0001
0010
0100
1000
0010
0100
0001
1000
0010
1000
0010
,
0100
0001
1000
0100
0010
0001
0100
0010
1000
0001
0010
0100
1000
0001
1000
0001
,
0010
0100
1000
0010
0100
0001
0010
0100
1000
0001
0010
0100
1000
0001
1000
0001
,
0100
0010
1000
0100
0010
0001
0100
0010
1000
0100
0010
0001
1000
0100
1000
0100
,
0010
0001
0100
0010
1000
0001
0100
0010
1000
0100
0010
0001
1000
0100
1000
0100
,
0010
0001
1000
0010
0100
0001
0010
0100
1000
0001
0100
0010
1000
0001
1000
0001
,
0010
0100
1000
0010
0100
0001
0010
0100
1000
0001
0100
0010
1000
0001
1000
0001
,
0100
0010
1000
0100
0010
0001
0100
0010
1000
0100
0010
0001
1000
0100
1000
0100
,
0010
0001
0100
0010
1000
0001
0100
0010
1000
0100
0010
0001
1000
0100
1000
0100
,
0010
0001
1000
0010
0100
0001
0010
0100
0010
0001
1000
0100
0010
0001
1000
0100
,
0010
0000
0000
0100
0000
0000
1000
0000
0000
0001
0000
0000
0010
0000
0000
0100
0000
0000
1000
0000
0000
0001
0000
0000
1000
0000
0100
0000
0010
0000
0001
0000
1000
0000
0001
0000
1000
0000
0100
0000
0010
0000
0001
0000
1000
0000
0001
0000
,
1000
0000
0100
0000
0010
0000
0001
0000
1000
0000
0001
0000
1000
0000
0100
0000
0010
0000
0001
0000
1000
0000
0001
0000
1000
0000
0000
0010
0000
0000
1000
0000
0000
0010
0000
0000
0100
0000
0000
0010
0000
0000
1000
0000
0000
0001
0000
0000
,
1000
0100
0010
0001
1000
0100
0010
0001
1000
0010
1000
0010
0100
0010
1000
0001
,
1000
0100
0010
0001
1000
0100
0010
0001
1000
0010
1000
0010
0100
0001
1000
0100
,
0010
0100
0010
0100
1000
0010
0100
0001
0010
0100
1000
0100
0010
0100
1000
0001
,
1000
0100
0010
0001
1000
0100
0010
0001
1000
0010
1000
0010
0100
0010
1000
0001
,
1000
0100
0010
0001
1000
0100
0010
0001
1000
0010
1000
0010
0100
0001
1000
0100
,
1000
0100
1000
0100
0010
0001
1000
0001
0100
0010
1000
0001
0100
0010
1000
0001
,
0010
0100
1000
0001
0010
0100
1000
0001
1000
0010
0100
0001
1000
0010
0100
0001
,
1000
0100
0010
0001
1000
0100
0010
0001
1000
0010
1000
0010
0100
0010
1000
0001
,
1000
0100
0010
0001
1000
0100
0010
0001
1000
0010
1000
0010
0100
0010
1000
0001
,
1000
0100
0010
0001
1000
0100
0010
0001
1000
0010
1000
0010
0100
0001
1000
0100
,
0010
0100
0010
0100
1000
0010
0100
0001
0010
0100
1000
0100
0010
0100
1000
0001
,
1000
0100
0010
0001
1000
0100
0010
0001
1000
0010
0100
0001
0100
0001
1000
0010
,
0100
0001
0100
0001
1000
0001
0010
0100
1000
0010
0100
0001
0100
0001
1000
0100
,
0010
0001
0010
0001
1000
0100
1000
0001
0100
0010
1000
0010
1000
0001
0010
0100
,
1000
0100
1000
0001
0100
0010
1000
0001
0010
0100
1000
0001
0010
0100
1000
0001
,
1000
0010
0100
0001
1000
0010
0100
0001
1000
0100
1000
0100
0010
0100
1000
0001
,
1000
0010
0100
0001
1000
0010
0100
0001
1000
0100
1000
0100
0010
0100
1000
0001
,
1000
0010
0100
0001
1000
0010
0100
0001
1000
0100
1000
0100
0010
0001
1000
0010
,
0100
0010
0100
0010
1000
0100
0010
0001
0100
0010
1000
0010
0100
0010
1000
0001
,
1000
0010
0100
0001
1000
0010
0100
0001
1000
0100
1000
0100
0010
0100
1000
0001
,
1000
0010
0100
0001
1000
0010
0100
0001
1000
0100
1000
0100
0010
0001
1000
0010
,
1000
0010
1000
0010
0100
0001
1000
0001
0010
0100
1000
0001
0010
0100
1000
0001
,
0100
0010
1000
0001
0100
0010
1000
0001
1000
0100
0010
0001
1000
0100
0010
0001
,
1000
0010
0100
0001
1000
0010
0100
0001
1000
0100
1000
0100
0010
0100
1000
0001
,
1000
0010
0100
0001
1000
0010
0100
0001
1000
0100
1000
0100
0010
0100
1000
0001
,
1000
0010
0100
0001
1000
0010
0100
0001
1000
0100
1000
0100
0010
0001
1000
0010
,
0100
0010
0100
0010
1000
0100
0010
0001
0100
0010
1000
0010
0100
0010
1000
0001
,
1000
0010
0100
0001
1000
0010
0100
0001
1000
0100
0010
0001
0010
0001
1000
0100
,
0010
0001
0010
0001
1000
0001
0100
0010
1000
0100
0010
0001
0010
0001
1000
0010
,
0100
0001
0100
0001
1000
0010
1000
0001
1000
0001
0010
0100
1000
0001
0010
0100
,
1000
0000
0000
0100
0000
0000
0010
0000
0000
0001
0000
0000
1000
0000
0000
0100
0000
0000
0010
0000
0000
0001
0000
0000
1000
0000
0100
0000
0010
0000
0001
0000
1000
0000
0001
0000
1000
0000
0100
0000
0010
0000
0001
0000
1000
0000
0001
0000
,
1000
0100
0010
0001
1000
0001
1000
0100
0010
0001
1000
0001
2000
0000
0000
3000
0000
0000
0000
0000
0000
0000
0000
0000
,
1000
0100
0010
0001
0200
0000
0300
0000
,
1M00
0100
0010
0001
0200
0000
0300
0010
,
0000
0000
0100
0001
0020
0000
0030
0000
,
0001
0010
0100
1000
0020
0000
0030
0000
,
00M1
0010
0100
1000
0020
0000
0030
0100
,
0000
0001
1002
0003
,
0120
0030
0012
0003
,
0001
0010
0100
1000
0020
0000
0030
0000
,
00M1
0010
0100
1000
0020
0000
0030
0000
,
00M1
0010
0100
1000
0020
0000
0030
0100
,
0000
0000
0010
1000
0200
0000
0300
0000
,
1000
0100
0010
0001
0200
0000
0300
0100
,
0000
0000
0010
0000
2000
0000
3000
0010
,
0000
0000
0010
0100
0002
0000
0003
2000
,
0000
3000
0100
0000
0200
0000
0300
0000
,
0010
0000
0001
0100
0020
0000
0000
0000
,
0000
0000
0000
0000
,
0000
0000
0000
0000
,
0030
0000
0000
0000
;

//---------------dance-single - 15+ (Zaia)----------------
#NOTES:
     dance-single:
     15+ (Zaia):
     Edit:
     15:
     1.000,1.000,0.098,0.359,1.000,3216.000,37.000,135.000,0.000,5.000:
0000
0000
0000
0000
,
0000
0000
0000
0000
,
0010
0001
0100
0001
1000
0000
0000
0000
,
0010
1000
0100
1000
0001
0000
0000
0000
,
0010
0100
1000
0001
0200
0000
0000
0320
,
0000
2030
3002
0003
,
0010
0100
1000
0010
1000
0000
0000
0000
,
0001
0100
0001
0010
0200
0000
1300
0002
,
0000
0203
0320
0000
,
0000
0000
0000
0030
,
0100
0001
0010
0001
1000
0000
0000
0000
,
0100
1000
0010
1000
0001
0000
0000
0000
,
0100
0010
1000
0001
0020
0000
0000
0230
,
0000
2300
3002
0003
,
0200
0000
0320
0000
2030
0000
0000
3002
,
0000
0000
0023
0000
0130
0010
0100
1000
,
0100
0000
1000
0000
0001
0000
1000
0000
0001
0100
0010
0100
0001
1000
0001
0100
,
0001
1000
0100
0010
0001
1000
0100
1000
0010
0100
0001
0010
0001
0100
0010
1000
,
0100
0010
0001
0100
0001
0010
0100
1000
0001
0000
0000
0000
0000
0000
0000
0000
,
0000
0000
1001
0000
0110
0000
0000
0000
0001
0000
1000
0100
1000
0000
0001
0000
,
0101
0000
0100
0000
0010
1000
0001
1000
0010
0000
0100
0001
1000
0000
0100
0000
,
1100
0000
1000
0000
0001
0010
0100
0010
0001
0000
1000
0010
1000
0000
0001
0000
,
0011
0000
0010
0000
0100
1000
0001
1000
0100
0000
0010
0100
1000
0000
0001
0000
,
0101
0000
0100
0000
0010
1000
0001
0010
0100
0000
1000
0001
1000
0000
0010
0000
,
0110
0000
0100
0000
0001
1000
0100
1000
0001
0000
0010
0100
1000
0000
0001
0000
,
0011
0000
0010
0000
0100
0010
0001
0010
0100
0000
1000
0010
1000
0000
0001
0000
,
1001
0000
1000
0000
0010
0100
0001
0100
0010
0000
1000
0100
0010
0000
0001
0000
,
1010
0000
1000
0000
0001
1000
0100
1000
0010
0000
1000
0001
1000
0000
0001
0000
,
0011
0000
0010
0000
0100
1000
0001
1000
0100
0000
0010
0001
1000
0000
0010
0000
,
1010
0000
1000
0000
0001
0100
0010
0100
0001
0000
1000
0100
1000
0000
0001
0000
,
0101
0000
0100
0000
0010
1000
0001
1000
0010
0000
0100
0010
1000
0000
0001
0000
,
0011
0000
0010
0000
0100
1000
0001
0100
0010
0000
1000
0001
1000
0000
0100
0000
,
0110
0000
0010
0000
0001
1000
0010
1000
0001
0000
0100
0010
1000
0000
0001
0000
,
0101
0000
0100
0000
0010
0100
0001
1000
0001
0010
0100
0010
0001
1000
0001
0010
,
0001
1000
0010
0100
0001
1000
0010
1000
0100
0010
0001
0100
0001
0010
0100
1000
,
0010
0100
0001
0010
0001
0100
0010
1000
0001
0010
0100
0010
0001
1000
0100
1000
,
0010
0100
0001
0010
0100
1000
0001
1000
0010
0100
0001
1000
0001
0100
0010
1000
,
0100
0010
0001
0100
0010
1000
0001
0010
0100
1000
0001
0100
0001
1000
0100
1000
,
0010
0100
0001
0010
0100
1000
0001
1000
0010
0100
0001
1000
0001
0100
0010
1000
,
0100
0010
0001
0100
0010
1000
0001
0010
0100
1000
0001
0100
0001
1000
0100
1000
,
0010
0100
0001
0010
0100
1000
0001
1000
0010
0100
0001
1000
0001
0100
0010
1000
,
0100
0010
0001
0100
0010
1000
0001
0010
0100
1000
0001
0100
0001
1000
0100
1000
,
0010
0100
0001
0010
0100
1000
0001
1000
0010
0100
0001
1000
0001
0100
0010
1000
,
0100
0010
0001
0100
0010
1000
0001
0010
0100
1000
0001
0100
0001
1000
0010
1000
,
0100
0010
0001
0100
0010
1000
0001
1000
0100
0010
0001
1000
0001
0010
0100
1000
,
0010
0100
0001
0010
0100
1000
0001
0100
0010
1000
0001
0010
0001
1000
0010
1000
,
0100
0010
0001
0100
0010
1000
0001
1000
0100
0010
0001
1000
0001
0010
0100
1000
,
0010
0100
0001
0010
0100
1000
0001
0100
0010
1000
0001
0010
0001
1000
0010
1000
,
0100
0010
0001
0100
0010
1000
0001
1000
0100
0010
0001
1000
0001
0010
0100
1000
,
0010
0100
0001
0010
0100
1000
0001
0100
0010
1000
0010
0100
0001
1000
0001
0100
,
0001
1000
0100
0010
0001
1000
0100
1000
0010
0100
0001
0010
0001
0100
0010
1000
,
0100
0010
0001
0100
0001
0010
0100
1000
0002
0000
0003
0000
0200
0000
0302
0000
,
0003
0100
0010
1000
0002
0003
0020
0032
,
0003
0100
0001
0010
0200
0300
2000
3200
,
0300
1000
0010
0100
0002
0003
2000
3002
,
0003
0010
0001
1000
0020
0030
0200
0302
,
0003
0100
0001
1000
0200
0300
0020
0230
,
0300
1000
0010
0100
0002
0003
0020
0032
,
0003
0100
0010
1000
0200
0300
0020
0230
,
0300
1000
0001
0010
1001
0000
0002
2003
,
3000
0010
0100
0001
2000
3000
0200
0320
,
0030
0001
0010
0100
2000
3000
0002
2003
,
3000
0010
1000
0100
0020
0030
0002
0023
,
0030
0001
0100
0010
1000
0100
1000
0100
,
1000
0100
1000
0100
0010
0001
0010
0001
,
0010
0000
0001
0000
0010
0000
0001
0000
1000
0100
0010
0100
1000
0001
1000
0100
,
1000
0001
0100
0010
1000
0001
0100
0001
0010
0100
1000
0010
1000
0100
0010
0001
,
0100
0010
1000
0100
1000
0010
0100
0001
1000
0100
1000
0100
0010
0001
1000
0010
,
1000
0010
0100
0001
0010
0100
1000
0100
0010
0001
0010
0001
1000
0010
0100
0001
,
0100
0001
1000
0100
0010
0001
1000
0001
0100
0010
0100
0010
1000
0001
0010
0100
,
0010
0100
1000
0010
0100
0001
0010
0100
1000
0001
1000
0001
0100
0010
1000
0001
,
1000
0001
0010
0100
0010
0001
1000
0010
1000
0100
1000
0100
0010
0001
1000
0010
,
1000
0010
0100
0001
0010
0100
1000
0100
0010
0001
0010
0001
1000
0010
0100
0001
,
0100
0001
1000
0100
0010
0001
1000
0001
0100
0010
0100
0010
1000
0001
0010
0100
,
0010
0100
1000
0010
0100
0001
0010
0100
1000
0001
1000
0001
0100
0010
1000
0001
,
1000
0001
0010
0100
0010
0001
1000
0100
1000
0010
1000
0010
0100
0001
1000
0100
,
1000
0100
0010
0001
0100
0010
1000
0010
0100
0001
0100
0001
1000
0100
0010
0001
,
0010
0001
1000
0010
0100
0001
1000
0001
0010
0100
0010
0100
1000
0001
0100
0010
,
0100
0010
1000
0100
0010
0001
0100
0010
1000
0001
1000
0001
0010
0100
1000
0001
,
1000
0001
0100
0010
0100
0001
1000
0100
1000
0010
1000
0010
0100
0001
1000
0100
,
1000
0100
0010
0001
0100
0010
1000
0010
0100
0001
0100
0001
1000
0100
0010
0001
,
0010
0001
1000
0010
0100
0001
1000
0001
0010
0100
0010
0100
1000
0001
0100
0010
,
0100
0010
1000
0100
0010
0001
0100
0010
1000
0001
1000
0001
0010
0100
1000
0001
,
1000
0001
0100
0010
0100
0001
1000
0100
1000
0010
1000
0010
0100
0001
1000
0100
,
1000
0100
0010
0001
0100
0010
1000
0010
0100
0001
0100
0001
1000
0100
0010
0001
,
0010
0001
1000
0010
0100
0001
1000
0001
0010
0100
0010
0100
1000
0001
0100
0010
,
0100
0010
1000
0100
0010
0001
0100
0010
1000
0001
1000
0001
0010
0100
1000
0001
,
1000
0001
0100
0010
0100
0001
1000
0100
1000
0010
1000
0010
0100
0001
1000
0100
,
1000
0100
0010
0001
0100
0010
1000
0010
0100
0001
0100
0001
1000
0100
0010
0001
,
0010
0001
1000
0010
0100
0001
1000
0001
0010
0100
0010
0100
1000
0001
0100
0010
,
0100
0010
1000
0100
0010
0001
0100
0010
1000
0001
1000
0001
0010
0100
1000
0001
,
1000
0001
0100
0010
0100
0001
1000
0010
1000
0100
1000
0100
0010
0001
1000
0010
,
1000
0010
0100
0001
0010
0100
1000
0100
0010
0001
0010
0001
1000
0010
0100
0001
,
0100
0001
1000
0100
0010
0001
1000
0001
0100
0010
0100
0010
1000
0001
0010
0100
,
0010
0100
1000
0010
0100
0001
0010
0100
1000
0001
1000
0001
0100
0010
1000
0001
,
1000
0001
0010
0100
0010
0001
1000
0100
1000
0010
1000
0010
0100
0001
1000
0100
,
1000
0100
0010
0001
0100
0010
1000
0010
0100
0001
0100
0001
1000
0100
0010
0001
,
0010
0001
1000
0010
0100
0001
1000
0100
1000
0010
0100
0010
1000
0001
1000
0010
,
1000
0001
0010
0100
1000
0001
0010
0001
0100
0010
1000
0100
1000
0010
0100
0001
,
0010
0100
1000
0010
1000
0100
0010
0001
2000
0000
0000
3000
0000
0000
0000
0000
,
0001
0000
0010
0000
0100
0000
1000
0000
0002
0000
0000
0003
0000
0000
0000
0000
,
0010
0000
0100
0000
1000
0000
0001
0000
0200
0000
0000
0300
0000
0000
0010
0000
,
0000
0000
0000
0000
1000
0000
0001
0000
0020
0000
0000
0030
0000
0000
0000
0000
,
0001
0000
1000
0000
0010
0000
0100
0000
0002
0000
0000
0003
0000
0000
0000
0000
,
1000
0000
0010
0000
0100
0000
0001
0000
2000
0000
0000
3000
0000
0000
0100
0000
,
0000
0000
0000
0000
0010
0000
0000
0000
0002
0000
0000
0000
0000
0000
0000
0003
,
2000
0000
0000
0000
0000
0000
0000
3000
0020
0000
0000
0000
0000
0000
0000
0030
,
0100
0001
1000
0100
0010
0001
1000
0001
,
1000
0100
0010
0001
0100
0001
1000
0001
,
1000
0010
0100
0001
0010
0100
0010
0100
,
1000
0100
1000
0010
0100
0001
1000
0001
,
1000
0100
0010
0001
0100
0001
1000
0001
,
1000
0100
0010
0001
0100
0001
1000
0010
,
1000
0010
0100
0001
1001
1000
0100
1000
,
1001
0001
0100
0001
1001
1000
0100
0010
,
0001
1000
0010
0100
0001
1000
0100
1000
,
0001
1000
0010
0100
0001
1000
0100
1000
,
0001
1000
0010
0100
0001
0100
0001
1000
,
0001
1000
0001
0010
0100
1000
0001
1000
,
0001
0100
0010
1000
0100
0010
0001
0010
,
0001
0100
0010
1000
0100
0010
0100
1000
,
0001
1000
0010
0100
0110
0010
1000
0010
,
0110
0100
0001
0100
0110
0010
1000
0010
,
0100
0001
0010
0100
1000
0100
1000
0001
,
0100
0010
1000
0100
0010
0001
0010
0001
,
0100
0010
0100
0001
1000
0100
1000
0001
,
0100
0010
0100
0001
1000
0100
1000
0001
,
0010
0100
1000
0001
1000
0010
1000
0010
,
1000
0010
1000
0010
0100
0001
0100
0001
,
0100
0000
0001
0000
0100
0000
0001
0000
1000
0100
0010
0100
1000
0001
1000
0100
,
1000
0001
0100
0010
1000
0001
0100
0001
0010
0100
1000
0010
1000
0100
0010
0001
,
0100
0010
1000
0100
1000
0010
0100
0001
1000
0000
0000
0000
0000
0000
0000
0000
,
0000
0000
0110
0000
1001
0000
0000
0000
2000
0100
0000
0000
0100
0000
3000
0200
,
0000
0010
0000
0000
0010
0000
0300
0020
0000
0001
0000
0000
0001
0000
0030
0002
,
0000
1000
0000
0000
1000
0000
0000
1003
0020
0000
0030
2000
0000
0000
0001
3000
,
0002
0000
0000
0010
0000
0000
0010
0000
0010
0000
0003
0020
0000
0000
0100
0030
,
0200
0000
0300
2000
0000
0000
0001
3000
0002
0100
0000
0000
0100
0000
0003
0200
,
0000
0010
0000
0000
0010
0000
0300
0020
0000
1000
0000
0000
1000
0000
0030
2000
,
0000
0001
0000
0000
0001
0000
0000
3001
0200
0000
0300
0020
0000
0000
1000
0000
,
2030
0000
0000
0010
0000
0000
0010
0000
0010
0000
3000
0020
0000
0000
0100
0030
,
0200
0000
0300
0002
0000
0000
1000
0003
2000
0010
0000
0000
0010
0000
3000
0020
,
0000
0100
0000
0000
0100
0000
0030
0200
0000
0001
0000
0000
0001
0000
0300
0002
,
0000
0010
0000
0000
0010
0000
0000
0013
0200
0000
0300
2000
0000
0000
0001
3000
,
0002
0000
0000
0100
0000
0000
0100
0000
0100
0000
0003
0200
0000
0000
0010
0300
,
0020
0000
0030
2000
0000
0000
0001
3000
0002
0010
0000
0000
0010
0000
0003
0020
,
0000
0100
0000
0000
0100
0000
0030
0200
0000
1000
0000
0000
1000
0000
0300
2000
,
0000
0010
0000
0000
0010
0000
0000
3010
0200
0000
0300
0002
0000
0000
1000
0003
,
2000
0000
0000
0100
0000
0000
0100
0000
0100
0000
3000
0200
0000
0000
0010
0300
,
0020
0000
0030
0002
0000
0000
1000
0003
0210
0000
0300
0002
0000
0000
1000
0003
,
2000
0000
0000
0100
0000
0000
0100
0000
0100
0000
3000
0200
0000
0000
0010
0300
,
0020
0000
0030
0002
0000
0000
1000
0003
0210
0000
0300
0002
0000
0000
1000
0003
,
2000
0000
0000
0100
0000
0000
0100
0000
0100
0000
3000
0200
0000
0000
0010
0300
,
0020
0000
0030
0002
0000
0000
1000
0003
0210
0000
0300
0002
0000
0000
1000
0003
,
2000
0000
0000
0100
0000
0000
0100
0000
3210
0000
0300
0002
0000
0000
1000
0003
,
2000
0000
0000
0100
0000
0000
0100
0000
3210
0000
0300
0002
0000
0000
1000
0003
,
2000
0000
0000
0100
0000
0000
0100
0000
3210
0000
0300
0002
0000
0000
1000
0003
,
2000
0000
0000
0100
0000
0000
0100
0000
3210
0000
0300
0002
0000
0000
1000
0003
,
2001
0000
0000
0100
0000
0000
0100
0000
3210
0000
0300
0002
0000
0000
1000
0003
,
2001
0000
0000
0100
0000
0000
0100
0000
3100
0010
0100
1000
0001
0100
0001
1000
,
0001
1000
0010
0100
0001
1000
0010
1000
0100
0010
0001
0100
0001
0010
0100
1000
,
0010
0100
0001
0010
0001
0100
0010
1000
0001
0000
0000
0000
0000
0000
0000
0000
,
0000
0000
0110
0000
1001
0000
0000
0000
1000
0100
0010
0001
1000
0001
0100
0010
,
1000
0100
0010
0001
1000
0001
0100
0001
0010
0100
1000
0001
0100
0010
1000
0100
,
0010
0100
1000
0001
1000
0010
0100
0001
1000
0100
1000
0001
0100
0001
1000
0100
,
1000
0010
1000
0001
0100
0001
0100
0001
0010
0001
0100
0010
1000
0010
1000
0100
,
1000
0001
1000
0001
0010
0001
0100
0001
1000
0100
0010
0001
1000
0001
0100
0010
,
1000
0100
0010
0001
1000
0001
0100
0001
0010
0100
1000
0001
0100
0010
1000
0100
,
0010
0100
1000
0001
1000
0010
0100
0001
1000
0010
1000
0001
0010
0001
1000
0010
,
1000
0100
1000
0001
0010
0001
0010
0001
0100
0001
0010
0100
1000
0100
1000
0010
,
1000
0001
1000
0001
0100
0001
0010
0001
1000
0010
0100
0001
1000
0001
0010
0100
,
1000
0010
0100
0001
1000
0001
0010
0001
0100
0010
1000
0001
0010
0100
1000
0010
,
0100
0010
1000
0001
1000
0100
0010
0001
1000
0010
1000
0001
0010
0001
1000
0010
,
1000
0100
1000
0001
0010
0001
0010
0001
0100
0001
0010
0100
1000
0100
1000
0010
,
1000
0001
1000
0001
0100
0001
0010
0001
1000
0010
0100
0001
1000
0001
0010
0100
,
1000
0010
0100
0001
1000
0001
0010
0001
0100
0010
1000
0001
0010
0100
1000
0010
,
0100
0010
1000
0001
1000
0100
0010
0001
1000
0100
1000
0001
0100
0001
1000
0100
,
1000
0010
1000
0001
0100
0001
0100
0001
0010
0001
0100
0010
1000
0010
1000
0100
,
1000
0001
1000
0001
0010
0001
0100
0001
0010
0100
1000
0001
1000
0010
0100
0001
,
0010
0100
1000
0001
1000
0010
1000
0100
0010
0001
1000
0010
0100
0001
0010
0100
,
0010
0001
1000
0001
0100
0010
1000
0001
0010
0001
1000
0010
1000
0001
0010
0001
,
0100
0001
1000
0010
1000
0010
1000
0100
1000
0010
0100
0001
0100
0001
0010
0001
,
1000
0001
1000
0100
1000
0010
1000
0001
0010
0100
1000
0001
1000
0010
0100
0001
,
0010
0100
1000
0001
1000
0010
1000
0100
0010
0001
1000
0010
0100
0001
0010
0100
,
0010
0001
1000
0001
0100
0010
1000
0001
0100
0001
1000
0100
1000
0001
0100
0001
,
0010
0001
1000
0100
1000
0100
1000
0010
1000
0100
0010
0001
0010
0001
0100
0001
,
1000
0001
1000
0010
1000
0100
1000
0001
0100
0010
1000
0001
1000
0100
0010
0001
,
0100
0010
1000
0001
1000
0100
1000
0010
0100
0001
1000
0100
0010
0001
0100
0010
,
0100
0001
1000
0001
0010
0100
1000
0001
0100
0001
1000
0100
1000
0001
0100
0001
,
0010
0001
1000
0100
1000
0100
1000
0010
1000
0100
0010
0001
0010
0001
0100
0001
,
1000
0001
1000
0010
1000
0100
1000
0001
0100
0010
1000
0001
1000
0100
0010
0001
,
0100
0010
1000
0001
1000
0100
1000
0010
0100
0001
1000
0100
0010
0001
0100
0010
,
0100
0001
1000
0001
0010
0100
1000
0001
0010
0001
0100
0010
1000
0001
1000
0010
,
1000
0001
0010
0100
1000
0001
0010
0001
0100
0010
1000
0100
1000
0010
0100
0001
,
0010
0100
1000
0010
1000
0100
0010
0001
1000
0010
1000
0001
1000
0100
0010
0001
,
0100
0001
1000
0100
1000
0001
0100
0001
1000
0100
0010
0001
1000
0010
0100
0001
,
1000
0010
1000
0001
0010
0001
1000
0010
0100
0001
0010
0100
1000
0010
0100
0010
,
0100
0001
0010
0100
1000
0010
1000
0001
0010
0100
0010
0100
1000
0010
1000
0010
,
0100
0001
0010
0100
1000
0001
1000
0010
0100
0001
0010
0001
1000
0010
1000
0001
,
0010
0100
1000
0001
0100
0010
1000
0001
1000
0100
1000
0001
0100
0001
1000
0100
,
1000
0100
0010
0100
1000
0010
0100
0001
0010
0100
0010
0001
1000
0100
0010
0001
,
1000
0010
0100
0001
1000
0010
1000
0001
0010
0001
0100
0010
1000
0001
1000
0100
,
0010
0001
0100
0010
1000
0001
0100
0001
0010
0001
1000
0001
0010
0100
1000
0010
,
1000
0001
0010
0001
1000
0010
1000
0001
0010
0100
1000
0001
0100
0010
1000
0001
,
0100
0001
1000
0100
1000
0001
0100
0010
1000
0100
0010
0001
0100
0010
0100
0010
,
1000
0100
0010
0001
0100
0001
1000
0100
0010
0100
0010
0001
0100
0001
0100
0010
,
1000
0100
0010
0001
1000
0001
0100
0010
1000
0100
1000
0001
0100
0001
1000
0100
,
0010
0001
1000
0010
0100
0001
1000
0001
0010
0001
1000
0010
1000
0001
0010
0001
,
0010
0100
0010
0001
0100
0010
1000
0100
0010
0001
0100
0010
1000
0001
1000
0010
,
1000
0001
0010
0100
1000
0001
0010
0001
0100
0010
1000
0100
1000
0010
0100
0001
,
0010
0100
1000
0010
1000
0100
0010
0001
1000
0010
1000
0010
0100
0001
1000
0100
,
1000
0100
0010
0001
0100
0010
1000
0010
0100
0001
0100
0001
1000
0100
0010
0001
,
0010
0001
1000
0010
0100
0001
1000
0001
0010
0100
0010
0100
1000
0001
0100
0010
,
0100
0010
1000
0100
0010
0001
0100
0010
1000
0001
1000
0001
0010
0100
1000
0001
,
1000
0001
0100
0010
0100
0001
1000
0100
1000
0010
1000
0010
0100
0001
1000
0100
,
1000
0100
0010
0001
0100
0010
1000
0010
0100
0001
0100
0001
1000
0100
0010
0001
,
0010
0001
1000
0010
0100
0001
1000
0001
0010
0100
0010
0100
1000
0001
0100
0010
,
0100
0010
1000
0100
0010
0001
0100
0010
1000
0001
1000
0001
0010
0100
1000
0001
,
1000
0001
0100
0010
0100
0001
1000
0010
1000
0100
1000
0100
0010
0001
1000
0010
,
1000
0010
0100
0001
0010
0100
1000
0100
0010
0001
0010
0001
1000
0010
0100
0001
,
0100
0001
1000
0100
0010
0001
1000
0001
0100
0010
0100
0010
1000
0001
0010
0100
,
0010
0100
1000
0010
0100
0001
0010
0100
1000
0001
1000
0001
0100
0010
1000
0001
,
1000
0001
0010
0100
0010
0001
1000
0010
1000
0100
1000
0100
0010
0001
1000
0010
,
1000
0010
0100
0001
0010
0100
1000
0100
0010
0001
0010
0001
1000
0010
0100
0001
,
0100
0001
1000
0100
0010
0001
1000
0001
0100
0010
0100
0010
1000
0001
0010
0100
,
0010
0100
1000
0010
0100
0001
0010
0100
1000
0001
1000
0001
0100
0010
1000
0001
,
1000
0001
0010
0100
0010
0001
1000
0010
1000
0100
1000
0100
0010
0001
1000
0010
,
1000
0010
0100
0001
0010
0100
1000
0100
0010
0001
0010
0001
1000
0010
0100
0001
,
0100
0001
1000
0100
0010
0001
1000
0001
0100
0010
0100
0010
1000
0001
0010
0100
,
0010
0100
1000
0010
0100
0001
0010
0100
1000
0001
1000
0001
0100
0010
1000
0001
,
1000
0001
0010
0100
0010
0001
1000
0010
1000
0100
1000
0100
0010
0001
1000
0010
,
1000
0010
0100
0001
0010
0100
1000
0100
0010
0001
0010
0001
1000
0010
0100
0001
,
0100
0001
1000
0100
0010
0001
1000
0001
0100
0010
0100
0010
1000
0001
0010
0100
,
0010
0100
1000
0010
0100
0001
0010
0100
1000
0001
1000
0001
0100
0010
1000
0001
,
1000
0001
0010
0100
0010
0001
1000
0100
1000
0010
1000
0010
0100
0001
1000
0100
,
1000
0100
0010
0001
0100
0010
1000
0010
0100
0001
0100
0001
1000
0100
0010
0001
,
0010
0001
1000
0010
0100
0001
1000
0001
0010
0100
0010
0100
1000
0001
0100
0010
,
0100
0010
1000
0100
0010
0001
0100
0010
1000
0001
1000
0001
0010
0100
1000
0001
,
1000
0001
0100
0010
0100
0001
1000
0010
1000
0100
1000
0100
0010
0001
1000
0010
,
1000
0010
0100
0001
0010
0100
1000
0100
0010
0001
0010
0001
1000
0010
0100
0001
,
0100
0001
1000
0100
0010
0001
1000
0010
1000
0100
0010
0100
1000
0001
1000
0100
,
1000
0001
0100
0010
1000
0001
0100
0001
0010
0100
1000
0010
1000
0100
0010
0001
,
0100
0010
1000
0100
1000
0010
0100
0001
1000
0010
1000
0001
1000
0100
1000
0001
,
0100
0010
0100
0001
0010
0100
1000
0001
0100
0001
1000
0001
1000
0100
0010
0100
,
1000
0010
1000
0001
1000
0100
1000
0010
0100
0001
1000
0100
0010
0001
1000
0010
,
0100
0001
1000
0001
1000
0100
0010
0100
1000
0001
1000
0010
0100
0001
1000
0100
,
0010
0001
1000
0001
0100
0001
0010
0100
1000
0001
1000
0010
0100
0010
1000
0001
,
1000
0010
0100
0001
1000
0001
0010
0001
0100
0010
1000
0001
0010
0100
1000
0001
,
1000
0010
0100
0001
1000
0001
0010
0001
1000
0100
1000
0100
0010
0001
0100
0001
,
1000
0010
1000
0010
0100
0001
1000
0001
0010
0100
0010
0100
1000
0001
0100
0010
,
1000
0001
1000
0010
1000
0100
0010
0001
1000
0100
1000
0001
1000
0010
1000
0001
,
0010
0100
0010
0001
0100
0010
1000
0001
0010
0001
1000
0001
1000
0010
0100
0010
,
1000
0100
1000
0001
1000
0010
1000
0100
0010
0001
1000
0010
0100
0001
1000
0100
,
0010
0001
1000
0001
1000
0010
0100
0010
1000
0001
1000
0100
0010
0001
1000
0010
,
0100
0001
1000
0001
0010
0001
0100
0010
1000
0001
1000
0100
0010
0100
1000
0001
,
1000
0100
0010
0001
1000
0001
0100
0001
0010
0100
1000
0001
0100
0010
1000
0001
,
1000
0100
0010
0001
1000
0001
0100
0001
1000
0010
1000
0010
0100
0001
0010
0001
,
1000
0100
1000
0100
0010
0001
1000
0001
0100
0010
0100
0010
1000
0001
0010
0100
,
1000
0010
1000
0100
1000
0010
0100
0001
1000
0000
0000
0000
0000
0000
0000
0000
,
0001
0010
0100
1000
0001
0000
0000
0000
,
0010
0100
1000
0010
0100
0000
0000
0001
,
0000
0000
0100
0010
1000
0000
0000
0000
,
0100
0010
0001
1000
0010
0000
0000
0000
,
0100
0001
0010
0100
1000
0000
0000
0100
,
0000
0010
0002
0000
,
2003
0000
3020
0000
,
0130
0001
1000
0010
0100
0000
0000
0000
,
0010
1000
0100
1000
0001
0000
0000
0000
,
0100
0001
0010
0100
1000
0000
0000
0010
,
0000
0000
0100
0001
1000
0000
0000
0000
,
0100
0010
0001
0100
0010
0000
0000
1000
,
0000
0000
0001
0000
0010
0000
0000
0100
,
0000
0000
1000
0001
0100
0000
0000
0010
,
0000
1000
0001
0000
,
0010
0000
0100
1000
0020
0000
0000
0000
,
0000
0000
0000
0000
,
0000
0000
0000
0000
,
0030
0000
0000
0000
;
