#TITLE:Fuck The Rails;
#SUBTITLE:;
#ARTIST:The A.M.D.A;
#TITLETRANSLIT:;
#SUBTITLETRANSLIT:;
#ARTISTTRANSLIT:;
#CREDIT:DglZero;
#BANNER:ba.jpg;
#BACKGROUND:bg.jpg;
#LYRICSPATH:;
#CDTITLE:!cleaner88hpi.png;
#MUSIC:(22) [The A.M.D.A] Fuck The Rails.mp3;
#OFFSET:-0.120;
#SAMPLESTART:99.720;
#SAMPLELENGTH:12.000;
#SELECTABLE:YES;
#DISPLAYBPM:9999.000;
#BPMS:0.000=140.001,8.000=155.001,12.000=195.001,16.000=220.001,18.500=140.001,22.500=207.141,39.750=210.141,42.500=207.141,64.000=201.001,66.000=204.461,128.000=205.161,208.000=206.181,240.000=206.561,517.667=175.001,521.000=211.401,525.500=270.001,526.000=211.401,586.000=211.601,654.000=222.001,662.000=228.001,666.000=239.001,670.000=245.001,674.000=252.001,678.000=267.001,686.000=285.000,690.000=288.000,694.000=292.000,698.000=296.000,702.000=307.001,706.000=315.001,710.000=322.001,713.000=330.001,714.000=338.000,782.000=340.000,782.063=336.000,782.125=338.001;
#STOPS:;
#BGCHANGES:;
// cache tags:
#FIRSTBEAT:0.000;
#LASTBEAT:782.000;
#SONGFILENAME:Songs/Hard Songs Megapack Volume 9/Fuck The Rails/(22) [The A.M.D.A] Fuck The Rails.sm;
#HASMUSIC:1;
#HASBANNER:1;
#MUSICLENGTH:273.084;
// end cache tags

//---------------dance-single - ----------------
#NOTES:
     dance-single:
     :
     Challenge:
     20:
     1.000,1.000,1.000,1.000,1.000,2283.000,760.000,511.000,0.000,319.000:
2002
0000
3003
2200
0000
3300
2200
3300
0000
0000
0202
0000
0000
0303
2200
3300
,
2002
0000
3003
2200
0000
3300
2200
3300
0000
0000
0202
0000
0000
0303
2200
3300
,
2002
0000
3003
2200
0000
3300
2200
3300
0000
0000
0202
0000
0000
0303
2200
3300
,
2002
0000
3003
2200
0000
3300
2200
3300
0000
0000
0202
0000
0000
0303
2200
3300
,
2002
0000
0000
0000
0000
0000
0000
0000
3003
0000
0000
0000
2200
0000
0000
0000
0000
0000
0000
0000
3300
0000
0000
0000
2200
0000
0000
0000
3300
0000
0000
0000
0000
0000
0000
0000
0000
0000
0000
0000
0202
0000
0000
0000
0000
0000
0000
0000
0000
0000
0000
0000
0303
0000
0000
0000
1000
0100
0010
0001
0100
0010
1000
0100
,
0010
0001
0100
0010
1000
0100
0010
0001
1000
0100
0010
0001
1000
0000
0000
0000
0000
0000
0000
0000
0000
0000
0000
0000
0000
0000
0000
0000
0000
0000
0000
0000
0000
0000
0000
0000
0000
0000
0000
0000
1000
0100
0010
0001
1000
0100
0010
0001
1000
0100
0010
0001
1000
0100
0010
0001
0200
0000
0000
0000
0000
0000
0000
0000
,
0000
0000
0000
0000
,
0000
0000
0000
0000
0000
0000
0000
1300
,
1000
0000
0000
0000
0000
0000
1000
0000
0000
0000
0000
0000
0000
0000
0000
0000
0000
0000
0000
1000
0000
0000
0000
0000
0000
0000
0000
0000
0000
0000
1000
0000
0000
0000
0000
0000
0000
0000
0000
0000
0000
0000
0000
0000
0000
1000
0000
0000
,
0000
0000
0000
0000
0000
0000
0001
0000
0000
0000
0001
0000
0000
0000
0000
0010
0000
0000
0000
0000
0002
0000
0000
0000
0003
0000
0000
0000
0000
0000
2000
0000
,
0000
0200
0000
0020
0000
0002
3333
0000
0000
0000
0021
0030
0012
0003
0021
0030
,
0012
0003
0021
0030
0012
0003
0021
0030
0012
0003
0021
0030
0012
0003
0021
0030
,
1101
1011
1101
1110
1101
1011
1101
1110
,
1101
1011
1101
1110
1101
1011
1101
1011
,
1100
1001
1010
1100
0011
1001
0101
0011
1100
1001
1010
1100
0011
1001
0101
0011
,
2200
3300
0220
0330
0022
0000
0000
0033
0022
0000
0000
0033
0220
0330
0220
0330
,
1110
0000
1020
0030
1101
0000
0201
0300
1011
0000
2001
3000
0111
0000
0102
0003
,
1110
0000
2100
3000
0111
0000
2010
3000
0111
0000
0201
0300
1011
0000
1020
0030
,
1101
0000
0210
0300
1011
0000
2100
3000
0111
0000
0012
0003
1110
0000
1020
0030
,
1101
0000
0210
0300
1011
0000
1200
0300
1011
1001
1001
1001
1110
0000
1110
0000
,
1110
0000
0210
0300
1011
0000
2010
3000
0111
0000
2001
3000
0111
0000
1200
0300
,
1011
0000
2010
3000
0111
0000
1002
0003
1110
0000
0120
0030
1101
0000
0011
0110
,
1100
0000
1100
0110
0011
0000
0210
0300
1011
0000
1020
0030
1101
0000
1002
0003
,
1110
0000
0000
0000
0000
0000
0000
0000
2100
0000
0000
0000
3000
0000
0000
0000
0111
0000
0000
0000
0000
0000
0000
0000
0111
0000
0000
0000
0000
0000
0000
0000
0111
0000
0000
0000
0000
0000
0000
0000
0110
0000
0000
0000
0000
0000
0000
0000
2000
0000
3200
0000
0320
0000
0032
0000
1003
0100
0010
0001
1000
0100
0010
0001
,
1110
0000
1020
0030
1101
0000
0201
0300
1011
0000
2001
3000
0111
0000
1200
0300
,
1011
0000
1002
0003
1110
0000
0102
0003
1110
0000
1101
0000
1110
0000
1101
0000
,
0000
0000
0120
0030
0000
0000
0102
0003
1110
0000
2001
3000
0111
0000
1002
0003
,
1100
1010
1001
1100
1001
1010
1100
1010
0011
0101
1001
0011
1001
0101
0011
0101
,
1010
0000
2001
3000
0111
0000
2001
3000
0111
0000
0201
0300
0000
0000
0201
0300
,
1011
0000
0201
0300
0000
0000
0201
0300
0000
0000
0201
0300
0000
0000
0201
0300
,
0000
0000
0201
0300
0000
0000
0201
0300
0000
0000
0201
0300
0000
0000
0201
0300
,
0020
0030
0020
0030
0020
0030
0020
0030
0020
0030
0020
0030
0020
0030
0020
0030
0020
0030
0020
0030
0020
0030
0020
0030
0020
0030
0020
0030
0020
0030
0020
0030
,
1002
0003
0002
0003
0002
0003
0000
0000
0010
0000
0000
0000
0000
0000
0000
0000
1000
0000
0000
0000
0000
0000
0000
0000
0000
0000
0000
0000
0000
0000
0000
0000
0101
0000
0000
0000
0000
0000
0000
0000
0000
0000
0000
0000
0000
0000
0000
0000
0001
0000
0000
0000
0000
0000
0000
0000
0000
0000
0000
0000
0000
0000
0000
0000
,
0001
0000
0100
1000
0100
1000
0110
0000
,
1002
0003
0002
0003
0002
0003
0000
0000
0100
0000
0000
0000
0000
0000
0000
0000
0010
0000
0000
0000
0000
0000
0000
0000
0000
0000
0000
0000
0000
0000
0000
0000
0101
0000
0000
0000
0000
0000
0000
0000
0000
0000
0000
0000
0000
0000
0000
0000
0010
0000
0000
0000
0000
0000
0000
0000
0000
0000
0000
0000
0000
0000
0000
0000
,
1000
0100
1001
0000
0010
0001
0110
0000
,
1002
0003
0002
0003
0002
0003
0000
0000
0100
0000
0000
0000
0000
0000
0000
0000
1000
0000
0000
0000
0000
0000
0000
0000
0000
0000
0000
0000
0000
0000
0000
0000
0110
0000
0000
0000
0000
0000
0000
0000
0000
0000
0000
0000
0000
0000
0000
0000
0010
0000
0000
0000
0000
0000
0000
0000
0000
0000
0000
0000
0000
0000
0000
0000
,
0010
0000
1000
0100
0010
0000
0110
0000
,
0101
0110
0101
0110
,
0001
0010
0100
1000
0001
0010
0100
1000
0001
0010
0100
1000
0001
0010
0100
1000
0001
0010
0100
1000
0001
0010
0100
1000
0001
0010
0100
1000
0001
0010
0100
1000
0101
0000
0000
0000
0101
0000
0000
0000
0101
0000
0000
0000
0101
0000
0000
0000
0101
0000
0000
0000
0101
0000
0000
0000
0101
0000
0000
0000
0101
0000
0000
0000
,
1002
0013
1002
0013
1000
0012
1003
0012
,
1003
0000
0000
0000
0000
0000
0000
0000
0012
0000
0000
0000
0003
0000
0000
0000
2002
0000
0000
0000
0000
0000
0000
0000
0000
0000
0000
0000
3003
0000
0000
0000
0100
0000
0000
0000
0000
0000
0000
0000
0010
0000
0000
0000
0000
0000
0000
0000
2000
0000
3200
0000
0320
0000
0032
0000
1003
0100
0010
0001
1000
0100
0010
0001
,
1200
0310
1002
0103
0010
2100
3010
0201
,
0310
0000
0120
0030
0220
0000
0000
0330
0110
0000
0000
0110
0110
0000
0110
0110
,
0002
0023
0230
0300
0000
0000
0000
0000
2000
3200
0320
0030
0000
0000
0000
0000
0000
0000
0000
0000
2000
3200
0302
0003
0000
0000
0000
0000
2000
3200
0302
0003
,
0000
0000
0000
0000
0000
0000
0000
0000
2000
0000
3200
0000
0302
0000
0003
0000
2000
0000
3200
0000
0302
0000
0003
0000
0000
0000
0000
0000
0000
0000
0000
0000
0001
0010
0100
1000
0001
0010
0100
1000
0000
0000
0000
0000
0000
0000
0000
0000
0110
0000
0000
0000
0000
0000
0000
0000
0000
0000
0000
0000
0000
0000
0000
0000
,
2000
3200
0320
0030
0000
0000
0000
0000
2000
3200
0302
0003
0000
0000
0000
0000
0000
0000
0000
0000
2000
3020
0032
0003
0000
0000
0000
0000
2000
3200
0302
0003
,
0000
0000
0000
0000
2000
3200
0302
0003
2000
3200
0302
0003
0000
0000
0000
0000
0110
0000
0000
0000
0000
0000
0000
0000
0000
0000
0000
0000
0000
0000
0000
0000
,
1002
0003
0002
0003
0002
0003
0000
0000
0000
0000
0000
0000
2001
3000
2000
3000
2000
3000
0000
0000
0000
0000
0000
0000
0000
0000
0000
0000
0000
0000
1002
0003
0002
0003
0000
0000
0000
0000
0000
0000
0000
0000
1002
0003
0002
0003
0000
0000
,
0000
0000
0000
0000
0000
0000
1002
0003
0000
0000
0000
0000
1002
0003
0002
0003
0002
0003
0000
0000
0000
0000
0000
0000
1001
0000
0000
1001
0000
0000
1001
0000
0000
1001
0000
0000
1001
0000
0000
1001
0000
0000
1001
0000
0000
1001
0000
0000
,
0100
0100
0100
0100
0100
0100
0100
0100
0100
0100
0100
0100
0100
0100
0100
0100
,
0002
0000
0000
0000
0000
0000
0000
0000
0003
0000
0000
0000
0000
0000
0000
0000
0200
0000
0000
0000
0000
0000
0000
0000
0300
0000
0000
0000
0000
0000
0000
0000
2000
0000
0000
0000
0000
0000
0000
0000
3000
0000
0000
0000
0000
0000
0000
0000
0020
0000
0000
0000
0000
0000
0000
0000
0002
0000
0000
0000
0000
0000
0000
0033
,
1100
1100
1100
1100
1100
1100
1100
1100
1101
0000
2000
0000
3020
0000
0230
0000
,
0311
0011
0011
0011
0011
0011
0011
0011
1011
0000
0002
0000
0203
0000
0320
0000
,
0131
0101
0101
0101
0101
0101
0101
0101
1101
0000
2000
0000
3002
0000
0203
0000
,
1302
0000
0000
0003
1002
0000
0000
0003
1002
0003
1002
0003
0002
0000
0203
0000
,
1311
1011
1011
1011
1011
1011
1011
1011
1111
0000
2000
0000
3200
0000
0302
0000
,
1113
1110
1110
1110
1110
1110
1110
1110
1111
0000
0200
0000
0302
0000
2003
0000
,
3111
0111
0111
0111
0111
0111
0111
0111
1111
0000
0200
0000
0302
0000
0203
0000
,
0320
0030
0200
0300
2000
3200
0302
0203
,
1320
0030
1020
0130
1020
0130
1002
0103
,
1020
0130
1020
0130
1020
0130
1002
0103
,
1020
0130
1020
0130
1020
0130
1002
0103
,
1000
0100
0010
0000
1001
0010
0100
0000
1000
0100
0010
0000
1100
0011
0000
0101
,
1020
0000
0000
0030
1020
0000
0130
0000
1020
0000
0130
0000
1002
0000
0103
0000
,
1020
0130
1020
0130
1020
0130
1002
0103
,
1020
0130
1020
0130
1020
0130
1002
0103
,
1010
0000
1010
0000
2000
3200
0320
0032
0023
0230
2300
3200
0320
0032
0023
0230
,
1320
0000
0000
0030
1020
0000
0130
0000
1020
0000
0130
0000
1002
0000
0003
0000
,
1020
0130
1020
0130
1020
0130
1002
0003
,
1020
0130
1020
0130
1020
0130
1002
0003
,
1100
0000
1100
0000
0011
0110
1100
0000
1100
0000
1100
0000
0011
0110
1100
0000
,
0020
0000
2030
3020
0000
2030
3002
2003
,
3020
0000
2030
3020
0000
2030
3002
2003
,
3020
0000
2030
3020
0000
2030
3002
2003
,
3020
0030
0020
0030
0020
0030
0020
0030
0020
0030
0020
0030
0020
0030
0020
0030
0020
0030
0020
0030
0020
0030
0020
0030
0020
0030
0020
0030
0020
0030
0020
0030
,
1101
1011
1101
1011
,
1101
1011
1101
1011
,
1101
1011
1101
1011
,
0000
1011
0000
1101
0000
1011
0000
1011
,
1110
1110
1110
1110
,
1110
1110
1110
1110
,
1110
1110
1110
1110
,
1100
0000
1100
0000
0011
1100
0011
1100
0011
0000
0011
0000
1100
0011
1100
0011
,
1100
1101
1011
1101
,
1011
1101
1011
1101
,
1011
1101
1011
1101
,
0000
1011
0000
1011
0000
1011
0000
1011
,
1110
1110
0000
0000
,
0000
0000
0111
0000
,
0000
0100
1000
0000
0000
0000
0000
0000
,
1000
0000
0100
0000
2002
0000
3003
0000
0000
0000
0000
0000
0000
0000
1000
0010
,
0100
0001
0010
0100
0010
0001
0100
0010
1000
0100
0010
0001
0010
0100
1000
0001
,
0010
0100
0010
0001
1000
0010
0100
0001
0100
0010
0001
0010
0100
1000
0100
0010
,
1000
0100
0010
0001
0100
0010
0001
1000
0010
0100
1000
0001
0100
0010
1000
0100
,
1000
0100
0001
0010
0100
1000
0100
1000
0001
0100
0010
0100
0010
1000
0010
0100
,
0001
0100
1010
0001
1010
0100
0001
1000
0100
0010
0001
0010
0001
0100
0010
1000
,
0010
0100
1000
0001
0100
0010
1000
0100
1000
0001
0010
0001
0100
0010
1000
0010
,
0001
0100
0010
0001
1000
0100
1000
0001
0100
1000
0010
0001
0100
0010
0001
0100
,
0010
1000
0100
0010
0001
1000
0100
0010
1000
0001
0010
0100
1000
0001
0010
0100
,
1000
0100
1000
0010
0100
0001
0100
0010
0001
0100
1000
1000
0001
0001
0100
0100
,
0010
0010
1000
1000
0100
0100
0010
0010
0001
0001
0100
0100
1000
1000
0010
0010
,
0001
0001
0100
0100
0010
0010
0001
0001
1000
1000
0010
0010
1000
1000
0001
0001
,
0100
0100
0010
0010
0100
0100
0001
0001
0010
0010
0100
0100
0010
0010
1000
1000
,
0100
0100
0001
0001
0010
0010
0001
0001
0100
0100
0010
0010
0001
0001
0100
0100
,
1000
1000
0100
0100
1000
1000
0010
0010
0100
0100
1000
1000
0001
0001
0100
0100
,
1000
1000
0010
0010
0100
0100
0001
0001
0100
0100
0010
0010
1000
1000
0100
0100
,
0010
0010
0001
0001
0100
0100
0010
0010
1000
1000
0001
0001
0100
0100
0010
0010
,
0100
0100
0010
0010
0001
0001
0100
0100
1000
1000
0001
0001
0100
0100
0010
0010
,
0001
0001
0100
0100
0010
0010
1000
1000
0110
0010
1000
1000
0001
0001
0100
0100
,
1000
1000
0010
0010
0001
0001
0100
0100
0010
0010
0100
0100
0001
0001
0010
0010
,
1000
1000
0100
0100
1000
1000
0001
0001
0100
0100
0010
0010
1000
1000
0010
0010
,
0100
0100
0001
0001
1000
1000
0010
0010
0100
0100
0001
0001
1000
1000
0100
0100
,
0010
0010
0001
0001
0010
0010
0100
0100
1000
1000
0001
0001
0100
0100
0010
0010
,
1000
1000
0100
0100
1000
1000
0010
0010
0100
0100
0001
0001
0100
0100
0010
0010
,
0001
0001
0010
0010
0001
0001
0100
0100
0010
0010
1000
1000
0001
0001
0100
0100
,
1000
1000
0010
0010
0100
0100
0001
0001
0010
0010
0001
0001
0100
0100
0010
0010
,
1000
1000
0100
0100
1000
1000
0001
0001
0100
0100
0010
0010
1000
1000
0001
0001
,
0010
0010
1000
1000
0100
0100
0011
0010
1000
1000
0100
0100
1000
1000
0001
0001
,
0100
0100
0010
0010
1000
1000
0100
0100
0001
0001
0100
0100
1000
1000
0001
0001
,
0100
0100
0010
0010
1000
1000
0010
0010
0100
0100
1000
1000
0100
0100
0001
0001
,
0010
0010
1000
1000
0100
0100
1000
1000
0001
0001
0100
0100
0010
0010
1000
1000
,
0100
0100
0001
0001
0010
0010
0100
0100
1000
1000
0001
0001
1010
0100
0010
0001
,
1000
0100
0010
0001
1000
0100
0010
0001
1000
0100
0010
0001
1000
0100
0010
0001
,
1000
0100
0010
0001
1000
0100
0010
0001
1000
0100
0010
0001
1000
0100
0010
0001
,
1000
0100
0010
0001
1000
0100
0010
0001
1000
0100
0010
0001
1000
0100
0010
0001
,
1000
0001
1000
0001
1000
0001
1000
0001
1000
0001
1000
0001
1000
0001
1000
0001
,
1000
0001
1110
0000
0000
0000
0000
0000
1101
0000
0000
0000
0000
0000
1110
0000
,
0000
0000
0000
0000
0000
0000
0000
0000
0001
1000
0001
1000
0001
1000
0001
1000
0001
1000
0001
1000
0010
1000
0010
1000
0010
1000
0010
1000
0010
1000
0010
1000
,
0101
0000
0000
0000
0000
0000
0000
0000
0000
0000
0000
0000
0000
0000
0000
1110
0000
0000
0000
0000
0000
0000
0000
0000
0111
0000
0000
0000
0111
0000
0000
0000
0111
0000
0000
0000
0111
0000
0000
0000
0111
0000
0000
0000
0111
0000
0000
0000
,
0111
0111
0111
0111
0000
0000
0000
0000
0000
0000
0000
0000
,
0000
0000
0000
0000
0000
0000
0000
0000
0000
0000
0000
0000
0000
0000
0000
0000
1000
0010
1000
0010
1000
0010
1000
0010
1000
0010
1000
0010
1000
0010
1000
0010
,
1000
0010
1000
0010
1000
0010
1000
0010
1000
0010
1000
0010
1000
0010
1000
0010
1000
0010
1000
0010
1000
0010
1000
0010
1000
0010
1000
0010
1000
0010
1000
0010
,
1000
0010
1000
0010
1000
0001
1000
0001
1000
0001
1000
0001
1000
0001
1000
0001
1000
0001
1000
0001
1000
0001
1000
0001
1000
0001
1000
0001
1000
0001
1000
0001
,
1000
0001
1000
0001
1000
0001
1000
0001
1000
0001
1000
0001
1000
0001
1000
0001
1000
0001
1000
0001
1000
0001
1000
0001
1000
0001
1000
0001
1000
0001
1000
0001
,
1000
0001
1000
0001
1000
0001
1000
0001
1000
0001
1000
0001
1000
0001
1000
0001
1000
0001
1000
0001
1000
0001
1000
0001
0010
0001
0010
0001
0100
0001
0100
0001
,
0010
0001
0010
0001
0010
0001
0010
0001
0010
0001
0010
0001
0010
0001
0010
0001
0010
0001
0010
0001
0010
0001
0010
0001
0010
0001
0010
0001
0010
0001
0010
0001
,
0010
0001
0010
0001
0010
0001
0010
0001
0010
0001
0010
0001
0010
0001
0010
0001
0010
0001
0010
0001
0010
0001
0010
0001
0010
0001
0010
0001
0010
0001
0010
0001
,
1000
0001
1000
0001
1000
0001
1000
0001
1000
0001
1000
0001
1000
0001
1000
0001
1000
0001
1000
0001
1000
0001
1000
0001
1000
0001
1000
0001
1000
0001
1000
0001
,
1000
0001
1000
0001
1000
0001
1000
0001
1000
0001
1000
0001
1000
0001
1000
0001
1000
0001
1000
0001
1000
0010
1000
0010
1000
0001
1000
0001
1000
0001
1000
0001
,
1000
0001
1000
0001
1000
0001
1000
0001
1000
0001
1000
0001
1000
0001
1000
0001
1000
0001
1000
0001
1000
0001
1000
0001
1100
0001
1000
0001
1000
0001
1000
0001
,
1010
0001
1000
0001
1000
0001
1000
0001
1100
0001
1000
0001
1000
0001
1000
0001
1010
0001
1000
0001
1000
0001
1000
0001
1100
0001
1000
0001
1000
0001
1000
0001
,
1010
0001
1000
0001
1000
0001
1000
0001
1100
0001
1000
0001
1000
0001
1000
0001
1010
0001
1000
0001
1000
0001
1000
0001
1100
0001
1000
0001
1000
0001
1000
0001
,
1010
0001
1000
0001
1000
0001
1000
0001
1100
0001
1000
0001
1000
0001
1000
0001
1010
0001
1000
0001
1100
0001
1000
0001
1010
0001
1000
0001
1100
0001
1000
0001
,
1010
0001
1000
0001
1100
0001
1000
0001
1010
0001
1000
0001
1100
0001
1000
0001
0110
0001
0110
0001
0110
0001
0110
0001
0110
0001
0110
0001
0110
0001
0110
0001
,
0110
0001
0110
0001
0110
0001
0110
0001
0110
0001
0110
0001
0110
0001
0110
0001
0110
0001
0100
0001
0100
0001
0100
0001
0110
0001
0100
0001
0100
0001
0100
0001
,
0110
0001
0100
0001
0100
0001
0100
0001
0110
0001
0100
0001
0100
0001
0100
0001
1110
0000
0000
0000
0000
0000
0000
0000
1110
0000
0000
0000
1110
0000
0000
0000
,
0000
0000
1110
0000
1110
0000
0000
0000
2202
3303
2220
3330
2220
0000
3330
0000
,
2220
3330
2220
3330
2202
3303
2220
3330
0222
0333
2022
3033
0222
0333
2022
3033
,
0222
0333
2022
3033
2222
3333
2222
3333
2220
3330
2220
3330
2220
3330
2222
3333
,
2220
0000
3330
0000
2202
3303
2202
3303
1001
0000
1001
0000
1001
0000
0000
0000
,
1101
1001
1001
1001
1101
0000
1101
0000
1101
0000
0000
0001
0001
0000
0000
0001
,
0001
0000
0000
0001
0222
0000
2000
3333
1001
0001
0001
0001
0222
0333
2220
3330
,
2202
0000
0300
0000
3103
0000
1100
0110
0011
0000
0011
0110
1100
0000
0111
0000
,
1101
0100
1101
0100
1101
0000
1011
1011
,
1011
0000
0000
0000
0000
0000
0000
0000
0000
0000
0000
0000
0000
0000
0000
0000
2000
0000
3200
0000
0320
0000
0032
0000
1003
0100
0010
0001
1000
0100
0010
0001
2220
0000
0000
0000
0000
0000
0000
0000
0000
0000
0000
0000
3330
0000
0000
0000
0120
0000
0000
0000
0030
0000
0000
0000
1000
0000
0000
0000
0000
0000
0000
0000
,
0120
0030
1000
0000
0102
0003
1000
0000
0120
0030
1000
0000
0120
0030
1000
0000
,
0120
0030
1110
0000
1101
0000
1011
0000
0111
0000
0000
0000
1110
0000
0000
0000
,
0111
0000
0000
0000
1110
0000
0000
0000
1100
1001
1100
1001
0110
1010
0101
0110
,
0002
0200
2303
3020
0230
0000
2300
3200
,
0000
2300
3002
2003
3200
0000
2300
3200
,
0000
2300
3002
2003
3011
0000
0110
0000
,
0011
0000
0110
0000
1100
0000
0011
0000
0110
0000
1100
0000
0011
0000
1100
0000
0020
0030
0020
0030
0020
0030
0020
0030
0020
0030
0020
0030
0020
0030
0020
0030
,
0020
0030
0020
0030
0020
0030
0020
0030
0020
0030
0020
0030
0020
0030
0020
0030
1111
0000
0000
0000
1100
0000
0000
0000
1111
0000
0000
0000
0011
0000
0000
0000
,
1111
1010
1111
0101
1111
0110
1111
1010
,
1111
1001
1111
0101
1111
1010
1111
1001
,
1111
0101
1111
1010
1111
1001
1110
1001
,
1001
1001
1001
1001
1010
0000
1010
0000
1111
0000
1010
0000
1111
0000
1001
0000
,
1111
0101
1111
1001
1111
1010
1111
1001
,
1111
0000
1010
0000
1111
0000
0011
0110
1100
0000
1100
0110
0011
0000
1100
0000
,
1111
1010
1111
1001
1111
0101
1111
0011
,
1111
0000
0000
0000
0000
0000
0000
0000
0110
0000
0000
0000
0000
0000
0000
0000
2000
0000
3200
0000
0320
0000
0032
0000
1003
0100
0010
0001
1000
0100
0010
0001
1110
0000
0000
0000
0000
0000
0000
0000
0101
0000
0000
0000
0000
0000
0000
0000
1111
0000
0000
0000
0000
0000
0000
0000
1010
0000
0000
0000
0000
0000
0000
0000
,
1111
1001
1111
0101
1111
1010
1111
1001
,
1111
0101
1111
0101
0000
0111
1110
1110
,
1111
0000
0000
0000
1111
0000
0000
0000
1100
1001
1100
1001
0110
1010
0101
0110
,
0002
0000
0020
0000
2000
0000
0200
3333
2211
0000
3311
0000
1122
0000
1133
0000
,
2211
3311
1122
1133
2211
3311
1122
1133
,
2211
3311
1122
1133
2211
3311
1122
1133
,
0001
1000
0001
1000
0001
1000
0001
1000
0200
0320
0230
0320
0230
0320
0230
0320
,
0230
0320
0230
0320
0230
0320
0230
0320
1131
0000
0100
0000
1011
0000
0010
0000
,
1000
1000
0111
1110
1101
0010
1101
0010
,
1000
1000
0111
1110
0111
0001
1110
0111
,
0001
0111
1110
0010
1101
0010
1101
0010
,
0011
1100
0011
1100
0011
1100
0011
1100
0011
0000
0001
0000
1110
0000
0111
0000
,
0001
0111
1110
0010
1101
0010
1101
0100
,
1011
1011
1011
1011
1011
0010
1101
1011
,
0001
1110
0111
0001
1110
0001
1110
0001
,
0101
1010
0101
1010
0101
1010
0101
1010
0101
0000
0000
0000
0101
0000
0000
0000
,
0101
0101
1001
1001
,
1001
1001
1010
1010
,
1010
1010
1100
1100
,
1100
0000
1100
0000
0001
1000
0001
1000
,
0001
0000
1000
0000
0001
0000
1000
0000
0001
1000
0001
1000
0001
1000
0001
1000
,
0001
1000
0001
1000
0001
1000
0001
1000
0101
0000
0000
0000
1010
0000
0000
0000
,
1001
0000
0000
0110
0000
0000
1111
1111
1111
1111
1111
1111
,
1111
1111
1111
1111
1111
0000
1111
0000
0000
0000
0000
0000
;
