#TITLE:Super Trouper;
#SUBTITLE:(Ced Tecknoboy Bootleg Mix);
#ARTIST:ABBA;
#TITLETRANSLIT:;
#SUBTITLETRANSLIT:;
#ARTISTTRANSLIT:;
#CREDIT:owenviau1;
#BANNER:../owenviau1 Simfiles 5-bn.png;
#BACKGROUND:../owenviau1 Simfiles 5-bg.png;
#LYRICSPATH:;
#CDTITLE:../ov1_title.png;
#MUSIC:Abba - Super Trouper (Ced Tecknoboy Bootleg Mix).mp3;
#OFFSET:-0.117;
#SAMPLESTART:136.718;
#SAMPLELENGTH:29.999;
#SELECTABLE:YES;
#DISPLAYBPM:144.000;
#BPMS:0.000=144.000,227.000=143.992,228.000=144.000;
#STOPS:;
#BGCHANGES:;
// cache tags:
#FIRSTBEAT:0.000;
#LASTBEAT:792.000;
#SONGFILENAME:Songs/owenviau1 Simfiles 5/Super Trouper (Ced Tecknoboy Bootleg Mix) - [owenviau1] v1.6/Super Trouper.sm;
#HASMUSIC:1;
#HASBANNER:1;
#MUSICLENGTH:333.453;
// end cache tags

//---------------dance-single - ----------------
#NOTES:
     dance-single:
     :
     Hard:
     8:
     0.670,0.742,0.093,0.333,0.022,1421.000,31.000,111.000,50.000,1.000:
1000
0001
0100
0010
1000
0001
0100
0001
,
0010
0001
1000
0100
1000
0010
0100
0001
,
1000
0001
0010
0100
1000
0010
0100
0001
,
0010
0001
1000
0010
0100
0001
0010
0100
,
1000
0010
0100
0001
1000
0001
0010
0001
,
1000
0010
0100
0001
0010
0100
1000
0010
,
0100
0001
1000
0001
0010
0001
1000
0010
,
0100
0001
0010
0100
1000
0001
0100
0010
,
1001
1000
0001
0010
0100
1000
0001
0100
,
0010
1000
0100
0010
0001
0100
0010
1000
,
0100
1000
0001
0100
0010
1000
0001
1000
,
0100
0010
0001
0100
0010
1000
0100
1000
,
0001
0100
0010
1000
0100
0010
0001
0100
,
0010
1000
0001
1000
0100
1000
0010
0100
,
0001
0010
0001
1000
0010
0100
0001
0010
,
0100
1000
0010
1000
0001
0010
0001
1000
,
0110
0010
1000
0001
1000
0010
0100
0001
,
1000
0001
0010
0001
0100
0010
1000
0100
,
1000
0010
0100
0001
0010
0100
1000
0010
,
0100
0001
1000
0001
0010
0001
1000
0010
,
0100
0001
0010
0100
1000
0010
0100
0001
,
0010
0001
1000
0100
1000
0010
0100
0001
,
1000
0001
0010
0001
1000
0010
0100
0001
,
0010
0100
1000
0010
1000
0001
0010
0100
,
1001
0010
1000
0100
1000
0001
0100
0010
,
1000
0100
0010
0001
0010
0100
1000
0010
,
0100
0001
1000
0001
0010
0001
1000
0010
,
0100
0001
0010
0100
1000
0010
0100
0001
,
1000
0001
0010
0001
1000
0010
0100
0001
,
0010
0100
1000
0010
0100
0001
1000
0001
,
0010
0001
0100
0010
1000
0100
1000
0010
,
0100
0001
1000
0001
0010
0001
0100
0010
,
1001
0000
0000
0002
,
0000
0000
0000
0000
,
0023
0230
2300
3002
0203
0320
2030
3002
,
0203
0000
0000
0000
0000
0000
0000
0000
0000
0000
0000
0000
0000
0000
0000
0300
0000
0000
0000
0000
0020
0000
0000
0000
2030
0000
0000
0000
3200
0000
0000
0000
,
0000
0300
0020
0000
0032
0000
0003
0000
0020
0000
0030
0000
2000
0000
3000
0000
,
0002
0000
0000
0000
0000
0000
0000
0003
0020
0000
0000
0000
0030
0000
0000
0000
,
0200
2300
3020
0032
0203
0320
2030
3002
,
0203
0000
0000
0000
0000
0000
0000
0000
0000
0000
0000
0000
0000
0000
0000
0300
0000
0000
0000
0000
0002
0000
0000
0000
2003
0000
0000
0000
3020
0000
0000
0000
,
0000
0230
0302
0003
0020
0030
2000
3000
,
0200
0000
0000
0000
0310
1000
0100
0010
,
1001
0010
1000
0001
0010
0001
0100
1000
,
0100
0010
1000
0100
0010
0001
1000
0010
,
0001
0100
1000
0010
0100
0001
1000
0100
,
0010
0001
0100
0010
1000
0001
0010
0100
,
1001
0010
1000
0001
0100
0010
1000
0100
,
1001
0010
1000
0001
1100
0001
1000
0010
,
0101
0100
0110
0001
1000
0001
0010
0100
,
2000
0000
3000
1000
0010
0001
0100
0010
,
1001
1000
0001
0010
0001
1000
0010
0100
,
0001
0010
0100
1000
0010
1000
0001
0010
,
0001
1000
0010
0100
0001
0010
0100
1000
,
0010
0100
0001
1000
0001
0010
0001
1000
,
0010
0100
0001
0010
0100
1000
0010
0100
,
0001
1000
0001
0010
0001
0100
0010
1000
,
0100
1000
0010
0100
0001
1000
0100
0010
,
0002
0000
0000
0003
0000
1000
0100
0010
,
0101
1000
0001
0010
0001
0100
0010
1000
,
0100
1000
0010
0100
0001
1000
0001
0010
,
0100
0001
1000
0010
0100
0001
0010
0100
,
1000
0010
0100
0001
1000
0001
0010
0001
,
0100
0010
1000
0100
1000
0001
0100
0010
,
1000
0100
0010
0001
0100
0010
0100
0001
,
0010
0100
1000
0010
1000
0001
0010
0100
,
2000
0000
0000
0000
3001
0020
0230
0320
,
2030
0000
0000
3000
0200
0000
0000
0300
0020
0000
0000
0030
0002
0000
0000
0003
,
0200
0000
0302
0000
0023
0000
2030
0000
3002
0000
0023
0000
2030
0000
3000
0020
,
0032
0000
0000
0003
2000
0000
0000
3000
0020
0000
0000
0030
0200
0000
2300
3000
,
0020
0000
0000
0000
0000
0000
0000
0030
,
0002
0000
0000
0003
0200
0000
0000
0300
0020
0000
0000
0030
0200
0000
2300
3000
,
0002
0000
0000
0000
0000
0000
0000
0003
,
2000
3000
0020
0030
0200
0300
0002
0003
0010
0000
0100
0000
1000
0000
0001
0000
,
2000
0000
0000
0000
3000
0002
0023
0230
,
2300
0000
0000
3000
0002
0000
0000
0003
0200
0000
0000
0300
0020
0000
0000
0030
,
2000
3020
0230
2300
3020
0032
0023
0030
,
2000
0000
0000
3000
0200
0000
0000
0300
0020
0000
0000
0030
0002
0000
0023
0000
,
2030
0000
0001
0000
0001
0000
0001
3100
,
0010
1000
0100
0010
0001
1000
0010
1000
,
0001
0100
0010
1000
0100
0010
0001
1000
,
0020
0032
2003
3020
0230
0300
2000
3000
,
0200
0000
0000
0000
0000
0000
0000
0000
0000
0000
0000
0000
0000
00M0
0000
0000
00M0
0000
0000
0000
2300
0000
0000
0000
3020
0000
0000
0000
0230
0000
0000
0000
,
1301
0001
0100
0010
1000
0001
0100
0001
,
0010
0001
1000
0100
1000
0010
0100
0001
,
1000
0001
0010
0100
1000
0010
0100
0001
,
0010
0001
1000
0010
0100
0001
0010
0100
,
1000
0010
0100
0001
1000
0001
0010
0001
,
1000
0010
0100
0001
0010
0100
1000
0010
,
0100
0001
1000
0001
0010
0001
1000
0010
,
0100
0001
0010
0100
1000
0001
0100
0010
,
1001
1000
0001
0010
0100
1000
0001
0100
,
0010
1000
0100
0010
0001
0100
0010
1000
,
0100
1000
0001
0100
0010
1000
0001
1000
,
0100
0010
0001
0100
0010
1000
0100
1000
,
0001
0100
0010
1000
0100
0010
0001
0100
,
0010
1000
0001
1000
0100
1000
0010
0100
,
0001
0010
0001
1000
0010
0100
0001
0010
,
0200
0000
0000
0000
0310
0001
1000
0001
,
0110
0010
1000
0001
1000
0010
0100
0001
,
1000
0001
0010
0001
0100
0010
1000
0100
,
1000
0010
0100
0001
0010
0100
1000
0010
,
0100
0001
1000
0001
0010
0001
1000
0010
,
0100
0001
0010
0100
1000
0010
0100
0001
,
0010
0001
1000
0100
1000
0010
0100
0001
,
1000
0001
0010
0001
1000
0010
0100
0001
,
0010
0100
1000
0010
1000
0001
0010
0100
,
1001
0010
1000
0100
1000
0001
0100
0010
,
1000
0100
0010
0001
0010
0100
1000
0010
,
0100
0001
1000
0001
0010
0001
1000
0010
,
0100
0001
0010
0100
1000
0010
0100
0001
,
1000
0001
0010
0001
1000
0010
0100
0001
,
0010
0100
1000
0010
0100
0001
1000
0001
,
0010
0001
0100
0010
1000
0100
1000
0010
,
0100
0001
1000
0001
0010
0001
0100
0010
,
0001
0100
0010
1000
0001
0010
0001
0100
,
1001
1000
0001
0010
0100
1000
0010
0100
,
0001
1000
0001
0010
0001
0100
0010
1000
,
0100
1000
0001
0100
0010
1000
0001
0010
,
0001
1000
0010
0100
0001
1000
0001
0010
,
0001
0100
0010
1000
0100
1000
0010
0100
,
0001
1000
0100
0010
0001
0100
0010
1000
,
0100
1000
0010
0100
0001
1000
0100
0010
,
0002
0000
0000
0000
1003
0010
0100
0001
,
1001
1000
0001
0100
0010
1000
0100
0010
,
0001
0100
0001
0010
0100
1000
0010
1000
,
0001
0010
0100
1000
0010
0100
0001
1000
,
0001
0010
0001
0100
0010
1000
0100
1000
,
0010
0100
0001
0010
0100
1000
0010
0100
,
0001
1000
0001
0010
0001
0100
0010
1000
,
0100
1000
0010
0100
0001
1000
0100
0010
,
0002
0000
0003
0000
,
0000
0000
0000
0000
1000
0010
0100
0001
,
1001
0000
1000
0100
0010
0001
0100
0002
,
0000
M000
00M0
0M00
00M3
M000
0010
1000
,
1001
0000
0010
0100
1000
0010
0100
0002
,
0000
0M00
00M0
M000
0M03
00M0
M000
0000
,
0101
0000
0010
1000
0001
0010
0100
0002
,
0000
0000
0000
0000
0000
0000
0M00
0000
0003
0000
00M0
0000
0000
M000
0000
0000
,
0110
0000
0100
0010
1000
0001
0100
0020
,
0000
0000
MM0M
0000
MM3M
0001
0100
0010
,
1001
0010
1000
0001
0010
0001
1000
0010
,
0100
0001
0010
0100
1000
0010
0100
0001
,
1000
0001
0010
0001
0100
0010
1000
0100
,
1000
0001
0100
0010
1000
0100
0010
0001
,
0100
0010
1000
0100
1000
0001
0100
0010
,
1000
0001
0010
0001
1000
0010
0100
0001
,
0010
0100
1000
0010
0100
0001
0010
0001
,
1000
0010
1000
0100
0010
0001
0100
0010
,
1001
0001
0100
0010
1000
0001
0100
0001
,
0010
0001
1000
0100
1000
0010
0100
0001
,
1000
0001
0010
0100
1000
0010
0100
0001
,
0010
0001
1000
0010
0100
0001
0010
0100
,
1000
0010
0100
0001
1000
0001
0010
0001
,
1000
0010
0100
0001
0010
0100
1000
0010
,
0100
0001
1000
0001
0010
0001
1000
0010
,
0100
0001
0010
0100
1000
0001
0100
0010
,
1001
1000
0001
0010
0100
1000
0001
0100
,
0010
1000
0100
0010
0001
0100
0010
1000
,
0100
1000
0001
0100
0010
1000
0001
1000
,
0100
0010
0001
0100
0010
1000
0100
1000
,
0001
0100
0010
1000
0100
0010
0001
0100
,
0010
1000
0001
1000
0100
1000
0010
0100
,
0001
0010
0001
1000
0010
0100
0001
0010
,
0200
0000
0000
0000
0310
0001
1000
0001
,
0110
0010
0001
1000
0010
0100
0001
0010
,
0100
1000
0010
0100
0001
0010
0001
1000
,
0100
1000
0010
0100
0001
1000
0100
0010
,
0002
0000
0000
0000
0000
0000
0000
0000
2003
0000
0000
3000
0010
0000
0001
0000
,
1001
0100
0010
1000
0100
0010
0001
1000
,
0001
0100
1000
0010
0100
0001
1000
0001
,
0010
0001
0100
0010
1000
0001
0010
0100
,
1000
0100
0001
0010
0100
1000
0001
0100
,
1001
0001
0100
0010
1000
0001
0100
0001
,
0010
0001
1000
0100
1000
0010
0100
0001
,
1000
0001
0010
0100
1000
0010
0100
0001
,
0010
0001
1000
0010
0100
0001
0010
0100
,
1000
0010
0100
0001
1000
0001
0010
0001
,
1000
0010
0100
0001
0010
0100
1000
0010
,
0100
0001
1000
0001
0010
0001
1000
0010
,
0100
0001
0010
0100
1000
0001
0100
0010
,
1001
1000
0001
0010
0100
1000
0001
0100
,
0010
1000
0100
0010
0001
0100
0010
1000
,
0100
1000
0001
0100
0010
1000
0001
1000
,
0100
0010
0001
0100
0010
1000
0100
1000
,
0001
0100
0010
1000
0100
0010
0001
0100
,
0010
1000
0001
1000
0100
1000
0010
0100
,
0001
0010
0001
1000
0010
0100
0001
0010
,
0100
1000
0001
1000
0010
0001
1000
0010
,
0110
0001
0100
0010
1000
0001
0100
0001
,
0010
0001
1000
0100
1000
0010
0100
0001
,
1000
0001
0010
0100
1000
0010
0100
0001
,
0010
0001
1000
0010
0100
0001
0010
0100
,
1000
0010
0100
0001
1000
0001
0010
0001
,
1000
0010
0100
0001
0010
0100
1000
0010
,
0100
0001
1000
0001
0010
0001
1000
0010
,
0100
0001
0010
0100
1000
0001
0100
0010
,
1001
0000
M000
0000
000M
0000
M000
0000
000M
M000
000M
M000
000M
M000
000M
M000
,
000M
M000
000M
M000
000M
M000
000M
M000
000M
M000
000M
M000
000M
M000
000M
M000
,
000M
0000
0000
0000
;

//---------------dance-single - ----------------
#NOTES:
     dance-single:
     :
     Challenge:
     11:
     1.000,1.000,1.000,0.447,0.349,1656.000,648.000,149.000,50.000,21.000:
1100
1000
0011
0001
0110
0010
1001
0100
,
1010
0010
0101
1000
0011
0001
1100
0001
,
1010
0100
1001
0010
0110
0001
1100
1000
,
0011
0100
1100
0010
1001
0010
0101
0100
,
1010
0001
1100
1000
0011
0001
1100
0001
,
1010
0010
0101
0010
1001
0100
0011
1000
,
1100
0001
0110
0010
0101
0010
1001
1000
,
0110
0001
1010
0100
1001
0010
1100
0110
,
0101
0000
1000
0000
1010
0000
0010
0000
0101
0000
1000
0000
0110
0000
1000
0001
,
0101
0000
0010
0000
1100
0000
0001
0000
0110
0000
1000
0000
0101
0000
1000
0010
,
0110
0000
0001
0000
1001
0000
0010
0000
0101
0000
0010
0000
1100
0000
0001
1000
,
0110
0000
1000
0000
0101
0000
0010
0000
1100
0000
0001
0000
1010
0000
0001
0100
,
0011
0000
0010
0000
1100
0000
0001
0000
0110
0000
1000
0000
0011
0000
1000
0010
,
0101
0000
0010
0000
1010
0000
0001
0000
0110
0000
0100
0000
1001
0000
0100
1000
,
0011
0100
1010
0010
0101
0010
1100
0010
,
0001
0010
0100
1000
0001
0100
0010
0100
0001
1000
0010
1000
0100
0010
0001
0100
,
1001
0010
0101
0001
1010
0001
0110
0010
,
1001
0100
0110
1000
0011
1000
0110
0001
,
1010
0010
0101
1000
0110
0010
1001
0010
,
1100
0001
0110
1000
0011
0001
1100
0110
,
0101
0010
1001
0100
1010
0001
1100
0001
,
0110
1000
0011
0100
1001
0001
0110
0001
,
1010
0100
1001
0010
0101
1000
0110
0001
,
1100
0000
0010
0001
1000
0000
0010
0100
0001
0000
1000
0010
0100
0000
0001
1000
,
1001
0100
0110
0001
1100
0010
0101
1000
,
0110
0001
1100
0010
0011
1000
0101
0001
,
1010
0100
1001
0001
0110
1000
0011
0010
,
1100
0001
1010
0100
0101
1000
0110
0001
,
1001
0010
1100
0001
0110
1000
0101
1000
,
0101
0001
1010
0100
0011
1000
1100
0001
,
0110
0100
1001
0010
0101
1000
0110
0001
,
1000
0100
0010
0001
1000
0010
0100
0001
0010
0001
1000
0001
0100
0010
1000
0001
,
1001
000M
M000
000M
M000
000M
2000
0000
,
0000
0000
0001
0100
0001
0100
3002
0100
,
0023
0230
2300
3002
0203
0320
2030
3002
,
0203
0000
0000
0000
0000
0000
0000
0000
0000
0000
0000
0000
0000
0000
0000
0300
0000
0000
0000
0000
0020
0000
0000
0000
2030
0000
0000
0000
3200
0000
0000
0000
,
0000
0300
0020
0000
0032
0000
0003
0000
0020
0000
0030
0000
2000
0000
3000
0000
,
0002
0000
0000
0000
0000
0000
0000
0003
0020
0000
0000
0000
0030
0000
0000
0000
,
0200
2300
3020
0032
0203
0320
2030
3002
,
0203
0000
0000
0000
0000
0000
0000
0000
0000
0000
0000
0000
0000
0000
0000
0300
0000
0000
0000
0000
0002
0000
0000
0000
2003
0000
0000
0000
3020
0000
0000
0000
,
0000
0230
0302
0003
0020
0030
2000
3000
,
0200
0000
0000
0000
0000
0000
0000
0000
0310
0001
1000
0001
0100
0010
1000
0100
,
1001
0010
1000
0001
0010
0001
0100
1000
,
0100
0010
1000
0100
0010
0001
1000
0010
,
0001
0100
1000
0010
0100
0001
1000
0100
,
0010
0001
0100
0010
1000
0001
0010
0100
,
1001
0010
1000
0001
0100
0010
1000
0100
,
1001
0010
1000
0001
1100
0001
1000
0010
,
0101
0000
1000
0000
0110
0000
0001
0000
1000
0100
0010
0001
0100
0001
1000
0010
,
0200
0000
0000
0000
0300
0000
1000
0100
0010
0001
1000
0010
0100
0001
1000
0010
,
1001
0010
1100
0001
0110
1000
0101
0010
,
1001
0100
1010
0001
0110
1000
0011
1000
,
1100
0001
1010
0001
0110
1000
0101
0010
,
1001
0100
1010
0001
0110
1000
0011
1000
,
1100
0001
1010
0001
0110
1000
0101
0010
,
1001
0000
0010
0000
1100
0000
0001
0000
0011
0000
1000
0000
0101
0000
0010
0100
,
1001
0001
0110
0001
1010
1000
0101
0010
,
1002
0000
0000
0003
0000
0110
1100
1001
,
0101
0010
1100
0001
0110
1000
0101
0010
,
1001
0000
0100
0000
1010
0000
1000
0000
0101
0000
0010
0000
1001
0000
0100
0001
,
1010
0001
0110
1000
0011
1000
1100
0001
,
1010
0000
0100
0000
1001
0000
0010
0000
0110
0000
1000
0000
0101
0000
0010
1000
,
1001
0001
1010
1000
0101
1000
0110
0001
,
1010
0100
0011
0001
1100
0001
0110
0010
,
1001
0010
0101
0010
1100
0001
0110
0010
,
2001
0000
0000
0000
0001
3020
0230
0320
,
2032
0000
0000
3003
2200
0000
0000
3300
0220
0000
0000
0330
0022
0000
0000
0033
,
2200
0000
3302
0000
0223
0000
2330
0000
3202
0000
0323
0000
2230
0000
3300
0020
,
0232
0000
0000
0303
2002
0000
0000
3003
0022
0000
0000
0033
0202
0000
2300
3003
,
2020
0000
0000
0000
0000
0000
0000
3030
,
2002
0000
0000
3003
2200
0000
0000
3300
0022
0000
0000
0033
0220
0000
2300
3030
,
0202
0000
0000
0000
0000
0000
0000
0303
,
2020
0000
0000
3030
0000
0000
0220
0000
0000
0330
0000
0000
0202
0000
0000
0303
0000
0000
2002
0000
0000
3003
0000
0000
1000
0000
0100
0000
0010
0000
0001
0000
1000
0000
0010
0000
1000
0000
0001
0000
0100
0000
0001
0000
0010
0000
0100
0000
,
2000
0000
0000
0000
3000
0002
0023
0230
,
2302
0000
0000
3003
0202
0000
0000
0303
2200
0000
0000
3300
0220
0000
0000
0330
,
2002
3023
0232
2303
3220
0332
2023
3030
,
2002
0000
0000
3003
0202
0000
0000
0303
2020
0000
0000
3030
0202
0000
0320
0000
,
2133
0000
0000
0000
0001
0000
0000
0000
0001
0000
0000
0000
0001
0000
3100
0010
,
1001
0101
1010
0110
1100
0011
1010
0110
,
0001
0100
0001
1000
0010
0100
0001
0010
0100
1000
0010
0100
0010
1000
0001
0100
,
0020
0000
0000
0032
0000
0000
2003
0000
0000
3020
0000
0000
0230
0000
0000
0300
0000
0000
1000
0100
0010
0001
1000
0001
,
0200
0000
0000
0000
0000
0000
0000
0000
0000
0000
0000
0000
0000
00M0
0000
0000
00M0
0000
0000
0000
2300
0000
0000
0000
3020
0000
0000
0000
0230
0000
0000
0000
,
1301
0010
1100
0001
0011
1000
0101
1000
,
0011
0000
1000
0100
1001
0000
0010
0000
0101
0000
0010
0100
1001
0000
0100
0000
,
1010
0010
0101
1000
0011
0100
1001
0010
,
0110
0001
1010
0100
1001
0100
0110
0001
,
1001
0010
0101
1000
0011
0010
1100
0001
,
0110
0000
0010
0000
0101
0000
0010
0000
1001
0000
1000
0000
0110
0000
0001
0100
,
1010
0100
1001
0001
0110
1000
0011
0100
,
1002
0100
1000
0010
1003
0110
0101
1001
,
0110
0001
1100
0010
0101
1000
0110
0001
,
1001
0100
0011
1000
1100
0010
0101
0010
,
1010
0100
0011
0100
1100
0001
0110
1000
,
1001
0010
0101
0010
1001
0100
0011
1000
,
0110
0001
1100
0001
0110
0100
1001
0010
,
0101
1000
0110
0001
1010
0100
0101
1000
,
1010
0001
0110
0100
1001
0100
1010
1000
,
0102
0000
0010
0000
1000
0000
0100
0000
0010
0000
1000
0000
0103
0010
0001
0100
,
1001
0010
0110
0001
1010
0010
0101
1000
,
0011
0001
1100
0010
0101
0100
1010
0001
,
1100
0010
0011
1000
0110
0001
1010
0100
,
1001
0010
0110
1000
1001
0010
0101
0010
,
1001
0100
0110
0001
1010
0001
1100
0010
,
0011
1000
0101
0001
1010
0010
0101
1000
,
0011
0001
1100
0001
0110
0100
1001
0010
,
0101
0000
1000
0000
1010
0000
0001
0000
0110
0000
0100
0000
1010
0000
0100
0010
,
1001
0100
0011
0001
1100
0010
0101
1000
,
0110
0100
1001
0001
1100
0010
0011
0100
,
1010
0001
0110
1000
1001
0010
0101
0010
,
1010
0001
1100
0001
0011
1000
0110
0001
,
1001
0100
1010
0001
0110
1000
0101
0010
,
1001
0100
1010
0001
1100
1000
0011
0100
,
1010
0001
0110
1000
0101
0010
1001
0010
,
1100
1001
0110
0101
1010
1001
0110
1001
,
0010
0000
0000
0100
0000
0000
0001
0000
0000
0010
0000
0000
0001
0000
0000
1000
0000
0000
0100
0000
0000
0010
0000
0000
0001
0000
1000
0000
0001
0000
0100
0000
0010
0000
1000
0000
0001
0000
0100
0000
0001
0000
0010
0000
0100
0000
1000
0000
,
0001
1000
0110
1000
0011
1000
0101
0010
,
1001
0010
0101
1000
0110
0001
1010
0001
,
1100
0010
0011
1000
0110
0010
1001
0100
,
1010
0100
0011
0010
1001
0010
0101
1000
,
0110
0001
1100
0010
0101
1000
0110
0001
,
1010
0100
1001
0010
0110
1000
0011
0100
,
1100
0000
0001
0000
0110
0000
1000
0000
0101
0000
0010
0000
1001
0000
0010
0100
,
1020
0000
0000
0000
0030
1000
0010
0100
,
1001
0000
0100
0000
0110
0000
0001
0000
1010
0000
0100
0000
0011
0000
0100
0010
,
1001
0000
0001
0000
0110
0000
0010
0000
1100
0000
0001
0000
0011
0000
1000
0010
,
0101
0000
0010
0000
1100
0000
0001
0000
0110
0000
1000
0000
0101
0000
1000
0001
,
0110
0000
0001
0000
1100
0000
0001
0000
0011
0000
1000
0000
0110
0000
1000
0010
,
0101
0000
1000
0000
0110
0000
0001
0000
1001
0000
0100
0000
0110
0000
0001
1000
,
0101
0000
0010
0000
1100
0000
1000
0000
0011
0000
0100
0000
1001
0000
0100
0010
,
0001
1000
0001
0100
0010
1000
0010
0100
0001
1000
0001
0010
0100
1000
0001
1000
0010
0100
0001
1000
0100
1000
0010
0100
,
0002
0000
0000
0000
0000
0000
0000
0000
0000
0000
0000
0000
0000
0000
0000
0000
0000
0000
0000
0000
0000
0000
0000
0000
M003
0000
0000
0000
0000
0000
0000
0000
0000
00M0
0000
0000
0000
0000
0000
0000
0000
0000
0000
000M
0000
0000
0000
0000
,
0010
0000
0000
M00M
0100
0000
0000
0000
0001
0000
0000
0000
1000
0000
0000
0000
0100
0000
0000
0000
0010
0000
0000
0000
0001
0000
0000
0000
0100
0000
0000
0000
0010
0000
0000
0000
1000
0000
0000
0000
0001
0000
0000
0000
0100
0000
0000
0000
0001
0000
0000
0000
0010
0000
0000
0000
0100
0000
0000
0000
1000
0000
0000
0000
,
1001
0000
1100
0110
0011
1010
0101
1002
,
0000
0000
M000
0000
00M0
0000
0M00
0000
00M3
0000
M000
0000
0010
0100
1000
0001
,
1001
0000
0110
0101
1001
1010
0110
1002
,
0000
0M00
00M0
M000
0M03
00M0
M000
0000
,
0101
0000
1100
0110
0101
1010
0110
1002
,
0000
0000
0000
0000
0000
0000
0M00
0000
0003
0000
00M0
0000
0000
M000
0000
0000
,
0110
0000
1100
0011
1100
1010
0101
1020
,
0000
0000
MM0M
0000
MM3M
0001
0100
0010
,
1001
1000
0110
0001
1100
0100
0011
1000
,
0110
0000
1000
0010
0101
0000
0001
0000
1100
0000
0010
0000
1001
0000
0010
0000
,
1001
0000
0100
0010
0101
0000
0001
0000
1100
0000
0010
0000
0101
0000
0010
0000
,
1001
0000
0100
0001
1010
0000
1000
0000
0110
0000
0010
0000
0101
0000
1000
0001
,
1001
0000
0100
0010
0101
0000
1000
0000
0011
0000
0100
0000
1001
0000
0010
0000
,
0101
0110
1100
1001
0011
0110
1100
0011
,
1000
0000
0000
0010
0000
0000
0100
0000
0000
0001
0000
0000
1000
0000
0000
0001
0000
0000
0010
0000
0000
0100
0000
0000
1000
0000
0010
0000
1000
0000
0001
0000
0100
0000
0010
0000
1000
0000
0001
0000
1000
0000
0010
0000
0100
0000
0001
0000
,
1000
0000
0000
0001
0100
0001
0100
0000
0000
0010
0100
0010
0100
0000
0000
0010
1000
0010
1000
0000
0000
0001
1000
0001
,
1001
0010
1100
0001
0011
1000
0101
1000
,
0011
0000
1000
0010
0101
0000
1000
0000
0011
0000
0100
0010
1001
0000
0100
0000
,
1010
0010
0101
1000
0011
0100
1001
0010
,
0110
0001
1010
0100
1001
0100
0110
1010
,
1001
0010
0101
1000
0011
0010
1100
0001
,
0110
0000
1000
0000
0101
0000
0010
0000
1001
0000
1000
0000
0110
0000
0001
0100
,
1010
0100
1001
0001
0110
1000
0011
0100
,
1001
0000
0000
0000
0000
0000
0110
0000
0000
0000
0000
0000
0101
0000
0000
0000
0000
0000
1010
0000
0000
0000
0000
0000
0100
0000
0000
0010
0000
0000
0001
0000
0000
1000
0000
0000
0001
0000
0010
0000
0100
0000
1000
0000
0001
0000
0010
0000
,
1001
0001
1100
0010
0101
1000
0110
0001
,
1001
0100
0011
1000
1100
0010
0101
0010
,
1001
0100
0011
0100
1100
0001
0110
1000
,
1001
0010
0101
0010
1001
0100
0011
1000
,
0110
0001
1100
0001
0110
0100
1001
0010
,
0101
1000
0110
0001
1010
0100
0101
1000
,
1010
0001
0110
0100
1001
0100
1010
1000
,
0102
0000
0000
0000
1000
0000
0100
0000
0010
0000
1000
0000
0103
0010
0001
0100
,
1001
0010
0101
0110
1001
0101
1100
0010
,
0101
1000
0110
1000
0101
0010
1001
0010
,
0101
1000
0110
1100
0101
1000
0011
0100
,
1002
0000
0000
0000
0000
0000
0000
0003
0002
0000
0000
0003
0000
0000
1000
0100
,
1001
0100
0011
1100
0101
1001
1020
0000
,
1032
0000
0000
0000
0000
0000
0000
0003
0002
0000
0000
0003
0000
0000
1000
0000
,
0101
0000
0000
1000
0000
0000
0110
0000
0000
0001
0000
0000
1100
0000
0000
0010
0000
0000
1000
0100
0010
0001
1000
0001
,
0101
0000
0110
0000
1001
0000
0101
0000
0010
1000
0001
0100
0001
0010
0100
1000
,
1001
0000
0010
0000
0110
0000
0001
0000
1100
0000
0010
0000
0101
0000
0010
0100
,
1001
0000
0010
0000
0110
0000
1000
0000
0101
0000
1000
0000
1010
0000
0001
1000
,
0101
0000
1000
0000
0110
0000
0001
0000
1100
0000
0010
0000
0101
0000
0010
1000
,
0011
0100
1001
0100
M011
0100
10M1
1100
,
0110
0000
1000
0000
0101
0000
0010
0000
1100
0000
0001
0000
0110
0000
0001
0010
,
1100
0000
0010
0000
1001
0000
0010
0000
0101
0000
1000
0000
0011
0000
0100
0010
,
1100
0000
0010
0000
1001
0000
0100
0000
0011
0000
0100
0000
1001
0000
0010
0100
,
1001
0000
0000
0000
0000
0000
0101
0000
0000
0000
0000
0000
0110
0000
0000
0000
0000
0000
1100
0000
0000
0000
0000
0000
0001
0000
0000
0010
0000
0000
0100
0000
0000
1000
0000
0000
0010
0000
1000
0000
0001
0000
1000
0000
0010
0000
0100
0000
,
1001
0010
1100
0001
0110
1000
0101
0010
,
1001
0100
1010
0100
0101
0010
1100
0010
,
0101
0100
1010
0100
1001
0010
0110
0001
,
1001
0000
0100
0000
0011
0000
0100
0000
1001
0000
0010
0000
0101
0000
1000
0010
,
0101
0000
0010
0000
1100
0000
0001
0000
0110
0000
1000
0000
0011
0000
1000
0010
,
0101
0000
1000
0000
0110
0000
1000
0100
1001
0000
0010
0000
0110
0000
0001
0100
,
1010
0000
0000
0100
0000
0000
1001
0000
0000
0010
0000
0000
1000
0100
0010
0001
1000
0010
1000
0001
0100
0001
1000
0001
,
1001
0000
1010
0000
0110
0000
0101
0000
0010
0100
1000
0001
0100
0010
0100
0001
,
1000
0100
0010
0001
1000
0010
1000
0001
0100
0010
1000
0001
0010
0001
0100
0010
,
1001
0010
1100
0001
0110
1000
0101
0010
,
1001
0010
0110
0001
1100
0001
0011
1000
,
0101
0000
0010
0000
1001
0000
0010
0000
1100
0000
0010
0000
0001
0000
1000
0010
,
1001
0000
0010
0000
1100
0000
0110
0000
0101
0000
1001
0000
1100
0000
1000
0010
,
0101
0000
1100
0000
0110
0000
1000
0001
0110
0000
1010
0000
0101
0000
0010
0100
,
0001
0000
0000
1000
0000
0000
0100
0000
0000
0010
0000
0000
0001
0000
0000
0100
0000
0000
0001
0000
0000
1000
0000
0000
0100
0000
0010
0000
0001
0000
1000
0000
0001
0000
0010
0000
0100
0000
1000
0000
0010
0000
1000
0000
0001
0000
0100
0000
,
0001
0000
1000
0000
0110
0000
0101
0000
1000
0100
0010
0001
1000
0010
0100
0010
,
1001
0000
1000
0000
1000
0000
1000
0000
1000
0001
1000
0001
1000
0001
1000
0001
,
1000
000M
M000
000M
M000
000M
M000
000M
M000
000M
M000
000M
M000
000M
M000
000M
,
M000
0000
0000
0000
;
