#TITLE:Sonic 6290 Mix;
#SUBTITLE:Sonic Gems Collection;
#ARTIST:Sonic Team;
#TITLETRANSLIT:;
#SUBTITLETRANSLIT:;
#ARTISTTRANSLIT:;
#CREDIT:;
#BANNER:09 - Sonic Gems Collection - Sonic 6290 Mix.PNG;
#BACKGROUND:09 - Sonic Gems Collection - Sonic 6290 Mix-bg.jpg;
#LYRICSPATH:;
#CDTITLE:;
#MUSIC:09 - Sonic Gems Collection - Sonic 6290 Mix.ogg;
#OFFSET:-5.360;
#SAMPLESTART:105.900;
#SAMPLELENGTH:14.880;
#SELECTABLE:YES;
#BPMS:0.000=136.060;
#STOPS:14.000=0.420
;
#BGCHANGES:;
// cache tags:
#FIRSTBEAT:8.000;
#LASTBEAT:316.000;
#SONGFILENAME:Songs/new cc/Sonic 6290 Mix/09 - Sonic Gems Collection - Sonic 6290 Mix.sm;
#HASMUSIC:1;
#HASBANNER:1;
#MUSICLENGTH:146.261;
// end cache tags

//---------------dance-single - ----------------
#NOTES:
     dance-single:
     :
     Challenge:
     10:
     0.722,0.837,0.697,0.103,0.738,621.000,102.000,15.000,48.000,7.000:
0000
0000
0000
0000
,
0000
0000
0000
0000
,
1001
0000
0000
0001
0000
0000
1000
0000
0000
0100
0010
0000
0001
0000
0001
0000
,
0100
0000
0000
0000
0000
0000
0000
0000
0000
0000
0000
0000
0010
0000
0000
0000
0000
0000
0000
0000
0000
0000
0000
0000
1000
0000
0000
0000
0000
0000
0000
0000
0000
0000
0000
0000
0001
0000
0000
0000
0000
0000
0000
0000
0000
0000
0000
0000
0010
0000
0000
0000
0000
0000
0000
0000
0000
0000
0000
0000
0100
0000
0000
0000
0000
0000
0000
0000
0000
0000
0000
0000
1000
0000
0000
0000
0000
0000
0000
0000
0000
0000
0000
0000
0001
0000
0000
0000
00M0
0000
0000
0000
0000
0000
0000
0000
0200
0000
0000
0000
0000
0000
0300
0000
M000
0000
0000
0000
0000
0000
0000
0000
000M
0000
0000
0000
0000
0000
0000
0000
0000
0000
0000
0000
0000
0000
0000
0000
0000
0000
0000
0000
0000
0000
0000
0000
0000
0000
0000
0000
0000
0000
0000
0000
0010
0000
0000
0000
0000
0000
0000
0000
0000
0000
0000
0000
0000
0000
0000
0000
0000
0000
0000
0000
0000
0000
0000
0000
0000
0000
0000
0000
0000
0000
0000
0000
0000
0000
0000
0000
0010
0000
0000
0000
0000
0000
0000
0000
0000
0000
0000
0000
,
0000
0000
1000
0000
0000
1000
0100
0000
0010
0000
0010
0000
0001
0000
0000
0001
,
0000
0000
0001
0000
0000
0100
0010
0000
0010
0000
0100
0000
1000
0000
0000
1000
,
0000
0000
1000
0000
0000
0100
0010
0000
0010
0000
1000
0000
0100
0000
0000
0100
,
0000
0000
0100
0000
0000
1000
0001
0000
0100
0000
0100
0000
0101
0000
0000
0101
,
0000
0000
1001
0000
0000
0000
1000
0000
0101
0000
1000
0000
1100
0000
0000
1100
,
0000
0000
1001
0000
0000
0000
0100
0000
0110
0000
1000
0000
1001
0000
0000
0011
,
0000
0000
0011
0000
0000
0000
0100
0000
0010
0000
0001
0000
0100
0000
0001
1000
,
0000
0001
0010
0100
1000
0000
0001
0000
0100
0000
0000
0000
0011
0000
0000
0000
,
0001
0000
1000
0000
MMM1
0000
0000
0010
0000
0000
0100
0000
0000
0000
1000
0000
,
0100
0000
0010
0000
MMM1
0000
0000
0100
0000
0000
0010
0000
1MMM
0000
0000
0010
,
0000
0000
0100
0000
MMM1
0000
0000
0010
0000
0000
0100
0000
1MMM
0000
0000
0100
,
0000
0000
0010
0000
MMM1
0000
0000
0010
0000
0000
0100
0000
1000
0000
1000
0001
,
0000
0001
0010
0100
1000
0000
0001
0000
0100
0000
0000
0000
0100
0000
0100
0010
,
0000
0010
0100
0001
0010
0000
0100
0000
1000
0000
0000
0000
0001
0000
0100
0001
,
0000
0001
0010
0001
0100
0000
0010
0000
1000
0000
0000
0000
0100
0000
1000
0001
,
0000
0001
0010
0100
0001
0000
0100
0000
1000
0000
0000
0000
1100
0000
0000
0000
,
1000
0000
0010
0000
MMM1
0000
0000
1000
0000
0000
0100
0000
0000
0000
0100
0000
,
0001
0000
0010
0000
1MMM
0000
0000
0001
0000
0000
0100
0000
MMM1
0000
0000
1000
,
0000
0000
0010
0000
MMM1
0000
0000
1000
0000
0000
0010
0000
MMM1
0000
0000
1000
,
0000
0000
0100
0000
MMM1
0000
0000
1000
0000
0000
0010
0000
0100
0000
0100
1000
,
0000
0100
0010
1000
0010
0000
0100
0000
0001
0000
0000
0000
0010
0000
0100
1000
,
0000
1000
0001
0010
0100
0000
1000
0000
1000
0000
0000
0000
0001
0000
0100
0001
,
0000
0100
0010
0100
0001
0000
0001
0000
0100
0000
0000
0000
0010
0000
1000
0001
,
0000
0010
0100
1000
0001
0000
0100
0000
1000
0000
0000
0000
0202
0000
0000
0000
,
1000
0000
0003
0000
101M
0300
2200
0000
,
0001
0000
3000
0000
M311
0000
0000
1001
,
0101
1001
1100
1001
0101
0000
0120
0000
,
M101
0000
0000
0000
110M
0030
0000
0000
11M1
0000
0000
0000
0000
0000
0001
0000
,
1000
0000
0010
0000
0100
0001
0100
0001
0000
0000
0000
0010
0001
0000
0001
0000
,
1000
0001
0000
0001
0000
1000
0000
0010
0000
0000
0000
0000
0000
0000
0100
0000
,
0001
0000
1000
0000
1000
0100
0010
0100
0000
0000
0000
0100
0010
0000
0001
0000
,
0001
0100
0000
0100
0000
0000
0000
0000
0000
0000
0000
0000
0000
0000
0001
0000
,
0100
0000
1000
0000
0100
0001
0100
0010
0000
0000
0000
1000
0001
0000
0100
0000
,
0100
0010
0000
0010
0000
0001
0000
0001
0000
0000
0000
0000
0000
0000
1000
0000
,
0100
0000
0010
0000
1000
0001
0010
0100
0000
0000
0000
0100
1000
0000
0001
0000
,
0100
0010
0000
0010
0000
0000
0000
0000
0000
0000
0000
0000
1100
0000
0000
1010
,
0000
0000
0000
0000
0012
0000
0000
00M0
0000
0000
0000
0000
0100
0000
0000
0000
1003
0000
0000
0000
0000
0000
0000
0000
0011
0000
0000
0000
0000
0000
0101
0000
,
0000
0000
0000
0000
2100
0000
0000
0M00
0000
0000
0000
0000
0010
0000
0000
0000
3001
0000
0000
0000
0000
0000
0000
0000
1001
0000
0000
0000
0000
0000
0110
0000
,
0000
0000
0000
0000
0021
0000
0000
000M
0000
0000
0000
0000
0100
0000
0000
0000
0031
0000
0000
0000
0000
0000
0000
0000
0110
0000
0000
0000
0000
0000
0011
0000
,
0000
0000
0000
0000
1020
0000
0000
M000
0000
0000
0000
0000
0001
0000
0000
0000
0130
0000
0000
0000
0000
0000
0000
0000
1000
0000
0010
0000
1000
0000
0001
0000
,
1000
0010
1000
0001
0100
0000
0100
0000
0001
0000
0000
0000
1000
0010
1000
0001
,
0010
0001
0010
0100
1000
0000
1000
0000
0100
0000
0000
0000
1000
0100
1000
0001
,
0010
0100
1000
0100
0010
0000
0010
0000
0100
0000
0000
0000
0001
0010
0100
1000
,
0010
0100
0001
0010
0100
0000
0100
0000
1000
0000
0000
0000
0110
0000
0000
0110
,
0000
0000
1100
0000
0000
0001
1000
0000
1001
0000
1000
0000
0101
0000
0000
0101
,
0000
0000
0011
0000
0000
1000
0001
0000
1001
0000
0001
0000
1010
0000
0000
1010
,
0000
0000
0110
0000
0000
1000
0100
0000
0110
0000
1000
0000
0011
0000
0000
0011
,
0000
0000
1010
0000
0000
1000
0001
0000
0101
0000
1000
0000
1100
0000
0000
1100
,
0000
0000
1001
0000
0000
0010
0100
0000
1001
0000
0100
0000
0101
0000
0000
0101
,
0000
0000
1100
0000
0000
1000
0100
0000
0101
0000
0001
0000
0011
0000
0000
0011
,
0000
0000
1100
0000
0000
0001
1000
0000
1001
0000
0001
0000
1000
0000
1000
0001
,
0000
0001
0010
0100
1000
0000
0010
0000
0010
0000
0000
0000
1000
0010
1000
0010
,
0100
0001
0010
0001
0010
0100
1000
0010
0100
0010
0100
0001
0010
0100
1000
0100
,
1000
0010
0100
0001
0010
0001
0010
0001
1000
0100
0010
0100
1000
0000
0001
1000
,
0000
0000
0100
1000
0000
0000
0001
0000
0001
0000
0100
0000
0010
0000
1000
0010
,
0000
0000
1000
0100
0000
0010
0100
0000
1000
0000
0000
0000
0010
0100
0001
0100
,
0001
0010
0100
0010
0100
0001
0100
1000
0010
0100
0010
1000
0010
0100
0001
0010
,
0001
1000
0001
0100
0010
0100
1000
0100
0010
1000
0001
0000
0100
0000
0100
0010
,
0000
0000
0001
0010
0000
0000
1000
0000
0100
0000
0001
0000
1000
0000
0010
0100
,
0000
0000
0001
0100
0000
0100
1000
0000
1000
0000
0000
0000
0010
0100
0001
0010
,
0100
1000
0010
0001
0010
0100
0001
0010
1000
0010
0100
0001
0100
1000
0010
0100
,
0010
0001
1000
0100
0010
1000
0001
0010
1000
0010
0100
1000
0001
0000
0001
0010
,
0000
0000
0010
1000
0000
0000
0010
0000
0001
0000
0001
0000
0100
0000
1000
0100
,
0000
0000
0001
0010
0000
0010
0100
0000
1000
0000
0000
0000
0001
0010
0100
1000
,
0100
0010
0001
0100
0010
1000
0010
0100
0001
0010
0100
1000
0010
0100
0001
0010
,
0100
1000
0001
1000
0001
0100
0010
1000
0010
0100
0001
0000
1000
0000
0001
1000
,
0000
0000
0001
1000
0000
0000
0001
0000
1000
0000
0100
0000
0010
0000
0100
0010
,
0000
0000
0100
0010
0000
0100
0010
0000
0100
0000
0000
0000
0011
0000
0000
0011
,
0000
0000
0011
0000
0000
0000
0011
0000
1100
0000
0011
0000
0101
0000
0000
0101
,
0000
0000
0101
0000
0000
0001
1000
0000
1010
0000
0101
0000
1100
0000
0000
1100
,
0000
0000
1100
0000
0000
0000
1100
0000
0011
0000
1100
0000
1010
0000
0000
1010
,
0000
0000
1010
0000
0000
1000
0001
0000
0011
0000
0101
0000
1001
0000
0000
1001
,
0000
0000
1001
0000
0000
0000
1100
0000
1001
0000
0101
0000
0110
0000
0000
0110
,
0000
0000
0110
0000
0000
0001
1000
0000
0110
0000
1001
0000
0002
0000
0000
0200
,
0300
0000
0020
0033
0000
0000
1000
0000
0010
0000
0001
0000
2002
0000
0000
0000
,
3003
0000
0000
0000
;
