#TITLE:In The Power of XTC;
#SUBTITLE:;
#ARTIST:Cardopusher;
#TITLETRANSLIT:;
#SUBTITLETRANSLIT:;
#ARTISTTRANSLIT:;
#CREDIT:The Cosmic Pope;
#BANNER:Bn-xtc.png;
#BACKGROUND:Bg-xtc.png;
#LYRICSPATH:;
#CDTITLE:;
#MUSIC:In The Power of XTC.ogg;
#OFFSET:0.021;
#SAMPLESTART:24.652;
#SAMPLELENGTH:16.400;
#SELECTABLE:YES;
#DISPLAYBPM:234.000;
#BPMS:0.000=234.000;
#STOPS:;
#BGCHANGES:;
// cache tags:
#FIRSTBEAT:12.000;
#LASTBEAT:576.000;
#SONGFILENAME:Songs/SPEEEDCOOOORE/In The Power of XTC - [Cosmic Pope]/In The Power of XTC.sm;
#HASMUSIC:1;
#HASBANNER:1;
#MUSICLENGTH:151.722;
// end cache tags

//---------------dance-single - B. Abear----------------
#NOTES:
     dance-single:
     B. Abear:
     Challenge:
     15:
     1.000,1.000,0.415,0.119,0.811,1184.000,63.000,18.000,71.000,1.000:

0000
0000
0000
0000
,
0000
0000
0000
0000
,
0000
0000
0000
0000
,
0MM0
0000
0000
0000
0MM0
0000
0000
0000
0MM0
0000
0MM0
0000
00M0
0M00
00M0
0M00
,
1001
0100
0010
1001
0100
0010
0100
0000
,
0101
1000
0010
0101
1000
0010
1000
1000
,
0001
1000
0001
1000
0100
0000
1000
0001
1000
0000
0001
0000
0010
0000
0100
0000
,
1100
0000
0000
0000
1000
0000
1000
0000
1001
0000
0000
0000
0001
0100
0001
0100
,
0010
0000
1000
0000
0001
1000
0100
0000
0100
0000
0100
0000
0010
0000
0100
0000
,
1000
0000
1000
0000
0001
0000
1000
0000
0001
0010
0100
1000
0001
0000
1000
0001
,
0100
0M10
01M0
0M10
10M0
M001
100M
M001
,
1001
0000
1000
0000
0001
0000
0010
0000
0011
0000
0001
0000
1000
0100
0010
0001
,
1000
0000
0001
0000
0100
0000
0001
1000
0001
0100
0010
0000
1000
0000
1000
0000
,
0001
0000
0001
0000
0100
0000
0040
0000
1030
0001
1000
0001
1000
0000
0100
0000
,
0100
0000
0100
0000
1000
0001
0100
0001
1000
0000
0001
0000
0100
0000
0001
0000
,
0010
0000
0100
0000
1000
0100
1000
0100
1000
0000
0001
0000
0100
0000
0100
0001
,
1000
0000
0001
0000
0100
M0M0
0100
0000
1000
0000
0001
0000
0100
M0M0
0100
0000
,
1000
0000
0100
0000
0010
0001
1000
0001
1000
0000
1000
0000
0100
0000
1000
0000
,
0001
0010
0001
0010
0100
0000
1000
0001
0100
0000
0010
0000
1000
0000
0001
0000
,
0010
0010
0100
0100
1000
1000
0001
0001
,
0101
0000
0100
0010
0000
1000
0001
0010
,
0011
0000
0001
1000
0000
1000
0100
0010
,
0012
0000
0000
0000
,
0M00
0M00
0M00
0M00
0M00
0M00
0M00
0M00
,
1003
0000
0010
0000
0100
0000
0001
1000
0001
0010
0100
0000
1000
0000
1000
0000
,
0001
0000
0000
0000
0000
0000
0100
0000
0000
0000
0000
0000
0010
0000
0000
0000
0000
0000
1000
0000
0001
0000
1000
0000
0001
0000
0000
0100
0000
0000
0001
0000
0000
0100
0000
0000
0001
0000
0000
0000
0000
0000
0010
0000
0000
0000
0000
0000
,
0100
0000
1000
0000
0001
0010
0001
1000
0010
0000
0100
0000
0001
0000
0100
0000
,
0010
0000
1000
0000
0001
0010
0100
1000
0001
0000
0010
0000
0100
0000
0010
0000
,
0001
100M
M001
100M
M010
01M0
0M10
01M0
,
0M01
0000
1000
0000
0100
0010
0001
1000
0001
0000
0100
0000
0010
0000
0100
0000
,
0001
1000
0001
1000
0100
0000
1000
0001
0100
0000
0010
0000
1000
0000
0001
0000
,
1000
0100
0010
0001
1000
0100
0010
0001
,
1000
0000
1000
0000
0001
0000
0001
0000
1000
0001
1000
0001
0100
0000
0020
0000
,
1030
0001
0100
0001
1000
0100
1000
0001
0100
0000
0100
0000
0001
0000
0001
0000
,
1001
0000
0000
0000
1000
0001
1000
0000
0001
0000
0001
0000
0010
0000
0001
0000
,
1001
0000
0000
0000
0000
0000
0000
0000
0000
0000
0000
0000
0001
0100
0010
1000
,
0001
0000
0010
0000
0100
1000
0001
1000
0010
0000
0010
0000
0100
0000
0010
0000
,
1000
0000
1000
0000
0001
0000
1000
0001
0100
0001
1000
0100
0010
0000
0001
0010
,
0001
0000
0100
M0MM
0100
0000
1000
0000
0001
0000
0100
M0MM
0100
0000
1000
0000
,
0001
0000
0010
MM0M
0010
0000
1000
0000
0001
0000
0010
MM0M
0010
0000
1000
0000
,
0001
0010
0100
1000
0001
0000
1000
0001
0100
0010
0100
0010
1000
0000
0001
1000
,
0100
0000
0000
0010
0000
0000
0001
0000
0000
1000
0000
0000
0001
0000
0000
0000
0000
0000
1000
0000
0001
0000
1000
0000
0001
0000
0000
0100
0000
0000
0001
0000
0000
0100
0000
0000
0001
0000
0000
0000
0000
0000
1000
0000
0000
0000
0000
0000
,
0100
0010
0001
1000
0001
0100
0001
1000
0010
0100
0001
1000
0100
1000
0001
0010
,
0001
1000
0100
0010
0001
1000
0001
0100
0010
1000
0001
0100
0010
0100
0001
1000
,
0001
0010
0100
1000
0001
0100
0001
1000
,
0100
0010
0001
1000
0001
0100
0001
1000
0010
0100
0001
1000
0001
1000
0100
0010
,
0001
0100
0001
0100
0001
0000
1000
0100
0010
0000
0001
0000
1000
0000
0001
0000
,
0100
0010
0100
0010
1000
0001
1000
0001
0100
0000
0001
0000
1000
0000
0000
0000
,
1001
0001
0000
0010
0000
0100
0000
1000
,
1000
0001
0000
0010
0000
0100
0000
1000
,
1000
0010
0000
1000
0000
0010
0000
0100
,
0100
0001
0000
1000
0000
0100
0000
0010
,
0001
0000
1000
0010
0000
0100
0000
0010
,
0010
1000
0000
0100
0000
0010
0000
0001
,
0001
1000
0000
0100
0000
1000
0000
0010
,
0010
0100
0000
0001
0000
1000
0000
0001
,
1001
0000
0101
0000
,
0110
0010
1010
1000
,
1001
0000
0011
0000
,
0110
0000
1100
1100
,
1001
0000
0101
0000
,
0110
0000
1010
0000
,
2010
3000
1002
0003
,
0021
0000
0030
0000
0210
0000
0300
0010
,
0011
0000
1001
0000
,
1010
1000
1001
0001
,
1000
0000
0100
0010
0001
1000
0001
0000
,
1000
0001
0100
0010
0100
0001
1000
0100
,
0010
0000
0100
1000
0001
0100
0010
0100
,
0001
0001
0001
0001
1000
0001
0010
0100
,
2000
0000
0000
0000
0000
0000
0000
0000
0000
0000
0000
0000
00M0
00M0
00M0
00M0
,
00M0
00M0
00M0
00M0
00M0
00M0
00M0
00M0
00M0
00M0
00M0
00M0
00M0
00M0
00M0
00M0
,
3001
0000
0100
0001
0100
0000
0010
1000
0001
1000
0100
0000
1000
0000
1000
0000
,
0001
0000
0100
0010
0100
0000
0001
0000
1000
0000
0001
0000
1000
0000
1000
0000
,
0001
0000
0001
0000
0100
0000
0001
1000
0001
1000
0001
0010
0100
0000
1000
0000
,
0001
0000
0010
0000
0001
0000
1000
0001
1000
0001
1000
0010
0100
0000
0001
1000
,
0100
0000
0100
0000
1000
0000
0001
0100
0001
0100
0010
1000
0001
0000
0000
0001
,
1000
0000
1000
0000
0100
0000
1000
0001
1000
0001
0100
0010
0100
0000
0000
0001
,
1000
0000
1000
0000
0001
0000
1000
0100
0010
0100
1000
0001
1000
0000
1000
0000
,
0001
0000
0100
0010
0100
0010
0100
0010
0100
0010
2000
0000
0000
0000
3001
0000
,
1001
0000
1000
0000
0100
0000
0100
0000
1000
0001
1000
0001
0100
0000
0010
0000
,
0100
0000
0100
0000
0001
1000
0001
0010
0100
0000
1000
0000
0001
0000
0001
0000
,
1000
0000
1000
0000
0010
0000
0100
0001
1000
0000
0001
0000
0010
0000
0010
0000
,
0110
0000
0100
0000
1000
0000
0001
0000
0001
0000
1000
0000
0100
0000
1000
0001
,
0100
0000
0100
0000
0001
1000
0001
1000
0100
0010
0001
0000
1000
0000
0001
0000
,
1000
0000
1000
0000
0010
0000
0100
0001
0100
0001
1000
0001
0010
0000
0100
1000
,
0002
0000
0000
0000
0000
0000
1003
0000
1000
0000
1000
0000
1000
0000
0000
0001
,
0100
0010
0100
0100
0001
1000
0001
0010
,
0100
0000
0100
0000
1000
0000
0100
0010
0001
1000
0001
0100
0010
0000
0100
0001
,
1000
0000
0000
0000
0000
0000
0001
0000
0000
0000
0000
0000
0010
0000
0000
0000
0000
0000
0100
0000
1000
0000
0100
0000
1000
0000
0000
0001
0000
0000
1000
0000
0000
0001
0000
0000
0100
0000
0000
0000
0000
0000
0010
0000
0000
0000
0000
0000
,
1000
0000
1000
0000
0001
0010
0100
1000
0001
0000
1000
0000
0001
0000
1000
0000
,
0100
0000
0100
0000
0010
0001
0010
0000
0001
0000
0100
0000
0010
0000
1000
0000
,
0004
0000
4003
0000
,
3001
0100
0010
1000
0001
1000
0100
0010
0001
0000
0001
0000
1000
0000
0001
1000
,
0100
0010
0100
0010
0001
0000
1000
0001
0100
0000
0100
0000
0010
0000
0100
0000
,
0001
1000
0001
1000
0100
1000
0100
1000
0001
0000
0001
0000
1000
0000
1000
0000
,
1001
0000
0001
0100
0110
0000
0010
1000
,
0001
1000
0100
0010
0011
0001
1000
1000
,
1001
0000
0001
0100
0110
0000
0010
1000
,
0001
0010
0100
0010
0001
0010
0100
1000
,
1100
0000
1000
0001
0101
0000
0001
1000
,
0001
0010
0100
1000
1100
0100
0010
0001
,
1001
0000
1000
0010
0110
0000
0100
0001
,
1000
0100
0100
0100
0010
0001
0001
0001
,
1001
0000
0000
0000
1000
0000
0010
0000
0100
0000
0001
1000
0001
0000
1000
0000
,
0001
0100
0010
1000
0001
1000
0100
0010
0001
1000
0001
0100
0001
1000
0100
0010
,
0001
0000
0000
1000
0000
0000
0100
0000
0000
1000
0001
1000
0001
0000
0000
0100
0000
0000
0010
0000
0000
0100
0000
0000
,
0001
0000
0001
0000
1000
0100
0010
0001
1000
0000
0001
0000
0100
0000
0001
0000
,
0010
0000
0100
0000
1000
0001
1000
0001
0100
0000
0010
0000
1000
0000
0001
0000
,
1000
0100
1000
0100
0010
0100
0010
0100
1000
0001
1000
0001
0100
0001
0100
0001
,
1000
0000
0010
0000
1000
0001
0100
0000
0001
0000
0010
0000
0100
0000
0010
0000
,
0001
1000
0001
1000
0100
1000
0100
1000
0001
0000
0010
0000
0100
0000
1000
0001
,
0100
0010
0100
0001
1001
1000
0100
0010
,
0001
1000
0100
1000
0001
1000
0100
1000
,
0010
0010
0100
0100
0001
0001
1000
1000
,
0001
0010
0100
1000
0001
0100
0010
1000
,
0001
0000
0010
0000
0001
0000
1000
0001
0100
0000
0010
0000
0100
0001
1000
0001
,
0010
0000
0100
0000
1000
0000
0001
0000
0100
0010
1000
0001
1000
0000
0001
0000
,
0010
0100
1000
1000
0001
0100
0010
0100
,
0001
0001
1000
0001
0000
0000
1000
0001
,
0010
0000
0100
0000
1000
0000
0001
0100
0001
0100
0001
0000
1000
0000
1000
0000
,
0001
0000
0000
0000
0000
0000
1000
0000
0000
0000
0000
0000
0100
0000
0000
0000
0000
0000
1000
0000
0001
0000
1000
0000
0001
0000
0000
0100
0000
0000
0001
0000
0000
0100
0000
0000
0001
0000
0000
0000
0000
0000
1000
0000
0000
0000
0000
0000
,
0001
0000
0001
0000
1000
0100
0010
0001
1000
0000
1000
0000
0000
0000
1000
0000
,
0010
0000
0100
0000
0001
1000
0001
1000
0001
0000
0001
0000
0020
0000
0130
0000
,
1000
0001
0100
0001
1000
1000
1000
0100
,
1100
0000
1000
0000
0010
0100
0010
0000
0100
0000
0100
0000
0001
0000
0100
0000
,
0002
0000
0003
0000
0002
0000
0003
0000
2000
0000
3000
0000
2000
0000
3000
0000
2000
0000
0000
0000
0002
0000
0000
0000
0000
0000
0000
3000
1003
0000
0000
0000
,
0100
0000
0100
0000
0000
0010
0100
0000
1000
0000
0001
0000
0100
0000
0010
0000
,
1010
0000
1000
1000
0001
0010
0100
0100
,
1000
0001
0100
0010
1000
0001
0100
0100
,
0101
0000
0001
0000
1000
0000
0001
1000
0200
0000
0000
0310
0100
0000
1000
0000
,
0001
0100
0100
0100
0010
1000
0001
0001
,
0011
0010
0100
0100
1000
1000
0001
0100
,
0010
1000
0100
0100
0010
0001
0010
0100
,
1000
0000
0001
0000
0100
0000
0100
0000
0010
0000
1000
0000
0001
0010
0100
1000
,
0001
0000
0000
0000
0000
0000
0000
0000
0010
0000
0000
0000
0000
0000
0000
0000
0001
0000
0000
0000
0000
0000
0000
0000
0001
0000
0000
0000
0000
0000
0000
0000
1000
0000
0000
0000
0000
0000
0000
0000
0001
0000
0000
0000
0000
0000
0000
0000
0400
0000
0000
0000
0000
0000
0000
0000
0000
0000
0000
0000
0000
0000
0000
0300
,
1001
0000
0001
1001
1000
0100
0010
0010
,
0011
0001
1000
1010
0010
0100
0001
0001
,
1000
0100
1000
0100
1000
0001
1000
0001
0100
0000
0010
0000
1000
0000
1000
0000
,
1001
0000
0000
0000
0000
0000
0001
0000
0100
0000
0000
0000
0001
1000
0100
0010
,
0001
0000
1000
0000
0100
1000
0001
0000
0100
0000
0010
0000
0100
0000
0001
0000
,
1001
0000
1000
0000
0001
0000
0100
0000
0010
1000
0001
0010
0002
0000
0000
1003
,
0100
0000
0100
0000
1000
0001
1000
0001
0100
0010
0100
0000
0001
0000
0000
0000
,
1001
0000
1000
0000
0001
0010
0100
1000
0001
0100
0001
0000
1000
0000
1000
0000
,
1011
0000
0000
0000
;
