#TITLE:Noli Redire;
#SUBTITLE:EXoduz Violation II;
#ARTIST:Cardboard Box;
#TITLETRANSLIT:;
#SUBTITLETRANSLIT:;
#ARTISTTRANSLIT:;
#CREDIT:;
#BANNER:../banner.png;
#BACKGROUND:../background.png;
#LYRICSPATH:;
#CDTITLE:;
#MUSIC:Noli Redire.ogg;
#OFFSET:0.848;
#SAMPLESTART:97.141;
#SAMPLELENGTH:11.760;
#SELECTABLE:YES;
#DISPLAYBPM:243.000;
#BPMS:0.000=243.000,766.000=2400.000,822.000=300.000;
#STOPS:;
#BGCHANGES:;
// cache tags:
#FIRSTBEAT:4.000;
#LASTBEAT:528.500;
#SONGFILENAME:Songs/EXoduz Violation II/Noli Redire - [Ov3rHell3XoduZ]/sm.sm;
#HASMUSIC:1;
#HASBANNER:1;
#MUSICLENGTH:130.374;
// end cache tags

//---------------dance-single - ----------------
#NOTES:
     dance-single:
     :
     Beginner:
     14:
     1.000,1.000,0.291,1.000,1.000,1029.000,38.000,184.000,0.000,0.000:

0000
0000
0000
0000
,
1000
0100
1000
0100
0010
0002
0000
0000
0000
1003
0001
0100
,
0001
1000
0200
0000
0000
0000
0310
0001
0100
0001
1000
0100
,
1000
0100
0010
0001
0100
0001
1000
2200
,
0000
0000
3300
0010
0022
0000
0033
0001
,
0202
0303
0100
0220
0000
0000
0330
0010
,
2020
0000
3030
1000
2200
3300
0100
0220
,
0000
0000
0330
0010
0022
0000
0033
0001
,
0202
0303
0100
0220
0000
0000
0330
0010
,
1000
0100
1000
0010
0100
0001
0010
0200
,
0000
0000
0300
1000
2200
0000
3300
0100
,
0220
0330
0010
0022
0000
0000
0033
0001
,
0202
0000
0303
0100
0220
0330
0010
2020
,
0000
0000
3030
1000
2200
0000
3300
0100
,
0220
0330
0010
0022
0000
0000
0033
0001
,
0100
0001
1000
0100
1000
0010
0100
0001
,
0010
0100
1000
0001
2000
0000
0000
0000
0000
0000
0000
0000
3100
0000
0010
0000
,
0001
0100
0001
0010
0100
1000
0002
0000
,
1003
0100
0010
0001
1000
0001
2000
0000
0000
0000
0000
0000
,
3100
0010
0001
0010
0200
0300
2200
3300
,
2020
3030
0010
0100
0001
0010
0100
2000
,
0000
0000
3001
0100
0001
1000
0100
0010
0002
0000
0000
0000
0000
0000
0000
0000
,
1003
0100
0010
0001
2000
0000
0000
0000
0000
0000
3100
0000
0010
0000
0001
0000
,
1000
0001
0100
0010
1000
0100
0020
0000
,
0000
0000
0031
0100
0001
1000
0100
0010
0002
0000
0000
0000
0000
0000
0000
0000
,
1003
0100
1000
0001
1000
0000
0100
0000
0020
0000
0030
0000
0022
0000
0033
0000
,
0002
0103
0010
1000
0100
0010
0002
0000
,
1003
0000
0000
0400
0000
0000
0000
0000
0000
0000
0000
0000
0340
0000
0000
0000
0000
0000
0000
0000
0000
0031
0000
1000
,
0000
0100
0000
1000
0000
0001
0000
0100
0000
0001
0000
1000
0000
0010
0000
0100
0000
0010
0000
1000
0000
0100
0000
1000
,
0000
0010
0000
0100
0000
0001
0000
0100
0000
0001
0000
0010
0000
0100
0000
1000
0000
0001
0000
1000
0000
0001
0000
0100
,
0000
0010
0000
1000
0000
0010
0000
0100
0000
0001
0000
1000
0000
0100
0000
0010
0000
0001
0000
0010
0000
0001
0000
1000
,
0000
0100
0000
0010
0000
0100
0000
1000
0000
0001
0000
0100
0000
0001
0000
0100
0000
0010
0000
1000
0000
0100
0000
0010
,
0000
0001
0000
1000
0000
0001
0000
0010
0000
0200
0000
0000
0300
0000
0000
0200
0000
0000
0300
0000
0000
0020
0000
0000
,
0030
0002
0000
0003
2002
0000
3003
0000
,
0000
0000
0000
0000
2000
0000
3002
0000
0203
0000
0310
1000
0001
0100
0002
0000
,
1003
0100
0020
0000
0000
0000
0031
1000
,
0001
0000
0100
0010
1000
0100
1000
0000
0001
0000
0100
0000
0002
0000
0000
0000
,
0000
0000
0000
0000
1003
0000
0100
0000
1000
0000
0001
0100
0001
0010
0100
0000
,
1000
0000
0001
0000
2000
0000
0000
0000
0000
0000
0000
0000
3100
0010
0001
0000
,
1000
0010
0100
0001
1000
0100
1000
0000
0001
1000
0100
0010
0001
0000
1000
0100
,
1000
0001
1000
0001
0200
0000
0000
0000
0000
0000
0310
1000
0010
1000
0100
0010
,
0002
0000
0000
0000
0000
0000
1003
0100
0010
0001
1000
0100
2000
0000
0000
0000
,
0000
0000
0000
0000
0000
0000
3001
0000
0000
0100
0000
0000
0001
0000
0000
0100
0000
0000
0001
0000
0000
1000
0000
0000
0002
0000
0000
0000
0000
0000
0000
0000
0000
0000
0000
0000
0000
0000
0000
0000
0000
0000
1003
0000
0000
0000
0100
0000
,
0000
1000
0000
0100
0000
0010
0000
0001
0000
1000
0000
0001
0000
0100
0000
0010
0000
1000
0000
0010
0000
1000
0000
0100
,
0000
0010
0000
0001
0000
1000
0000
0001
0000
0100
0000
0001
0000
0010
0000
0100
0000
1000
0000
0100
0000
1000
0000
0001
,
0000
0100
0000
0001
0000
1000
0000
0001
0000
1000
0000
0100
0000
0010
0000
0001
0000
1000
0000
0001
0000
2000
0000
0000
,
0000
3100
0010
0001
0010
0200
0000
1300
,
0001
0100
0020
0000
0000
1030
0001
0100
,
0001
0000
0000
2000
0000
0000
0000
0000
0000
3100
0000
0000
0010
0000
0000
0001
0000
0000
1000
0000
0000
0001
0000
0100
,
0000
0001
0000
1000
0000
0100
0000
0010
0000
0100
0000
1000
0000
0001
0000
1000
0000
0001
0000
0100
0000
0010
0000
1000
,
0000
0100
0000
1000
0000
0100
0000
0010
0000
0001
0000
1000
0000
0001
0000
0100
0000
0010
0000
1000
0000
0100
0000
1000
,
0000
0001
0000
0100
0000
0001
0000
0010
0000
0100
0000
0010
0000
0100
0000
1000
0000
0001
0000
0100
0000
0002
0000
0000
,
0000
1003
0100
0010
0001
2000
0000
3001
,
0100
0010
2000
0000
0000
3100
0010
0001
,
1000
0000
0000
0200
0000
0000
0000
0000
0000
0310
0000
0000
0001
0000
0000
1000
0000
0000
0100
0000
0000
0010
0000
0001
,
0000
1000
0000
0001
0000
0010
0000
0100
0000
1000
0000
0100
0000
1000
0000
0001
0000
0100
0000
0001
0000
0100
0000
0010
,
0000
1000
0000
0100
0000
0010
0000
0001
0000
1000
0000
0001
0000
0100
0000
0010
0000
1000
0000
0100
0000
1000
0000
0001
,
0000
0100
0000
0001
0000
0100
0000
0010
0000
1000
0000
0100
0000
0010
0000
0001
0000
1000
0000
0001
0000
2000
0000
0000
,
0000
3000
2200
0000
3300
0220
0000
0330
,
0022
0000
0000
0000
0000
0000
0033
0000
0000
0001
0000
1000
0000
0001
0000
0100
0000
0001
0000
1000
0000
0100
0000
0000
,
0010
0001
0100
0001
1000
0001
1000
0020
,
0030
0000
0000
0200
0302
0003
0000
0020
,
0230
0300
2000
3002
0003
0000
0000
2000
,
3200
0320
0032
0203
0302
2003
3200
0320
,
0031
1000
0100
0010
0001
0100
0001
1000
,
0100
1000
0001
0010
0100
1000
0020
0000
,
0130
0001
1000
0100
0020
0000
0000
0000
,
0031
0100
0001
1000
0100
0000
0010
0000
0001
0000
1000
0000
0001
0000
0100
0000
,
0001
1000
0100
2000
3020
0230
0302
0000
,
1003
0001
0100
0010
2000
0000
0000
0000
,
3010
0100
0001
1000
0100
1000
0001
0100
,
0001
0010
0100
2000
3002
0203
0320
0000
,
0000
1030
0100
0010
0002
0000
0000
0000
,
1003
0100
1000
0001
0100
0001
1000
0100
,
1000
0001
0010
0200
2300
3002
0203
0000
,
0000
0000
0000
0340
0000
0000
0000
0000
0000
0000
0000
0000
4030
0000
0000
0000
0000
0000
0000
0000
0000
3100
0000
0010
,
0000
0001
0000
1000
0000
0001
0000
0100
0000
0001
0000
0010
0000
0100
0000
1000
0000
0100
0000
1000
0000
0010
0000
0100
,
0000
0001
0000
0010
0000
0001
0000
0010
0000
0100
0000
1000
0000
0001
0000
0100
0000
0010
0000
1000
0000
0100
0000
1000
,
0000
0001
0000
0100
0000
0010
0000
1000
0000
0001
0000
0010
0000
0001
0000
0010
0000
0100
0000
1000
0000
0001
0000
0100
,
0000
0001
0000
0100
0000
0010
0000
1000
0000
0100
0000
0010
0000
0001
0000
1000
0000
0001
0000
0100
0000
0010
0000
1000
,
0000
0100
0000
0010
0000
0001
0000
1000
0000
0002
0000
0000
0003
0000
0000
0202
0000
0000
0303
0000
0000
0220
0000
0000
,
0330
2020
0000
3030
1000
0100
0020
0000
,
0031
0100
0001
1000
0200
0000
0000
0000
0000
0000
0000
0000
0310
0000
0001
0000
,
0100
0001
0010
0100
1000
0001
2000
0000
,
0000
3001
0100
0010
2000
0000
0000
0000
,
3100
0010
0001
1000
0002
0003
0202
0303
,
0220
0330
2020
3030
1000
0100
0020
0000
,
0031
1000
0100
1000
0002
0000
0000
0000
,
0103
0010
1000
0100
2000
0000
0000
0000
0000
0000
0000
0000
3002
0003
0200
0300
,
0000
0000
0002
0003
0200
0300
0001
0000
1000
0000
0100
0000
0020
0000
0000
0000
,
0031
0100
0001
0100
0002
0000
0000
0000
,
1003
0100
0010
0001
1000
0000
0001
0000
0200
0000
0300
0000
0220
0000
0330
0000
,
0010
1000
0100
0010
0001
1000
0004
0000
,
0000
0000
0000
0403
0000
0000
0000
0000
0000
0000
0000
0000
0340
0000
0000
0000
0000
0000
0000
0000
0000
1030
0000
0100
,
0000
1000
0000
0100
0000
0010
0000
0001
0000
1000
0000
0001
0000
0100
0000
0010
0000
1000
0000
0010
0000
0100
0000
0001
,
0000
0100
0000
0001
0000
0010
0000
0100
0000
1000
0000
0001
0000
0100
0000
0001
0000
0010
0000
0100
0000
1000
0000
0100
,
0000
1000
0000
0010
0000
0100
0000
0001
0000
1000
0000
0001
0000
0010
0000
0001
0000
1000
0000
0100
0000
1000
0000
0100
,
0000
0010
0000
0001
0000
1000
0000
0010
0000
0100
0000
0001
0000
1000
0000
0001
0000
0010
0000
0001
0000
1000
0000
0100
,
0000
0010
0000
0100
0000
1000
0000
0001
0000
0100
0000
0001
0000
0100
0000
0010
0000
1000
0000
0100
0000
0010
0000
0001
,
0000
1000
0000
0001
0000
0100
0000
0010
0000
1000
0000
0100
0000
1000
0000
0100
0000
0010
0000
0001
0000
1000
0000
0001
,
0000
0100
0000
0010
0000
1000
0000
0100
0000
1000
0000
0100
0000
0010
0000
0001
0000
1000
0000
0001
0000
0100
0000
0010
,
0000
1000
0000
0100
0000
0010
0000
0100
0000
1000
0000
0001
0000
0100
0000
0001
0000
0010
0000
0100
0000
1000
0000
0001
,
0000
1000
0000
0100
0000
1000
0000
0100
0000
0010
0000
0001
0000
1000
0000
0100
0000
1000
0000
0010
0000
0200
0000
0000
,
0301
0010
0100
1000
0004
0000
0000
0000
,
0000
0000
0000
0000
0000
0000
1003
0000
0100
0000
2000
0000
0000
0000
3200
0300
,
0020
0030
0000
0000
0200
0300
0020
0030
0000
0000
0200
0300
0020
0030
0000
0000
,
0001
0100
0001
1000
0400
0000
0000
0000
,
0000
0000
0000
0000
0000
0000
0310
0000
0001
0000
1000
0000
0001
0000
2000
3000
,
0200
0300
0000
0000
2000
3000
0200
0300
0000
0000
2000
3000
0200
0300
0000
0000
,
1000
0001
0100
0010
2000
0000
0000
0000
,
0000
0000
0000
0000
0000
0000
3001
0000
0100
0000
0010
0000
1000
0000
0200
0300
,
0020
0030
0000
0000
0200
0300
0020
0030
0000
0000
0200
0300
0020
0030
0000
0000
,
0001
0100
0001
1000
0200
0000
0000
0000
,
0000
0000
0000
0000
0000
0000
0310
0000
0001
0000
2000
0000
0000
0000
3002
0003
,
0200
0300
0000
0000
0002
0003
0200
0300
0000
0000
0002
0003
0200
0300
0000
0000
,
0010
1000
0100
0010
0002
0000
0000
0000
,
0000
0000
0000
0000
0000
0000
0103
0000
0010
0000
1000
0000
0001
1000
0100
0000
,
0010
0000
0001
1000
0100
0000
1000
0000
0001
1000
0010
0000
0100
0000
0001
0010
,
0100
0000
1000
0000
0001
0100
0001
0000
1000
0000
0100
0010
0001
0000
1000
0000
,
0100
0010
0001
0000
1000
0000
0100
1000
0010
0000
0100
0000
0001
1000
0001
0000
,
1000
0000
0100
0010
0001
0000
1000
0000
0001
0100
0010
0000
1000
0000
0100
0010
,
0001
0000
1000
0000
0001
0100
0001
0000
1000
0000
0100
0010
0001
0000
1000
0000
,
0001
0100
0001
0000
1000
0000
0001
0100
0001
0100
0010
0000
1000
0100
1000
0100
,
0010
0000
0001
1000
0001
0100
0001
0000
1000
0100
1000
0100
0010
0000
0001
0100
,
0001
0100
0010
0000
1000
0001
0100
0001
0010
0000
0100
1000
0001
1000
0100
0000
,
0010
0001
1000
0001
1000
0000
0100
1000
0001
0100
0001
0000
1000
0010
0100
0001
,
1000
0000
0100
0010
0001
0010
0001
0000
1000
0100
1000
0001
1000
0000
0001
0100
,
0001
0010
0001
0000
1000
0100
0010
0001
1000
0000
0010
0100
0001
1000
0001
0000
,
1000
0100
0010
0100
1000
0000
0001
0000
0100
0000
0010
0000
1000
0000
0001
0000
,
1000
0000
0100
0010
0001
1000
0001
0000
1000
0000
0001
0000
0100
0000
0010
1000
,
0100
0010
0001
0000
1000
0100
1000
0001
1000
0000
0001
0100
0001
1000
0001
0000
,
1000
0010
1000
0010
0100
0000
0002
0000
0000
0000
0000
0000
1003
0000
0100
0000
,
0010
0001
0000
0000
0000
0000
0000
0000
;

//---------------dance-single - ----------------
#NOTES:
     dance-single:
     :
     Easy:
     15:
     1.000,1.000,0.276,1.000,1.000,1132.000,36.000,143.000,0.000,0.000:

0000
0000
0000
0000
,
1000
0010
1000
0100
0010
0002
0000
0000
0000
1003
0001
0100
,
0001
1000
0200
0000
0000
0000
0310
0001
0100
0001
1000
0010
,
1000
0100
0010
0001
0100
0001
1000
1100
,
0100
0010
0001
0100
0110
0010
1000
0100
,
0110
0010
0001
1001
1000
0100
1000
0010
,
0110
0100
0001
0010
0110
0100
1000
1001
,
0001
0100
0001
0010
0011
0001
1000
0001
,
0101
0100
0010
1010
1000
0100
1000
0001
,
1000
0100
1000
0010
0100
0001
0010
0200
,
0000
0000
0300
1000
1100
0100
0010
0001
,
0101
0100
0010
1010
1000
0100
1000
0001
,
0101
0100
0001
0010
0110
0100
1000
1010
,
0010
0100
0001
1000
1001
0001
0100
0001
,
0101
0100
0010
1010
1000
0100
1000
0001
,
0100
0001
1000
0100
1000
0010
0100
0001
,
0010
0100
1000
0001
2000
0000
0000
0000
0000
0000
0000
0000
3100
0000
0010
0000
,
0001
0100
0001
0010
0100
1000
0002
0000
,
1003
0100
1000
0010
0100
0001
1000
0010
2000
0000
0000
0000
0000
0000
0000
0000
,
3100
0010
0001
0010
0200
0300
2200
3300
,
2020
3030
0010
0100
0001
0010
0100
2000
,
0000
0000
3001
0100
0001
1000
0100
0010
0002
0000
0000
0000
0000
0000
0000
0000
,
1003
0100
0010
0001
2000
0000
0000
0000
0000
0000
3100
0000
0010
0000
0001
0000
,
1000
0001
0100
0010
1000
0100
0020
0000
,
0000
0000
0031
0100
0001
1000
0100
0010
0002
0000
0000
0000
0000
0000
0000
0000
,
1003
0100
1000
0001
1000
0000
0100
0000
0020
0000
0030
0000
0022
0000
0033
0000
,
0002
0103
0010
1000
0100
0010
0002
0000
,
1003
0000
0000
0400
0000
0000
0000
0000
0000
0000
0000
0000
0340
0000
0000
0000
0000
0000
0000
0000
0000
0031
0000
1000
,
0000
0100
0000
1000
0000
0001
0000
0100
0000
0001
0000
1000
0000
0010
0000
0100
0000
0010
0000
1000
0000
0100
0000
1000
,
0000
0010
0000
0100
0000
0001
0000
1000
0000
0001
0000
0010
0000
0100
0000
1000
0000
0010
0000
1000
0000
0001
0000
0100
,
0000
0010
0000
1000
0000
0010
0000
0100
0000
0001
0000
1000
0000
0100
0000
0010
0000
0001
0000
1000
0000
0010
0000
1000
,
0000
0100
0000
0010
0000
0100
0000
1000
0000
0010
0000
0100
0000
0001
0000
0100
0000
0010
0000
1000
0000
0100
0000
0010
,
0000
0001
0000
1000
0000
0001
0000
0010
0000
0200
0000
0000
0300
0000
0000
0200
0000
0000
0300
0000
0000
0020
0000
0000
,
0030
0002
0000
0003
2002
0000
3003
0000
,
0000
0000
0000
0000
2000
0000
3002
0000
0203
0000
0310
1000
0001
0100
0002
0000
,
1003
0100
0020
0000
0000
0000
0031
1000
,
0001
0000
0100
0010
1000
0100
1000
0000
0001
0000
0100
0000
0002
0000
0000
0000
,
0000
0000
0000
0000
1003
0000
0100
0000
1000
0000
0001
0100
0001
0010
0100
0000
,
1000
0000
0001
0000
2000
0000
0000
0000
0000
0000
0000
0000
3100
0010
0001
0000
,
1000
0010
0100
0001
1000
0100
1000
0000
0001
1000
0100
0010
0001
0000
1000
0100
,
1000
0010
1000
0001
0200
0000
0000
0000
0000
0000
0310
1000
0001
1000
0100
0010
,
0002
0000
0000
0000
0000
0000
1003
0100
0010
0001
1000
0100
2000
0000
0000
0000
,
0000
0000
0000
0000
0000
0000
3010
0000
0000
0100
0000
0000
0001
0000
0000
0100
0000
0000
0010
0000
0000
1000
0000
0000
0002
0000
0000
0000
0000
0000
0000
0000
0000
0000
0000
0000
0000
0000
0000
0000
0000
0000
1003
0000
0000
0000
0010
0000
,
0000
1000
0000
0100
0000
0010
0000
0001
0000
1000
0000
0001
0000
0100
0000
0010
0000
1000
0000
0001
0000
1000
0000
0100
,
0000
0010
0000
0001
0000
1000
0000
0001
0000
0100
0000
0001
0000
0010
0000
0100
0000
1000
0000
0010
0000
1000
0000
0001
,
0000
0100
0000
0001
0000
0010
0000
0001
0000
1000
0000
0100
0000
0010
0000
0001
0000
1000
0000
0010
0000
2000
0000
0000
,
0000
3100
0010
0001
0010
0200
0000
1300
,
0001
0100
0020
0000
0000
1030
0001
0100
,
0001
0000
0000
2000
0000
0000
0000
0000
0000
3100
0000
0000
0010
0000
0000
0001
0000
0000
1000
0000
0000
0001
0000
0100
,
0000
0001
0000
1000
0000
0100
0000
0010
0000
0100
0000
1000
0000
0010
0000
1000
0000
0001
0000
0100
0000
0010
0000
1000
,
0000
0001
0000
1000
0000
0100
0000
0010
0000
0001
0000
1000
0000
0001
0000
0100
0000
0010
0000
1000
0000
0100
0000
1000
,
0000
0001
0000
0100
0000
0001
0000
0010
0000
0100
0000
1000
0000
0010
0000
1000
0000
0001
0000
0100
0000
0002
0000
0000
,
0000
1003
0100
0010
0001
2000
0000
3001
,
0100
0010
2000
0000
0000
3100
0010
0001
,
1000
0000
0000
0200
0000
0000
0000
0000
0000
0310
0000
0000
0001
0000
0000
1000
0000
0000
0100
0000
0000
0010
0000
0001
,
0000
1000
0000
0001
0000
0010
0000
0100
0000
1000
0000
0010
0000
1000
0000
0001
0000
1000
0000
0010
0000
0100
0000
0010
,
0000
1000
0000
0100
0000
0010
0000
0001
0000
1000
0000
0001
0000
0100
0000
0010
0000
1000
0000
0100
0000
1000
0000
0010
,
0000
0100
0000
0001
0000
0100
0000
0010
0000
1000
0000
0100
0000
0010
0000
0001
0000
0100
0000
0001
0000
2000
0000
0000
,
0000
3000
2200
0000
3300
0220
0000
0330
,
0022
0000
0000
0000
0000
0000
0033
0000
0000
0001
0000
1000
0000
0001
0000
0100
0000
0001
0000
1000
0000
0100
0000
0000
,
0010
0001
0100
0001
1000
0001
1000
0020
,
0030
0000
0000
0200
0302
0003
0000
0020
,
0230
0300
2000
3002
0003
0000
0000
2000
,
3200
0320
0032
0203
0302
2003
3200
0320
,
0031
1000
0100
0010
0001
0100
0001
1000
,
0100
1000
0001
0010
0100
1000
0020
0000
,
0130
0001
1000
0100
0020
0000
0000
0000
,
0031
0100
0001
1000
0100
0000
0010
0000
0001
0000
1000
0000
0001
0000
0100
0000
,
0001
1000
0100
2000
3020
0230
0302
0000
,
1003
0001
0100
0010
2000
0000
0000
0000
,
3010
0100
0001
1000
0100
1000
0001
0100
,
0001
0010
0100
2000
3002
0203
0320
0000
,
0000
1030
0100
0010
0002
0000
0000
0000
,
1003
0100
1000
0001
0100
0001
1000
0100
,
1000
0001
0010
0200
2300
3002
0203
0000
,
0000
0000
0000
0340
0000
0000
0000
0000
0000
0000
0000
0000
4030
0000
0000
0000
0000
0000
0000
0000
0000
3100
0000
0010
,
0000
0001
0000
1000
0000
0001
0000
0100
0000
0001
0000
0010
0000
0100
0000
1000
0000
0010
0000
1000
0000
0001
0000
0100
,
0000
0001
0000
1000
0000
0001
0000
0010
0000
0100
0000
1000
0000
0001
0000
0100
0000
0010
0000
1000
0000
0100
0000
1000
,
0000
0001
0000
0100
0000
0010
0000
0100
0000
0001
0000
1000
0000
0001
0000
0010
0000
0100
0000
1000
0000
0010
0000
0100
,
0000
0001
0000
0100
0000
0010
0000
1000
0000
0100
0000
0010
0000
0001
0000
1000
0000
0001
0000
0100
0000
0010
0000
1000
,
0000
0100
0000
0010
0000
0001
0000
1000
0000
0002
0000
0000
0003
0000
0000
0202
0000
0000
0303
0000
0000
0220
0000
0000
,
0330
2020
0000
3030
1000
0100
0020
0000
,
0031
0100
0001
1000
0200
0000
0000
0000
0000
0000
0000
0000
0310
0000
0001
0000
,
0100
0001
0010
0100
1000
0001
2000
0000
,
0000
3001
0100
0010
2000
0000
0000
0000
,
3100
0010
0001
1000
0002
0003
0202
0303
,
0220
0330
2020
3030
1000
0100
0020
0000
,
0031
1000
0100
1000
0002
0000
0000
0000
,
0103
0010
1000
0100
2000
0000
0000
0000
0000
0000
0000
0000
3002
0003
0200
0300
,
0000
0000
0002
0003
0200
0300
0001
0000
1000
0000
0100
0000
0020
0000
0000
0000
,
0031
0100
0001
0100
0002
0000
0000
0000
,
1003
0100
0010
0001
1000
0000
0001
0000
0200
0000
0300
0000
0220
0000
0330
0000
,
0010
1000
0100
0010
0001
1000
0004
0000
,
0000
0000
0000
0403
0000
0000
0000
0000
0000
0000
0000
0000
0340
0000
0000
0000
0000
0000
0000
0000
0000
1030
0000
0001
,
0000
1000
0000
0100
0000
0010
0000
0001
0000
1000
0000
0001
0000
0100
0000
0010
0000
1000
0000
0100
0000
1000
0000
0001
,
0000
0100
0000
0001
0000
0010
0000
0100
0000
1000
0000
0001
0000
0100
0000
0001
0000
0010
0000
0100
0000
1000
0000
0001
,
0000
1000
0000
0010
0000
0100
0000
0001
0000
1000
0000
0001
0000
0010
0000
0001
0000
1000
0000
0010
0000
1000
0000
0100
,
0000
0010
0000
0001
0000
1000
0000
0010
0000
0100
0000
0001
0000
1000
0000
0001
0000
0010
0000
0001
0000
1000
0000
0100
,
0000
0010
0000
0100
0000
1000
0000
0010
0000
0100
0000
0001
0000
0100
0000
0010
0000
1000
0000
0100
0000
0010
0000
0001
,
0000
1000
0000
0001
0000
0100
0000
0010
0000
1000
0000
0001
0000
1000
0000
0100
0000
0010
0000
0001
0000
1000
0000
0001
,
0000
0100
0000
0010
0000
1000
0000
0001
0000
1000
0000
0100
0000
0010
0000
0001
0000
1000
0000
0001
0000
0100
0000
0010
,
0000
1000
0000
0100
0000
0010
0000
0100
0000
1000
0000
0001
0000
0100
0000
0001
0000
0010
0000
0100
0000
1000
0000
0001
,
0000
1000
0000
0010
0000
1000
0000
0100
0000
0010
0000
0001
0000
1000
0000
0100
0000
1000
0000
0010
0000
0200
0000
0000
,
0301
0000
0010
0000
0100
0000
1000
0000
0001
0100
0001
0100
0010
1000
0010
1000
,
0100
0010
0001
1000
0001
0000
1000
0000
0100
0000
2000
0000
0000
0000
3200
0300
,
0020
0030
0000
0000
0200
0300
0020
0030
0000
0000
0200
0300
0020
0030
0000
0000
,
0001
0000
0100
0000
0001
0000
1000
0000
0100
0010
0100
0010
0001
1000
0001
1000
,
0010
0100
0001
0100
0001
0000
0010
0000
0001
0000
1000
0000
0001
0000
2000
3000
,
0200
0300
0000
0000
2000
3000
0200
0300
0000
0000
2000
3000
0200
0300
0000
0000
,
1000
0000
0001
0000
0100
0000
0010
0000
1000
0100
1000
0100
0010
0001
1000
0001
,
1000
0010
0100
0001
1000
0000
0001
0000
0100
0000
0010
0000
1000
0000
0200
0300
,
0020
0030
0000
0000
0200
0300
0020
0030
0000
0000
0200
0300
0020
0030
0000
0000
,
0001
0000
0100
0000
0001
0000
1000
0000
0100
0010
0100
0010
0001
1000
0001
1000
,
0010
0100
0001
1000
0001
0000
0010
0000
0001
0000
2000
0000
0000
0000
3002
0003
,
0200
0300
0000
0000
0002
0003
0200
0300
0000
0000
0002
0003
0200
0300
0000
0000
,
0010
0000
1000
0000
0100
0000
0010
0000
0001
0100
0001
0100
0010
1000
0100
1000
,
0100
0010
0001
1000
0001
0000
0100
0000
0010
0000
1000
0000
0001
1000
0100
0000
,
0010
0000
0001
1000
0100
0000
1000
0000
0001
1000
0010
0000
0100
0000
0001
0010
,
0100
0000
1000
0000
0001
0100
0001
0000
1000
0000
0100
0010
0001
0000
1000
0000
,
0100
0010
0001
0000
1000
0000
0100
1000
0010
0000
0100
0000
0001
1000
0001
0000
,
1000
0000
0100
0010
0001
0000
1000
0000
0001
0100
0010
0000
1000
0000
0100
0010
,
0001
0000
1000
0000
0001
0100
0001
0000
1000
0000
0100
0010
0001
0000
1000
0000
,
0001
0100
0001
0000
1000
0000
0001
0100
0001
0100
0010
0000
1000
0100
1000
0100
,
0010
0000
0001
1000
0001
0100
0001
0000
1000
0100
1000
0100
0010
0000
0001
0100
,
0001
0100
0010
0000
1000
0001
0100
0001
0010
0000
0100
1000
0001
1000
0100
0000
,
0010
0001
1000
0001
1000
0000
0100
1000
0001
0100
0001
0000
1000
0010
0100
0001
,
1000
0000
0100
0010
0001
0010
0001
0000
1000
0100
1000
0001
1000
0000
0001
0100
,
0001
0010
0001
0000
1000
0100
0010
0001
1000
0000
0010
0100
0001
1000
0001
0000
,
1000
0100
0010
0100
1000
0000
0001
0000
0100
0000
0010
0000
1000
0000
0001
0000
,
1000
0000
0100
0010
0001
1000
0001
0000
1000
0000
0001
0000
0100
0000
0010
1000
,
0100
0010
0001
0000
1000
0100
1000
0001
1000
0000
0001
0100
0001
1000
0001
0000
,
1000
0010
1000
0010
0100
0000
0002
0000
0000
0000
0000
0000
1003
0000
0100
0000
,
0010
0001
0000
0000
0000
0000
0000
0000
;

//---------------dance-single - ----------------
#NOTES:
     dance-single:
     :
     Medium:
     16:
     1.000,1.000,0.276,1.000,1.000,1168.000,36.000,139.000,0.000,0.000:

0000
0000
0000
0000
,
1000
0010
1000
0100
0010
0002
0000
0000
0000
1003
0001
0100
,
0001
1000
0200
0000
0000
0000
0310
0001
0100
0001
1000
0010
,
1000
0100
0010
0001
0100
0001
1000
1100
,
0100
0010
0001
0100
0110
0010
1000
0100
,
0110
0010
0001
1001
1000
0100
1000
0010
,
0110
0100
0001
0010
0110
0100
1000
1001
,
0001
0100
0001
0010
0011
0001
1000
0001
,
0101
0100
0010
1010
1000
0100
1000
0001
,
1000
0100
1000
0010
0100
0001
0010
0100
,
1000
0001
1001
1000
1100
0100
0010
0001
,
0101
0100
0010
1010
1000
0100
1000
0001
,
0101
0100
0001
0010
0110
0100
1000
1010
,
0010
0100
0001
1000
1001
0001
0100
0001
,
0101
0100
0010
1010
1000
0100
1000
0001
,
0100
0001
1000
0100
1000
0010
0100
0001
,
0010
0100
1000
0001
1000
0000
0001
0000
1000
0000
0100
0000
0100
0000
0010
0000
,
0001
0100
0001
0010
0100
1000
0001
0001
,
1000
0100
1000
0010
0100
0001
1000
0010
1000
0000
0001
0000
0001
0000
1000
0000
,
0001
0010
0001
0010
0200
0300
2200
3300
,
2020
3030
0010
0100
0001
0010
0100
2000
,
0000
0000
3001
0100
0001
1000
0100
0010
0002
0000
0000
0000
0000
0000
0000
0000
,
1003
0100
0010
0001
2000
0000
0000
0000
0000
0000
3100
0000
0010
0000
0001
0000
,
1000
0001
0100
0010
1000
0100
0020
0000
,
0000
0000
0031
0100
0001
1000
0100
0010
0002
0000
0000
0000
0000
0000
0000
0000
,
1003
0100
1000
0001
1000
0000
0100
0000
0020
0000
0030
0000
0022
0000
0033
0000
,
0002
0103
0010
1000
0100
0010
0002
0000
,
1003
0000
0000
0000
0000
0000
0100
0000
0000
0000
0010
0000
0000
0000
0001
0000
0000
0000
1000
0000
0000
0000
0001
0000
0000
0000
0100
0000
0000
0000
0010
0000
0000
0000
1000
0000
0000
0000
0100
0000
0000
0000
0010
0000
0000
0001
0000
0000
,
0100
0001
1000
0100
1000
0010
0100
0001
0010
0001
1000
0100
0010
0001
1000
0001
,
0100
0001
1000
0010
0100
0010
1000
0100
0010
0100
1000
0001
0100
0001
0010
0001
,
1000
0100
0010
0001
1000
0010
0100
0001
1000
0100
0010
0100
1000
0001
0100
0010
,
1000
0001
0010
0001
1000
0010
0100
0001
1000
0100
1000
0001
0100
0010
1000
0001
,
0010
0100
1000
0001
1000
0000
0200
0000
0300
0000
0200
0000
0300
0000
0020
0000
,
0030
0002
0000
0003
2002
0000
3003
0000
,
0000
0000
0000
0000
2000
0000
3002
0000
0203
0000
0310
1000
0001
0100
0002
0000
,
1003
0100
0020
0000
0000
0000
0031
1000
,
0001
0000
0100
0010
1000
0100
1000
0000
0001
0000
0100
0000
0002
0000
0000
0000
,
0000
0000
0000
0000
1003
0000
0100
0000
1000
0000
0001
0100
0001
0010
0100
0000
,
1000
0000
0001
0000
2000
0000
0000
0000
0000
0000
0000
0000
3100
0010
0001
0000
,
1000
0010
0100
0001
1000
0100
1000
0000
0001
1000
0100
0010
0001
0000
1000
0100
,
1000
0010
1000
0001
0200
0000
0000
0000
0000
0000
0310
1000
0001
1000
0100
0010
,
0002
0000
0000
0000
0000
0000
1003
0100
0010
0001
1000
0100
2000
0000
0000
0000
,
0000
0000
0000
0000
0000
0000
3010
0000
0000
0100
0000
0000
0001
0000
0000
0100
0000
0000
0010
0000
0000
1000
0000
0000
0002
0000
0000
0000
0000
0000
0000
0000
0000
0000
0000
0000
0000
0000
0000
0000
0000
0000
1003
0000
0000
0000
0010
0000
,
0000
1000
0000
0100
0000
0010
0000
0001
0000
1000
0000
0001
0000
0100
0000
0010
0000
1000
0000
0001
0000
1000
0000
0100
,
0000
0010
0000
0001
0000
1000
0000
0001
0000
0100
0000
0001
0000
0010
0000
0100
0000
1000
0000
0010
0000
1000
0000
0001
,
0000
0100
0000
0001
0000
0010
0000
0001
0000
1000
0000
0100
0000
0010
0000
0001
0000
1000
0000
0010
0000
2000
0000
0000
,
0000
3100
0010
0001
0010
0200
0000
1300
,
0001
0100
0020
0000
0000
1030
0001
0100
,
0001
0000
0000
2000
0000
0000
0000
0000
0000
3100
0000
0000
0010
0000
0000
0001
0000
0000
1000
0000
0000
0001
0000
0100
,
0000
0001
0000
1000
0000
0100
0000
0010
0000
0100
0000
1000
0000
0010
0000
1000
0000
0001
0000
0100
0000
0010
0000
1000
,
0000
0001
0000
1000
0000
0100
0000
0010
0000
0001
0000
1000
0000
0001
0000
0100
0000
0010
0000
1000
0000
0100
0000
1000
,
0000
0001
0000
0100
0000
0001
0000
0010
0000
0100
0000
1000
0000
0010
0000
1000
0000
0001
0000
0100
0000
0002
0000
0000
,
0000
1003
0100
0010
0001
2000
0000
3001
,
0100
0010
2000
0000
0000
3100
0010
0001
,
1000
0000
0000
0200
0000
0000
0000
0000
0000
0310
0000
0000
0001
0000
0000
1000
0000
0000
0100
0000
0000
0010
0000
0001
,
0000
1000
0000
0001
0000
0010
0000
0100
0000
1000
0000
0010
0000
1000
0000
0001
0000
1000
0000
0010
0000
0100
0000
0010
,
0000
1000
0000
0100
0000
0010
0000
0001
0000
1000
0000
0001
0000
0100
0000
0010
0000
1000
0000
0100
0000
1000
0000
0010
,
0000
0100
0000
0001
0000
0100
0000
0010
0000
1000
0000
0100
0000
0010
0000
0001
0000
0100
0000
0001
0000
2000
0000
0000
,
0000
3000
2200
0000
3300
0220
0000
0330
,
0022
0000
0000
0000
0000
0000
0033
0000
0000
0001
0000
1000
0000
0001
0000
0100
0000
0001
0000
1000
0000
0100
0000
0000
,
0010
0001
0100
0001
1000
0001
1000
0020
,
0030
0000
0000
0200
0302
0003
0000
0020
,
0230
0300
2000
3002
0003
0000
0000
2000
,
3200
0320
0032
0203
0302
2003
3200
0320
,
0031
1000
0100
0010
0001
0100
0001
1000
,
0100
1000
0001
0010
0100
1000
0020
0000
,
0130
0001
1000
0100
0020
0000
0000
0000
,
0031
0100
0001
1000
0100
0000
0010
0000
0001
0000
1000
0000
0001
0000
0100
0000
,
0001
1000
0100
2000
3020
0230
0302
0000
,
1003
0001
0100
0010
2000
0000
0000
0000
,
3010
0100
0001
1000
0100
1000
0001
0100
,
0001
0010
0100
2000
3002
0203
0320
0000
,
0000
1030
0100
0010
0002
0000
0000
0000
,
1003
0100
1000
0001
0100
0001
1000
0100
,
1000
0001
0010
0200
2300
3002
0203
0000
,
0000
0000
0000
0340
0000
0000
0000
0000
0000
0000
0000
0000
4030
0000
0000
0000
0000
0000
0000
0000
0000
3100
0000
0010
,
0000
0001
0000
1000
0000
0001
0000
0100
0000
0001
0000
0010
0000
0100
0000
1000
0000
0010
0000
1000
0000
0001
0000
0100
,
0000
0001
0000
1000
0000
0001
0000
0010
0000
0100
0000
1000
0000
0001
0000
0100
0000
0010
0000
1000
0000
0100
0000
1000
,
0000
0001
0000
0100
0000
0010
0000
0100
0000
0001
0000
1000
0000
0001
0000
0010
0000
0100
0000
1000
0000
0010
0000
0100
,
0000
0001
0000
0100
0000
0010
0000
1000
0000
0100
0000
0010
0000
0001
0000
1000
0000
0001
0000
0100
0000
0010
0000
1000
,
0000
0100
0000
0010
0000
0001
0000
1000
0000
0002
0000
0000
0003
0000
0000
0202
0000
0000
0303
0000
0000
0220
0000
0000
,
0330
2020
0000
3030
1000
0100
0020
0000
,
0031
0100
0001
1000
0200
0000
0000
0000
0000
0000
0000
0000
0310
0000
0001
0000
,
0100
0001
0010
0100
1000
0001
2000
0000
,
0000
3001
0100
0010
2000
0000
0000
0000
,
3100
0010
0001
1000
0002
0003
0202
0303
,
0220
0330
2020
3030
1000
0100
0020
0000
,
0031
1000
0100
1000
0002
0000
0000
0000
,
0103
0010
1000
0100
2000
0000
0000
0000
0000
0000
0000
0000
3002
0003
0200
0300
,
0000
0000
0002
0003
0200
0300
0001
0000
1000
0000
0100
0000
0020
0000
0000
0000
,
0031
0100
0001
0100
0002
0000
0000
0000
,
1003
0100
0010
0001
1000
0000
0001
0000
0200
0000
0300
0000
0220
0000
0330
0000
,
0010
1000
0100
0010
0001
1000
0004
0000
,
0000
0000
0000
0403
0000
0000
0000
0000
0000
0000
0000
0000
0340
0000
0000
0000
0000
0000
0000
0000
0000
1030
0000
0001
,
0000
1000
0000
0100
0000
0010
0000
0001
0000
1000
0000
0001
0000
0100
0000
0010
0000
1000
0000
0100
0000
1000
0000
0001
,
0000
0100
0000
0001
0000
0010
0000
0100
0000
1000
0000
0001
0000
0100
0000
0001
0000
0010
0000
0100
0000
1000
0000
0001
,
0000
1000
0000
0010
0000
0100
0000
0001
0000
1000
0000
0001
0000
0010
0000
0001
0000
1000
0000
0010
0000
1000
0000
0100
,
0000
0010
0000
0001
0000
1000
0000
0010
0000
0100
0000
0001
0000
1000
0000
0001
0000
0010
0000
0001
0000
1000
0000
0100
,
0000
0010
0000
0100
0000
1000
0000
0010
0000
0100
0000
0001
0000
0100
0000
0010
0000
1000
0000
0100
0000
0010
0000
0001
,
0000
1000
0000
0001
0000
0100
0000
0010
0000
1000
0000
0001
0000
1000
0000
0100
0000
0010
0000
0001
0000
1000
0000
0001
,
0000
0100
0000
0010
0000
1000
0000
0001
0000
1000
0000
0100
0000
0010
0000
0001
0000
1000
0000
0001
0000
0100
0000
0010
,
0000
1000
0000
0100
0000
0010
0000
0100
0000
1000
0000
0001
0000
0100
0000
0001
0000
0010
0000
0100
0000
1000
0000
0001
,
0000
1000
0000
0010
0000
1000
0000
0100
0000
0010
0000
0001
0000
1000
0000
0100
0000
1000
0000
0010
0000
0200
0000
0000
,
0301
0000
0010
0000
0100
0000
1000
0000
0001
0100
0001
1000
0100
0010
0100
1000
,
0001
0010
0001
1000
0001
0000
1000
0000
0100
0000
2000
0000
0000
0000
3200
0300
,
0020
0030
0000
0000
0200
0300
0020
0030
0000
0000
0200
0300
0020
0030
0000
0000
,
0001
0000
0100
0000
0001
0000
1000
0000
0100
1000
0100
0010
0001
0100
0001
1000
,
0010
1000
0001
0100
0001
0000
0010
0000
0001
0000
1000
0000
0001
0000
2000
3000
,
0200
0300
0000
0000
2000
3000
0200
0300
0000
0000
2000
3000
0200
0300
0000
0000
,
1000
0000
0001
0000
0100
0000
0010
0000
1000
0010
1000
0100
0010
0001
1000
0010
,
0100
0001
0100
0010
1000
0000
0001
0000
0100
0000
0010
0000
1000
0000
0200
0300
,
0020
0030
0000
0000
0200
0300
0020
0030
0000
0000
0200
0300
0020
0030
0000
0000
,
0001
0000
0100
0000
0001
0000
1000
0000
0001
1000
0100
0010
0001
0100
0001
1000
,
0010
0100
0001
1000
0001
0000
0010
0000
0001
0000
2000
0000
0000
0000
3002
0003
,
0200
0300
0000
0000
0002
0003
0200
0300
0000
0000
0002
0003
0200
0300
0000
0000
,
0010
0000
1000
0000
0100
0000
0010
0000
0001
1000
0001
0100
0010
1000
0001
1000
,
0100
0010
0001
1000
0001
0000
0100
0000
0010
0000
1000
0000
0001
1000
0100
0000
,
0010
0000
0001
1000
0100
0000
1000
0000
0001
1000
0010
0000
0100
0000
0001
0010
,
0100
0000
1000
0000
0001
0100
0001
0000
1000
0000
0100
0010
0001
0000
1000
0000
,
0100
0010
0001
0000
1000
0000
0100
1000
0010
0000
0100
0000
0001
1000
0001
0000
,
1000
0000
0100
0010
0001
0000
1000
0000
0001
0100
0010
0000
1000
0000
0100
0010
,
0001
0000
1000
0000
0001
0100
0001
0000
1000
0000
0100
0010
0001
0000
1000
0000
,
0001
0100
0001
0000
1000
0000
0001
0100
0001
1000
0100
0000
0010
0001
1000
0100
,
1000
0000
0001
1000
0001
0100
0001
0000
1000
0010
1000
0100
0010
0000
0001
1000
,
0010
0100
0001
0000
1000
0001
0100
0001
0010
0000
0100
1000
0001
1000
0100
0000
,
0010
0001
0100
0001
1000
0000
0100
1000
0001
0100
0001
0000
1000
0010
0100
0001
,
1000
0000
0100
0010
0001
1000
0100
0000
1000
0010
1000
0001
1000
0000
0001
0100
,
0001
0010
0001
0000
1000
0100
0010
0001
1000
0000
0010
0100
0001
1000
0001
0000
,
1000
0100
0010
0100
1000
0000
0001
0000
0100
0000
0010
0000
1000
0000
0001
0000
,
1000
0000
0100
0010
0001
1000
0001
0000
1000
0000
0001
0000
0100
0000
0010
1000
,
0100
0010
0001
0000
1000
0100
1000
0001
1000
0000
0001
0100
0001
1000
0001
0000
,
1000
0001
1000
0010
0100
0000
0002
0000
0000
0000
0000
0000
1003
0000
0100
0000
,
0010
0001
0000
0000
0000
0000
0000
0000
;

//---------------dance-single - ----------------
#NOTES:
     dance-single:
     :
     Hard:
     17:
     1.000,1.000,0.268,1.000,1.000,1276.000,35.000,137.000,0.000,0.000:

0000
0000
0000
0000
,
1000
0010
1000
0100
0010
0002
0000
0000
0000
1003
0001
0100
,
0001
1000
0200
0000
0000
0000
0310
0001
0100
0001
1000
0010
,
1000
0100
0010
0001
0100
0001
1000
1100
,
0100
0010
0001
0100
0110
0010
1000
0100
,
0110
0010
0001
1001
1000
0100
1000
0010
,
0110
0100
0001
0010
0110
0100
1000
1001
,
0001
0100
0001
0010
0011
0001
1000
0001
,
0101
0100
0010
1010
1000
0100
1000
0001
,
1000
0100
1000
0010
0100
0001
0010
0100
,
1000
0001
1001
1000
1100
0100
0010
0001
,
0101
0100
0010
1010
1000
0100
1000
0001
,
0101
0100
0001
0010
0110
0100
1000
1010
,
0010
0100
0001
1000
1001
0001
0100
0001
,
0101
0100
0010
1010
1000
0100
1000
0001
,
0100
0001
1000
0100
1000
0010
0100
0001
,
0010
0100
1000
0001
1000
0100
1000
0001
0100
0001
1000
0000
0100
0000
0010
0000
,
0001
0100
0001
0010
0100
1000
0001
0001
,
1000
0100
1000
0010
0100
0001
1000
0010
1000
0000
0001
0000
0001
0000
1000
0000
,
0001
0010
0001
0010
0200
0300
2200
3300
,
2020
3030
0010
0100
0001
0010
0100
2000
,
0000
0000
3001
0100
0001
1000
0100
0010
0001
0100
0001
1000
0100
0010
0001
0000
,
1000
0100
0010
0001
2000
0000
0000
0000
0000
0000
3100
0000
0010
0000
0001
0000
,
1000
0001
0100
0010
1000
0100
0020
0000
,
0000
0000
0031
0100
0001
1000
0100
0010
0001
0100
0001
1000
0100
0010
0001
0000
,
1000
0100
1000
0001
1000
0000
0100
0000
0020
0000
0030
0000
0022
0000
0033
0000
,
0002
0103
0010
1000
0100
0010
0002
0000
,
1003
0100
1000
0001
0100
0001
1000
0100
0010
0100
1000
0010
0100
0001
1000
0001
,
0100
0001
1000
0100
1000
0010
0100
0001
0010
0001
1000
0100
0010
0001
1000
0001
,
0100
0001
1000
0010
0100
0010
1000
0100
0010
0100
1000
0001
0100
0001
0010
0001
,
1000
0100
0010
0001
1000
0010
0100
0001
1000
0100
0010
0100
1000
0001
0100
0010
,
1000
0001
0010
0001
1000
0010
0100
0001
1000
0100
1000
0001
0100
0010
1000
0001
,
0010
0100
1000
0001
1000
0000
0200
0000
0300
0000
0200
0000
0300
0000
0020
0000
,
0030
0002
0000
0003
2002
0000
3003
0000
,
0000
0000
0000
0000
2000
0000
3002
0000
0203
0000
0310
1000
0001
0100
0002
0000
,
1003
0100
0020
0000
0000
0000
0031
1000
,
0001
0000
0100
0010
1000
0100
1000
0000
0001
0000
0100
0000
0002
0000
0000
0000
,
0000
0000
0000
0000
1003
0000
0100
0000
1000
0000
0001
0100
0001
0010
0100
0000
,
1000
0000
0001
0000
2000
0000
0000
0000
0000
0000
0000
0000
3100
0010
0001
0000
,
1000
0010
0100
0001
1000
0100
1000
0000
0001
1000
0100
0010
0001
0000
1000
0100
,
1000
0010
1000
0001
0200
0000
0000
0000
0000
0000
0310
1000
0001
1000
0100
0010
,
0002
0000
0000
0000
0000
0000
1003
0100
0010
0001
1000
0100
2000
0000
0000
0000
,
0000
0000
3010
0100
0001
0100
0010
1000
0002
0000
0000
0000
0000
0000
1003
0100
,
1000
0010
0100
0001
1000
0001
0100
0010
1000
0100
1000
0010
0100
0001
0010
0001
,
1000
0100
0010
0001
1000
0010
0100
0010
1000
0001
0100
0010
1000
0001
0100
0001
,
1000
0100
1000
0010
0100
0010
1000
0100
0010
0001
1000
0100
0010
0001
2000
0000
,
0000
3100
0010
0001
0010
0200
0000
1300
,
0001
0100
0020
0000
0000
1030
0001
0100
,
0001
0000
2000
0000
0000
0000
3100
0000
0010
0000
0001
0000
1000
0000
0001
0100
,
0001
1000
0100
0010
0100
1000
0010
0100
0001
1000
0001
0010
0001
1000
0010
0100
,
0001
1000
0100
0010
0001
1000
0001
0100
0001
1000
0100
0010
0100
1000
0001
0100
,
0001
1000
0010
0100
0010
1000
0001
0100
0010
1000
0001
0100
0001
1000
0002
0000
,
0000
1003
0100
0010
0001
2000
0000
3001
,
0100
0010
2000
0000
0000
3100
0010
0001
,
1000
0000
0200
0000
0000
0000
0310
0000
0001
0000
1000
0000
0100
0000
0010
0001
,
0100
0001
1000
0100
0010
0100
1000
0001
0100
0001
1000
0010
0100
0010
1000
0100
,
0010
0001
1000
0001
0100
0001
1000
0010
0100
0010
1000
0100
0010
0001
1000
0100
,
1000
0001
0100
0001
0010
0100
1000
0010
0100
0010
1000
0100
0010
0001
2000
0000
,
0000
3000
2200
0000
3300
0220
0000
0330
,
0022
0000
0000
0000
0033
0000
0001
0100
0001
1000
0100
0010
0001
1000
0100
0000
,
0010
0001
0100
0001
1000
0001
1000
0020
,
0030
0000
0000
0200
0302
0003
0000
0020
,
0230
0300
2000
3002
0003
0000
0000
2000
,
3200
0320
0032
0203
0302
2003
3200
0320
,
0031
1000
0100
0010
0001
0100
0001
1000
,
0100
1000
0001
0010
0100
1000
0020
0000
,
0130
0001
1000
0100
0020
0000
0000
0000
,
0031
0100
0001
1000
0100
0000
0010
0000
0001
0000
1000
0000
0001
0000
0100
0000
,
0001
1000
0100
2000
3020
0230
0302
0000
,
1003
0001
0100
0010
2000
0000
0000
0000
,
3010
0100
0001
1000
0100
1000
0001
0100
,
0001
0010
0100
2000
3002
0203
0320
0000
,
0000
1030
0100
0010
0002
0000
0000
0000
,
1003
0100
1000
0001
0100
0001
1000
0100
,
1000
0001
0010
0200
2300
3002
0203
0000
,
0000
0000
0310
1000
0100
1000
0001
0100
0010
1000
0100
1000
0001
1000
0001
0100
,
0001
1000
0100
0010
0100
1000
0001
0100
0001
1000
0010
0100
0010
1000
0100
0010
,
0001
1000
0001
0010
0001
1000
0100
0010
0100
1000
0001
0100
0001
1000
0010
0100
,
0001
1000
0100
1000
0010
0100
0010
1000
0100
0010
0001
1000
0001
0100
0001
0010
,
0100
1000
0010
0100
0010
1000
0100
0010
0001
1000
0001
0100
0001
0010
0100
1000
,
0001
0100
0001
1000
0100
0010
0002
0000
0003
0000
0202
0000
0303
0000
0220
0000
,
0330
2020
0000
3030
1000
0100
0020
0000
,
0031
0100
0001
1000
0200
0000
0000
0000
0000
0000
0000
0000
0310
0000
0001
0000
,
0100
0001
0010
0100
1000
0001
2000
0000
,
0000
3001
0100
0010
2000
0000
0000
0000
,
3100
0010
0001
1000
0002
0003
0202
0303
,
0220
0330
2020
3030
1000
0100
0020
0000
,
0031
1000
0100
1000
0002
0000
0000
0000
,
0103
0010
1000
0100
2000
0000
0000
0000
0000
0000
0000
0000
3002
0003
0200
0300
,
0000
0000
0002
0003
0200
0300
0001
0000
1000
0000
0100
0000
0020
0000
0000
0000
,
0031
0100
0001
0100
0002
0000
0000
0000
,
1003
0100
0010
0001
1000
0000
0001
0000
0200
0000
0300
0000
0220
0000
0330
0000
,
0010
1000
0100
0010
0001
1000
0004
0000
,
0000
0000
0000
0403
0000
0000
0000
0000
0000
0000
0000
0000
0340
0000
0000
0000
0000
0000
0000
0000
0000
1030
0000
0001
,
0000
1000
0000
0100
0000
0010
0000
0001
0000
1000
0000
0001
0000
0100
0000
0010
0000
1000
0000
0100
0000
1000
0000
0001
,
0000
0100
0000
0001
0000
0010
0000
0100
0000
1000
0000
0001
0000
0100
0000
0001
0000
0010
0000
0100
0000
1000
0000
0001
,
0000
1000
0000
0010
0000
0100
0000
0001
0000
1000
0000
0001
0000
0010
0000
0001
0000
1000
0000
0010
0000
1000
0000
0100
,
0000
0010
0000
0001
0000
1000
0000
0010
0000
0100
0000
0001
0000
1000
0000
0001
0000
0010
0000
0001
0000
1000
0000
0100
,
0000
0010
0000
0100
0000
1000
0000
0010
0000
0100
0000
0001
0000
0100
0000
0010
0000
1000
0000
0100
0000
0010
0000
0001
,
0000
1000
0000
0001
0000
0100
0000
0010
0000
1000
0000
0001
0000
1000
0000
0100
0000
0010
0000
0001
0000
1000
0000
0001
,
0000
0100
0000
0010
0000
1000
0000
0001
0000
1000
0000
0100
0000
0010
0000
0001
0000
1000
0000
0001
0000
0100
0000
0010
,
0000
1000
0000
0100
0000
0010
0000
0100
0000
1000
0000
0001
0000
0100
0000
0001
0000
0010
0000
0100
0000
1000
0000
0001
,
0000
1000
0000
0010
0000
1000
0000
0100
0000
0010
0000
0001
0000
1000
0000
0100
0000
1000
0000
0010
0000
0200
0000
0000
,
0301
0000
0010
0000
0100
0000
1000
0000
0001
0100
0001
1000
0100
0010
0100
1000
,
0001
0010
0001
1000
0001
0000
1000
0000
0100
0000
2000
0000
0000
0000
3200
0300
,
0020
0030
0000
0000
0200
0300
0020
0030
0000
0000
0200
0300
0020
0030
0000
0000
,
0001
0000
0100
0000
0001
0000
1000
0000
0100
1000
0100
0010
0001
0100
0001
1000
,
0010
1000
0001
0100
0001
0000
0010
0000
0001
0000
1000
0000
0001
0000
2000
3000
,
0200
0300
0000
0000
2000
3000
0200
0300
0000
0000
2000
3000
0200
0300
0000
0000
,
1000
0000
0001
0000
0100
0000
0010
0000
1000
0010
1000
0100
0010
0001
1000
0010
,
0100
0001
0100
0010
1000
0000
0001
0000
0100
0000
0010
0000
1000
0000
0200
0300
,
0020
0030
0000
0000
0200
0300
0020
0030
0000
0000
0200
0300
0020
0030
0000
0000
,
0001
0000
0100
0000
0001
0000
1000
0000
0001
1000
0100
0010
0001
0100
0001
1000
,
0010
0100
0001
1000
0001
0000
0010
0000
0001
0000
2000
0000
0000
0000
3002
0003
,
0200
0300
0000
0000
0002
0003
0200
0300
0000
0000
0002
0003
0200
0300
0000
0000
,
0010
0000
1000
0000
0100
0000
0010
0000
0001
1000
0001
0100
0010
1000
0001
1000
,
0100
0010
0001
1000
0001
0000
0100
0000
0010
0000
1000
0000
0001
0100
0001
0000
,
1000
0000
0100
0010
0001
0000
1000
0000
0010
0100
0001
0000
1000
0000
0001
0010
,
0100
0000
1000
0000
0001
0100
0001
0000
1000
0000
0100
0010
0001
0000
1000
0000
,
0100
0010
0001
0000
1000
0000
0100
1000
0010
0000
0100
0000
0001
1000
0001
0000
,
1000
0000
0100
0010
0001
0000
1000
0000
0001
0100
0010
0000
1000
0000
0100
0010
,
0001
0000
1000
0000
0001
0100
0001
0000
1000
0000
0100
0010
0001
0000
1000
0000
,
0001
0100
0001
0000
1000
0000
0001
0100
0001
1000
0100
0010
0100
1000
0010
0100
,
0001
1000
0001
0010
0001
1000
0100
0010
0001
0100
0001
1000
0100
0010
0100
1000
,
0001
0100
0001
1000
0010
0100
0010
1000
0001
0100
0001
1000
0100
0010
0001
1000
,
0001
0010
0001
1000
0010
0100
0010
1000
0100
0010
0001
1000
0001
0100
0001
1000
,
0100
1000
0010
0100
0001
1000
0010
1000
0100
0010
0001
0100
0001
1000
0100
0010
,
0100
1000
0001
0100
0001
1000
0010
0100
0010
1000
0100
0010
0001
1000
0001
0010
,
0100
0010
0001
0000
1000
0000
0001
0000
0100
0000
0010
0000
1000
0000
0001
0000
,
1000
0000
0100
0010
0001
0100
0001
1000
0100
0010
0100
1000
0010
0100
0001
0010
,
0001
1000
0100
0010
0100
1000
0001
0100
0001
1000
0010
0100
0001
1000
0100
1000
,
0001
0100
0001
1000
0100
0000
0020
0000
0000
0000
0000
0000
0031
0000
1000
0000
,
0100
0010
0000
0000
0000
0000
0000
0000
;

//---------------dance-single - ----------------
#NOTES:
     dance-single:
     :
     Challenge:
     19:
     1.000,1.000,0.207,0.660,1.000,1535.000,27.000,86.000,0.000,0.000:

0000
0000
0000
0000
,
1000
0001
0100
0001
1000
0100
0020
0000
0000
0000
0000
0000
0031
0100
0001
1000
,
0100
0020
0000
0000
0000
0000
0000
0000
0031
0100
0001
1000
0100
0010
0001
1000
,
0001
1000
1000
0001
0100
0001
1000
1100
,
0100
0010
0001
0100
0110
0010
1000
0100
,
0110
0010
0001
1001
1000
0100
1000
0010
,
0110
0100
0001
0010
0110
0100
1000
1001
,
0001
0100
0001
0010
0011
0001
1000
0001
,
0101
0100
0010
1010
1000
0100
1000
0001
,
1000
0100
1000
0010
0100
0001
0010
0100
,
1000
0001
1001
1000
1100
0100
0010
0001
,
0101
0100
0010
1010
1000
0100
1000
0001
,
0101
0100
0001
0010
0110
0100
1000
1010
,
0010
0100
0001
1000
1001
0001
0100
0001
,
0101
0100
0010
1010
1000
0100
1000
0001
,
0100
0001
1000
0100
1000
0010
0100
0001
,
0010
0100
1000
0001
1000
0100
1000
0001
0100
0001
1000
0000
0100
0000
0010
0000
,
0001
0100
0001
0010
0100
1000
0001
0001
,
1000
0100
1000
0010
0100
0001
1000
0010
1000
0000
0001
0000
0001
0000
1000
0000
,
0001
0010
0001
0010
0200
0300
2200
3300
,
2020
3030
0010
0100
0001
0010
0100
2000
,
0000
0000
3001
0100
0001
1000
0100
0010
0001
0100
0001
1000
0100
0010
0001
0000
,
1000
0100
0010
0001
2000
0000
0000
0000
0000
0000
3100
0000
0010
0000
0001
0000
,
1000
0001
0100
0010
1000
0100
0020
0000
,
0000
0000
0031
0100
0001
1000
0100
0010
0001
0100
0001
1000
0100
0010
0001
0000
,
1000
0100
1000
0001
1000
0000
0100
0000
0020
0000
0030
0000
0022
0000
0033
0000
,
0002
0103
0010
1000
0100
0010
0002
0000
,
1003
0100
1000
0001
0100
0001
1000
0100
0010
0100
1000
0010
0100
0001
1000
0001
,
0100
0001
1000
0100
1000
0010
0100
0001
0010
0001
1000
0100
0010
0001
1000
0001
,
0100
0001
1000
0010
0100
0010
1000
0100
0010
0100
1000
0001
0100
0001
0010
0001
,
1000
0100
0010
0001
1000
0010
0100
0001
1000
0100
0010
0100
1000
0001
0100
0010
,
1000
0001
0010
0001
1000
0010
0100
0001
1000
0100
1000
0001
0100
0010
1000
0001
,
0010
0100
1000
0001
1000
0100
2000
3010
0100
0001
2000
3100
0010
0001
2000
3001
,
0100
0001
2000
3100
0010
0001
1000
0001
2000
0000
0000
0000
3000
0000
0000
0000
,
0000
0000
0000
0000
2000
0000
3002
0000
0203
0000
0310
1000
0001
0100
0002
0000
,
1003
0100
0020
0000
0000
0000
0031
1000
,
0001
0000
0100
0010
1000
0100
1000
0000
0001
0000
0100
0000
0002
0000
0000
0000
,
0000
0000
0000
0000
1003
0000
0100
0000
1000
0000
0001
0100
0001
0010
0100
0000
,
1000
0000
0001
0000
2000
0000
0000
0000
0000
0000
0000
0000
3100
0010
0001
0000
,
1000
0010
0100
0001
1000
0100
1000
0000
0001
1000
0100
0010
0001
0000
1000
0100
,
1000
0010
0100
0001
1000
0100
1000
0001
0100
0010
1000
0001
0010
0001
1000
0010
,
0100
0001
1000
0100
1000
0001
0100
0010
1000
0001
0010
0001
1000
0100
0010
0001
,
1000
0001
0100
0001
0010
0100
1000
0010
0100
0001
1000
0001
0010
0100
1000
0001
,
1000
0010
0100
0001
1000
0001
0100
0010
1000
0100
1000
0010
0100
0001
0010
0001
,
1000
0100
0010
0001
1000
0010
0100
0010
1000
0001
0100
0010
1000
0001
0100
0001
,
1000
0100
1000
0010
0100
0010
1000
0100
0010
0001
1000
0100
0010
0001
2000
0000
,
0000
3100
0010
0001
0010
0200
0000
1300
,
0001
0100
0020
0000
0000
1030
0001
0100
,
0001
0000
2000
0000
0000
0000
3100
0000
0010
0000
0001
0000
1000
0000
0001
0100
,
0001
1000
0100
0010
0100
1000
0010
0100
0001
1000
0001
0010
0001
1000
0010
0100
,
0001
1000
0100
0010
0001
1000
0001
0100
0001
1000
0100
0010
0100
1000
0001
0100
,
0001
1000
0010
0100
0010
1000
0001
0100
0010
1000
0001
0100
0001
1000
0002
0000
,
0000
1003
0100
0010
0001
2000
0000
3001
,
0100
0010
2000
0000
0000
3100
0010
0001
,
1000
0000
0200
0000
0000
0000
0310
0000
0001
0000
1000
0000
0100
0000
0010
0001
,
0100
0001
1000
0100
0010
0100
1000
0001
0100
0001
1000
0010
0100
0010
1000
0100
,
0010
0001
1000
0001
0100
0001
1000
0010
0100
0010
1000
0100
0010
0001
1000
0100
,
1000
0001
0100
0001
0010
0100
1000
0010
0100
0010
1000
0100
0010
0001
1000
0100
,
1000
0010
0100
0001
1000
0100
1000
0010
0100
0001
0010
0100
1000
0001
1000
0100
,
0010
0001
0100
0001
1000
0100
1000
0001
0100
0001
1000
0010
0100
0010
1000
0000
,
1000
0001
0100
0001
1000
0001
1000
0020
,
0030
0000
0000
0200
0302
0003
0000
0020
,
0230
0300
2000
3002
0003
0000
0000
2000
,
3200
0320
0032
0203
0302
2003
3200
0320
,
0031
1000
0100
0010
0001
0100
0001
1000
,
0100
1000
0001
0010
0100
1000
0020
0000
,
0130
0000
0001
1000
0100
1000
0001
0010
0100
0000
1000
0000
0010
0000
1000
0000
,
0001
0100
0001
1000
0100
0000
0010
0001
0100
0001
1000
0100
1000
0001
0100
0010
,
1000
0001
0010
0100
1000
0001
0100
0000
0020
0000
0230
0000
0302
0000
0000
0000
,
1003
0000
0001
0000
0100
0000
0010
0000
1000
0100
0010
0100
1000
0001
1000
0000
,
0010
0000
0100
0000
0001
0010
0100
1000
0001
0100
0001
1000
0100
0010
0001
1000
,
0001
0100
0010
1000
0001
0000
2000
0000
3002
0000
0203
0000
0320
0000
0000
0000
,
0000
0000
1030
0100
1000
0001
0100
0001
1000
0000
0100
0000
1000
0000
0001
0000
,
1000
0000
0100
0000
1000
0001
0100
0010
1000
0001
0010
0001
1000
0100
0010
0001
,
1000
0001
0100
0001
0010
0000
0200
0000
2300
0000
3002
0000
0203
0000
0000
0000
,
0000
0000
0310
1000
0100
1000
0001
0100
0010
1000
0100
1000
0010
1000
0001
0100
,
0001
1000
0100
0010
0100
1000
0001
0100
0001
1000
0010
0100
0010
1000
0100
0010
,
0001
1000
0001
0010
0001
1000
0100
0010
0100
1000
0001
0100
0001
1000
0010
0100
,
0001
1000
0100
1000
0010
0100
0010
1000
0100
0010
0001
1000
0001
0100
0001
0010
,
0100
1000
0010
0100
0010
1000
0100
0010
0001
1000
0001
0100
0001
0010
0100
1000
,
0001
0100
0001
1000
0100
0010
0002
0103
0010
1000
0200
0310
0001
1000
0002
0013
,
0100
1000
0020
0130
0001
1000
0001
0000
1000
0000
0100
0000
0020
0000
0000
0000
,
0031
0100
0001
1000
0100
0010
0100
1000
0001
1000
0100
0000
0010
0000
0001
0000
,
0100
0000
0001
0000
1000
0000
0010
0000
1000
0000
0001
0000
1000
0001
0100
0001
,
1000
0000
0001
0000
0100
0000
0010
0000
1000
0100
0010
0001
1000
0010
1000
0000
,
0100
0010
0001
1000
0002
0003
0202
0303
,
0220
0330
2020
3030
1000
0100
0020
0000
,
0031
0000
1000
0000
0100
0000
1000
0000
0001
0100
0001
0010
0100
1000
0001
0000
,
0100
0010
1000
0100
1000
0001
0100
0001
1000
0100
0010
0000
0002
0003
0200
0300
,
0000
0000
0002
0003
0200
0300
0001
0000
1000
0000
0100
0000
0020
0000
0000
0000
,
0031
0100
0001
0100
0002
0000
0000
0000
,
1003
0100
0010
0001
1000
0000
0001
0000
0200
0000
0300
0000
0220
0000
0330
0000
,
0010
0000
1000
0000
0100
0000
0010
0000
0001
0000
1000
0000
0001
0100
0001
0010
,
0100
1000
0001
1000
0100
1000
0010
0100
0001
0010
0100
1000
0001
1000
0100
0010
,
0001
0100
0001
0010
0100
1000
0001
0100
0001
1000
0100
0010
0100
1000
0010
0100
,
0001
0010
0001
1000
0100
0010
0100
1000
0001
0100
0001
1000
0010
0100
0001
1000
,
0001
0010
0001
1000
0010
0100
0001
1000
0100
0010
0001
1000
0001
0100
0010
1000
,
0001
0100
0001
1000
0100
0010
0100
1000
0001
0100
0001
1000
0010
0100
0010
1000
,
0100
0010
0001
0100
0001
0010
0100
1000
0001
0100
0001
1000
0100
0010
0001
1000
,
0001
0100
0010
1000
0100
1000
0001
0100
0001
0010
0100
1000
0001
0100
0001
1000
,
0010
0100
0010
1000
0001
0100
0010
1000
0001
0100
0001
1000
0100
0010
0001
1000
,
0001
0010
0001
1000
0100
0010
0001
1000
0010
1000
0001
0100
0010
1000
0001
0100
,
0001
1000
0100
0010
0100
1000
0001
0010
0001
1000
0010
0100
0001
1000
0100
1000
,
0001
0000
0010
0000
0100
0000
1000
0000
0001
0100
0001
1000
0100
0010
0100
1000
,
0001
0010
0001
1000
0001
0100
0001
0010
0100
1000
0001
1000
0100
1000
0001
0100
,
0001
1000
0100
0010
0100
1000
0001
0100
0001
1000
0100
0010
0001
1000
0001
0000
,
0001
0000
0100
0000
0001
0000
1000
0000
0100
1000
0100
0010
0001
0100
0001
1000
,
0010
1000
0001
0100
0001
0000
0010
0000
0001
0000
1000
0000
0001
0100
0001
1000
,
0100
0010
0100
1000
0001
0100
0010
1000
0001
0010
0001
1000
0100
0010
0001
0000
,
1000
0000
0001
0000
0100
0000
0010
0000
1000
0010
1000
0100
0010
0001
1000
0010
,
0100
0001
0100
0010
1000
0000
0001
0000
0100
0000
0010
0000
1000
0100
0010
0001
,
0100
0001
0010
0100
1000
0001
0100
0010
1000
0100
0010
0001
1000
0001
0010
0000
,
0001
0000
0100
0000
0001
0000
1000
0000
0001
1000
0100
0010
0001
0100
0001
1000
,
0010
0100
0001
1000
0001
0000
0010
0000
0001
0000
1000
0001
0100
0001
0010
0100
,
1000
0001
0100
0001
1000
0100
0010
0001
0010
0100
1000
0001
1000
0100
1000
0000
,
0010
0000
1000
0000
0100
0000
0010
0000
0001
1000
0001
0100
0010
1000
0001
1000
,
0100
0010
0001
1000
0001
0000
0100
0000
0010
0000
1000
0000
0001
0100
0001
0000
,
1000
0000
0100
0010
0001
0000
1000
0000
0010
0100
0001
0000
1000
0000
0001
0010
,
0100
0000
1000
0000
0001
0100
0001
0000
1000
0000
0100
0010
0001
0000
1000
0000
,
0100
0010
0001
0000
1000
0000
0100
1000
0010
0000
0100
0000
0001
1000
0001
0000
,
1000
0000
0100
0010
0001
0000
1000
0000
0001
0100
0010
0000
1000
0000
0100
0010
,
0001
0000
1000
0000
0001
0100
0001
0000
1000
0000
0100
0010
0001
0000
1000
0000
,
0001
0100
0001
0000
1000
0000
0001
0100
0001
1000
0100
0010
0100
1000
0010
0100
,
0001
1000
0001
0010
0001
1000
0100
0010
0001
0100
0001
1000
0100
0010
0100
1000
,
0001
0100
0001
1000
0010
0100
0010
1000
0001
0100
0001
1000
0100
0010
0001
1000
,
0001
0010
0001
1000
0010
0100
0010
1000
0100
0010
0001
1000
0001
0100
0001
1000
,
0100
1000
0010
0100
0001
1000
0010
1000
0100
0010
0001
0100
0001
1000
0100
0010
,
0100
1000
0001
0100
0001
1000
0010
0100
0010
1000
0100
0010
0001
1000
0001
0010
,
0100
0010
0001
1000
0100
1000
0001
0100
0010
1000
0001
0010
0100
1000
0001
0100
,
0001
1000
0100
0010
0001
0100
0001
1000
0100
0010
0100
1000
0010
0100
0001
0010
,
0001
1000
0100
0010
0100
1000
0001
0100
0001
1000
0010
0100
0001
1000
0100
1000
,
0001
0100
0001
1000
0100
0000
0020
0000
0000
0000
0000
0000
0031
0000
1000
0000
,
0100
0010
0000
0000
0000
0000
0000
0000
;
