#TITLE:Sun Son Sunday;
#SUBTITLE:orange mix;
#ARTIST:Vospi;
#TITLETRANSLIT:;
#SUBTITLETRANSLIT:;
#ARTISTTRANSLIT:;
#CREDIT:;
#BANNER:sss orange mix.png;
#BACKGROUND:sss orange mix-bg-advert.png;
#LYRICSPATH:;
#CDTITLE:vospi.png;
#MUSIC:sss_orangemix.mp3;
#OFFSET:-0.093;
#SAMPLESTART:49.967;
#SAMPLELENGTH:13.980;
#SELECTABLE:YES;
#BPMS:0.000=175.000,128.000=87.500,158.000=350.000,166.000=175.000;
#STOPS:;
#BGCHANGES:;
// cache tags:
#FIRSTBEAT:16.000;
#LASTBEAT:230.000;
#SONGFILENAME:Songs/newbie/Sun Son Sunday Orange Mix/sss_orangemix.sm;
#HASMUSIC:1;
#HASBANNER:1;
#MUSICLENGTH:97.488;
// end cache tags

//---------------dance-single - ----------------
#NOTES:
     dance-single:
     :
     Easy:
     3:
     0.149,0.236,0.000,0.000,0.000,102.000,0.000,0.000,0.000,0.000:
0000
0000
0000
0000
,
0000
0000
0000
0000
,
0000
0000
0000
0000
,
0000
0000
0000
0000
,
0000
0000
0000
0000
,
0000
0000
0000
0000
,
0000
0000
0000
0000
,
0000
0000
0000
0000
,
0010
0000
0001
0000
,
0100
0000
0001
0000
,
0010
0000
0001
0000
,
1000
0000
0001
0000
,
1000
0000
0010
0000
,
1000
0000
0100
0000
,
1000
0000
0100
0000
,
0010
0000
0001
0000
,
0100
0000
0001
0000
,
1000
0000
0001
0000
,
1000
0000
0010
0000
,
1000
0000
0100
0000
,
1000
0000
0001
0000
,
1000
0000
0000
0000
,
0010
0000
1000
0000
,
0010
0000
0000
0000
,
0001
0000
0100
0000
,
0001
0000
0000
0000
,
1000
0000
0100
0000
,
1000
0000
0000
0000
,
0010
0000
1000
0000
,
0100
0000
0000
0000
,
0010
0000
0001
0000
,
0100
0000
0000
0000
,
1000
0000
0000
0000
,
0001
0000
0000
0000
,
0100
0000
0000
0000
,
0001
0000
0000
0000
,
0001
0001
0000
0000
,
0010
0010
0000
0000
,
0100
0100
0000
0000
,
1000
0000
0000
0000
,
0000
0000
0000
0000
,
0000
0000
0001
1000
,
0010
1000
0001
1000
,
0010
1000
0001
0000
,
1000
0000
0100
0000
,
1000
0000
0100
1000
,
0001
0100
0001
1000
,
0100
1000
0001
0000
,
1000
0000
0100
0000
,
0010
0000
0001
1000
,
0001
0010
0001
0100
,
0010
1000
0100
0000
,
1000
0000
0001
0000
,
1000
0000
0010
0001
,
1000
0100
1000
0010
,
0100
0001
0010
0000
,
1000
0000
0001
0000
,
0010
0000
0100
0000
;

//---------------dance-single - ----------------
#NOTES:
     dance-single:
     :
     Medium:
     6:
     0.397,0.501,0.318,0.092,0.082,231.000,31.000,9.000,0.000,0.000:
0000
0000
0000
0000
,
0000
0000
0000
0000
,
0000
0000
0000
0000
,
0000
0000
0000
0000
,
1000
0000
0000
0000
,
0100
0000
0000
0000
,
0010
0000
0000
0000
,
0000
0000
0000
0000
,
0100
0000
0000
2000
0000
0000
3100
0000
,
0100
0000
0000
2000
0000
0000
3001
0000
,
0001
0000
0000
0200
0000
0000
0301
0000
,
0001
0000
0000
0020
0000
0000
0130
0000
,
0100
0000
0000
2000
0000
0000
3100
0000
,
0100
0000
0000
0020
0000
0000
0130
0000
,
0100
0000
0000
0002
0000
0000
0103
0000
,
0100
0000
1000
0000
0001
0100
0010
0000
,
0100
0000
0001
0010
0000
0000
0011
0000
,
0011
0000
0100
1000
0000
0000
1010
0000
,
1010
0000
0100
0001
0000
0000
0011
0000
,
0011
0000
0100
1000
0000
0000
1100
0000
,
1010
0000
0100
0001
0000
0000
0101
0000
,
0011
0000
0100
1000
0000
0000
1100
0000
,
1010
0000
0100
0001
0000
0000
0011
0000
,
0011
0002
0103
0101
,
1000
0100
0001
0101
,
0001
0100
1000
1100
,
0100
1000
0010
1010
,
0100
0001
0010
0011
,
1100
1000
0010
0101
,
1010
0100
0001
0011
,
1100
0010
0100
0101
,
1010
0000
0100
0000
0100
0100
0100
0000
,
1000
0100
0010
0001
0000
0000
0000
0000
0000
0010
0000
0100
0000
0000
0000
0000
,
1000
0100
0010
0001
0000
0000
0000
0000
0000
1000
0000
0010
0000
0000
0000
0000
,
1000
0100
0010
0001
0000
0000
0000
0000
0000
0100
0000
0010
0000
0000
0000
0000
,
1000
0100
0010
0001
0000
0000
0000
0000
0000
0100
0000
0001
0000
0000
0000
0000
,
0001
0001
0001
0001
0100
0100
0100
0100
,
0010
0010
0010
0010
1000
1000
1000
1000
,
0100
1000
0100
1000
0001
0010
0001
0010
,
0100
0000
0000
0000
0000
0000
0000
0000
0000
0000
0000
0000
0000
0000
0000
0000
1000
0000
0000
0000
0000
0000
0000
0000
0000
0000
0000
0000
0000
0000
0000
0000
0200
0300
0000
0000
0000
0000
0000
0000
0000
0000
0000
0000
0000
0000
0000
0000
0000
0000
0000
0000
0000
0000
0000
0000
0000
0000
0000
0000
0000
0000
0000
0000
,
0000
0000
0000
0000
,
0000
0000
0100
1000
,
0001
0100
0001
0000
0100
0000
0001
0000
,
1000
0100
1000
0100
1000
0000
1000
0000
,
0001
0100
0001
0000
0100
0000
0001
0000
,
1000
0100
1000
0001
0010
0000
1000
0000
,
0001
0010
0001
0000
0010
0000
0001
0000
,
1000
0010
1000
0010
1000
0000
1000
0000
,
0001
0010
0001
0000
0010
0000
0001
0000
,
0000
0010
0100
1000
0100
0000
0001
0000
,
0010
0100
0010
0000
0001
0000
1000
0000
,
0010
1000
0010
1000
0010
0000
1000
0000
,
0001
0010
0001
0000
0100
0000
0001
0000
,
0010
0100
0010
0100
0010
0000
0001
0000
,
1000
0100
1000
0000
1000
0000
0010
0000
,
0100
0001
0100
0001
0100
0000
0010
0000
,
0100
0001
0100
0000
1010
0000
0011
0000
,
0110
1100
1001
0000
;

//---------------dance-single - ----------------
#NOTES:
     dance-single:
     :
     Hard:
     8:
     0.453,0.496,0.010,0.113,0.103,297.000,1.000,11.000,0.000,0.000:
0000
0000
0000
0000
,
0000
0000
0000
0000
,
0000
0000
0000
0000
,
0000
0000
0000
0000
,
0020
0000
0000
0000
,
0000
0000
0000
0000
,
0000
0000
0000
0000
,
0000
0000
0000
0030
,
0100
0000
0001
0100
0000
0001
0000
0000
,
0100
0000
0010
1000
0000
0001
0010
0001
,
0100
0000
1000
0010
0000
0100
0000
0000
,
0010
0000
0001
1000
0000
0001
0010
1000
,
0010
0000
1000
0010
0000
0001
0000
0000
,
0100
0000
0010
0100
0000
0001
1000
0010
,
0100
0000
0010
1000
0000
0100
0000
0000
,
0011
0000
0100
1000
0010
0100
0001
0010
,
0100
0000
1000
0001
0000
0010
0000
1000
,
0010
0100
0010
0000
0010
1000
0100
0000
,
0100
0000
1000
0100
0000
1000
0000
0000
,
0001
0100
0001
0000
0001
0100
1000
0000
,
1000
0000
0100
0010
0000
0001
0000
0000
,
0100
0001
0100
0000
1000
0010
0001
0000
,
0100
0000
0100
0010
0000
0010
0000
1000
,
0100
0020
0230
2300
,
3001
0000
0000
0000
0000
0000
0100
0001
0100
0000
0010
0000
0000
0000
0010
0000
,
1000
0000
0000
0000
0000
0000
0100
1000
0100
0000
0001
0000
0000
0000
0010
0000
,
0001
0000
0000
0000
0000
0000
0001
0010
0001
0000
1000
0000
0000
0000
1000
0000
,
1000
0000
0000
0000
0000
0000
0100
1000
0100
0000
0010
0000
0000
0000
0001
0000
,
0001
0000
0000
0000
0000
0000
0001
0010
0001
0000
0100
0000
0000
0000
0010
0000
,
0010
0000
0000
0000
0000
0000
1000
0010
1000
0000
0100
0000
0000
0000
0010
0000
,
0010
0000
0000
0000
0000
0000
0001
0010
0001
0000
0100
0000
0000
0000
0010
0000
,
0010
0000
0000
0000
0000
0000
1000
0100
1000
0000
0010
0000
0000
0000
0100
0000
,
0100
0000
0000
0000
0200
0000
0000
0000
0000
0000
0300
0001
0010
0001
0100
0001
,
0010
0000
0000
0000
0020
0000
0000
0000
0000
0000
0030
1000
0010
0000
0010
0000
,
0100
0000
0000
0000
0200
0000
0000
0000
0000
0000
0300
0001
0010
0001
0100
0001
,
0010
0000
0000
0000
0020
0000
0000
0000
0000
0000
0030
1000
0010
0000
0010
0000
,
0100
0000
0000
0000
0200
0000
0000
0000
0000
0000
0300
1000
0010
1000
0100
1000
,
0010
0000
0000
0000
0020
0000
0000
0000
0000
0000
0030
1000
0010
0000
0010
0000
,
0100
0010
0100
0010
1000
0010
1000
0010
,
1000
0001
0020
0000
,
0000
0000
0000
0000
,
0000
0000
0000
0030
1000
0100
0001
0100
,
1000
0010
0100
0010
1000
0100
0010
0001
,
0010
0001
0010
0001
0010
0001
0010
1000
,
0010
0001
0010
0001
0100
1000
0100
0001
,
0100
0001
0100
0001
1000
0010
0001
0010
,
1000
0001
0010
0001
1000
0100
0010
0001
,
0010
0001
0010
0001
0100
0010
1000
0100
,
0010
0001
0010
0001
0100
0001
0010
0001
,
0000
0000
0000
0000
0010
1000
0100
0010
,
0001
0100
0010
1000
0100
0001
0100
0001
,
0100
1000
0100
1000
0100
0001
1000
0010
,
0001
1000
0100
0001
0100
0010
0100
1000
,
0100
1000
0100
1000
1000
0100
0010
0100
,
0010
0001
0100
0001
0100
0010
1000
0100
,
1000
0100
1000
0100
0010
0001
0100
0010
,
1000
0001
0010
0001
1000
0100
0001
0100
;
