#TITLE:[2-Boss] Bayoen;
#SUBTITLE:;
#ARTIST:Kommisar;
#TITLETRANSLIT:;
#SUBTITLETRANSLIT:;
#ARTISTTRANSLIT:;
#CREDIT:;
#BANNER:../Beast 4 - bn.png;
#BACKGROUND:../Beast 4 - bg.png;
#LYRICSPATH:;
#CDTITLE:;
#MUSIC:Bayoen.ogg;
#OFFSET:0.009;
#SAMPLESTART:99.600;
#SAMPLELENGTH:12.000;
#SELECTABLE:YES;
#BPMS:0.000=150.000;
#STOPS:;
#BGCHANGES:;
// cache tags:
#FIRSTBEAT:16.000;
#LASTBEAT:305.500;
#SONGFILENAME:Songs/Beast Aoreo BEAST! 4/Bayoen - [Aoreo]/Bayoen.sm;
#HASMUSIC:1;
#HASBANNER:1;
#MUSICLENGTH:123.896;
// end cache tags

//---------------dance-single - J. Nero----------------
#NOTES:
     dance-single:
     J. Nero:
     Challenge:
     15:
     1.000,1.000,0.073,0.202,1.000,1020.000,9.000,25.000,0.000,0.000:
0000
0000
0000
0000
,
0000
0000
0000
0000
,
0000
0000
0000
0000
,
0000
0000
0000
0000
,
1001
0000
0001
0010
0000
0010
0100
0000
1000
0000
0010
0100
0000
0100
0001
0000
,
1000
0000
0100
0010
0000
0010
0001
0000
1000
0000
0002
0003
1000
0000
0020
0030
,
0100
0000
0001
0010
0000
0010
0100
0000
1000
0000
0001
0100
0000
0100
0010
0000
,
1000
0000
0100
0010
0000
0010
0001
0000
1000
0100
1000
0001
0010
0100
1000
0010
,
0400
0300
0001
1000
0000
1000
0010
0000
0100
0000
0001
0010
0000
0010
0100
0000
,
1000
0000
0001
0100
0000
0100
0010
0000
1000
0000
0200
0300
1000
0000
0020
0030
,
0100
0000
0001
0010
0000
0010
0100
0000
1000
0000
0001
0100
0000
0100
0010
0000
,
1010
0000
1000
0100
0000
0100
0010
0000
0001
0100
0010
0100
0001
1000
0100
0010
,
0002
0000
0000
0000
0000
0000
1003
0000
0000
0000
0000
0000
0020
0000
0000
0030
0000
0000
0100
0000
0000
0000
0000
0000
0001
0000
0000
0000
0000
0000
1000
0000
0000
0100
0000
0000
0000
0000
0000
0100
0000
0000
1000
0000
0001
0000
0010
0000
,
0100
0000
0000
0000
0000
0000
1000
0000
0000
0010
0000
0000
0000
0000
0000
0010
0000
0000
0000
0000
0000
0100
0000
0000
0000
0000
0000
0001
0000
0000
1000
0000
0000
0000
0000
0000
0001
0000
0010
0000
0100
0000
1000
0000
0010
0000
0100
0000
,
0001
0000
1000
0100
0000
0100
0010
0001
0000
1000
0100
1000
0001
0000
0100
0000
,
0040
0000
0030
0000
1000
0000
1000
0000
0001
0010
0001
0100
0000
0100
0010
1000
,
0004
0000
1003
0000
0200
0300
1000
0000
0001
0000
0100
0000
0001
0000
0010
0000
,
0100
1000
0001
1000
0000
0010
0000
0010
0000
0100
0000
0001
1000
0000
0100
0000
,
1000
0000
0000
0100
0000
0000
0100
0000
0000
0001
0000
0000
0100
0000
0000
0100
0000
0000
2000
0000
0000
0000
0000
0000
3001
0000
0010
0000
0100
0000
1000
0000
0001
0000
1000
0000
0100
0000
0010
0000
0001
0000
0100
0000
0010
0000
1000
0000
,
0002
0003
0000
0000
2000
3000
0000
0000
0001
0010
0100
1000
0001
0100
0000
0001
,
1000
0100
0010
0004
0003
0100
0000
0001
0000
1000
0100
1000
0001
0000
0001
0000
,
0010
0100
1000
0004
0003
0100
0000
0010
0000
1000
0100
1000
0001
0000
0001
0000
,
0100
0010
0100
0004
0003
0010
0000
0100
0000
1000
0001
1000
0010
0000
0010
0000
,
1000
0100
0010
0400
0300
1000
0000
0001
0000
1000
0100
1000
0001
0000
0001
0000
,
1000
0100
1000
0001
0100
0010
0100
0001
1000
0001
0010
0100
1000
0001
0100
0001
,
1000
0010
0100
0010
1000
0001
1000
0100
0010
0001
1000
0010
0100
0010
1000
0001
,
0100
0001
1000
0100
0010
0001
1000
0100
0010
0100
1000
0001
1000
0010
0100
0001
,
1000
0000
0000
0000
0000
0000
0001
0000
0000
0010
0000
0000
0000
0000
0000
0010
0000
0000
0100
0000
0000
0000
0000
0000
1000
0000
0100
0000
1000
0000
0001
0000
0100
0000
0010
0000
0100
0000
0000
0000
0000
0000
0001
0000
0000
0000
0000
0000
,
1000
0010
0100
0010
1000
0001
0100
0001
1000
0010
0100
0001
1000
0001
1000
0100
0010
0001
1000
0001
0010
0100
0010
0001
,
1000
0001
0100
0010
0100
0001
1000
0010
0100
0001
1000
0001
1000
0100
0010
0100
1000
0001
0010
0100
1000
0001
0010
0001
,
1000
0001
1000
0010
0100
0001
1000
0001
0100
0010
0100
0001
1000
0001
0010
0100
1000
0001
1000
0100
0010
0001
1000
0001
,
1000
0100
0010
0001
0100
0010
1000
0100
0010
0001
0100
0010
1000
0100
1000
0001
0100
0010
0100
0001
0010
0100
1000
0010
,
1000
0001
0100
0010
0100
0001
1000
0001
0100
0010
1000
0001
1000
0100
0010
0100
1000
0001
0010
0100
1000
0001
0010
0100
,
1000
0001
1000
0010
0100
0010
1000
0001
1000
0010
0100
0001
1000
0001
0010
0100
0010
0001
1000
0100
0010
0001
1000
0001
,
1000
0010
0100
0010
1000
0001
0100
0001
1000
0010
0100
0001
1000
0001
0010
0100
1000
0001
1000
0100
0010
0001
1000
0001
,
2000
0000
0000
0000
0000
0000
3001
0000
0000
0010
0000
0000
0000
0000
0000
0010
0000
0000
0100
0000
0000
0000
0000
0000
1000
0000
0100
0000
0010
0000
0100
0000
1000
0000
0001
0000
0100
0000
0000
0000
0000
0000
0010
0000
0000
0000
0000
0000
,
1000
0100
0100
0001
0100
0100
1000
0000
0001
1000
0010
0010
0001
0000
1000
0000
,
0001
0100
0100
1000
0100
0100
0001
0000
1000
0001
0010
0010
4000
3000
0004
0003
,
1000
0010
0010
0001
0010
0010
1000
0000
0001
1000
0100
0100
0001
0000
1000
0000
,
0001
0010
0010
1000
0010
0010
0001
0000
1000
0001
0100
0100
4000
3000
0004
0003
,
1000
0100
0100
0001
0100
0100
1000
0000
0001
1000
0010
0010
0001
0000
1000
0000
,
0001
0100
0100
1000
0100
0100
0001
0000
1000
0001
0010
0010
4000
3000
0004
0003
,
1000
0010
0010
0001
0010
0010
1000
0000
0001
1000
0100
0100
0001
0000
1000
0000
,
0001
1000
0100
0010
0001
1000
0001
0000
4000
3100
0000
4000
3001
0000
4000
3000
,
1001
0000
0001
0100
0001
1000
0100
0010
0001
1000
0001
0100
0010
0000
1000
0000
,
0010
0100
0001
1000
0100
0010
0001
1000
0001
0100
0010
0100
0001
0000
1000
0000
,
0100
1000
0001
0100
0001
1000
0100
0010
0001
0100
0100
1000
0100
0100
0001
1000
,
0020
0000
0000
0000
0000
0000
0130
0000
0000
0001
0000
0000
0000
0000
0000
0100
0000
0000
0001
0000
0000
0000
0000
0000
1000
0000
0100
0000
1000
0000
0001
0000
0010
0000
0100
0000
1000
0000
0000
0000
0000
0000
0100
0000
0000
0000
0000
0000
,
1000
0000
0001
0100
0010
0100
0001
1000
0100
0010
0001
1000
0001
0000
0100
0000
,
0010
0100
0001
1000
0001
0010
0100
1000
0001
1000
0010
0100
0001
0000
1000
0000
,
0010
0000
0100
0001
0100
0010
1000
0001
1000
0100
0100
0001
0100
0100
1000
0001
,
1000
0000
0000
0000
0000
0000
0010
0000
0000
0100
0000
0000
0000
0000
0000
0100
0000
0000
0001
0000
0000
0000
0000
0000
1000
0000
0100
0000
1000
0000
0001
0000
0100
0000
0010
0000
0100
0000
0000
0000
0000
0000
0001
0000
0000
0000
0000
0000
,
1000
0100
0010
0100
1000
0001
0010
0001
1000
0100
0010
0001
1000
0001
1000
0010
0100
0001
1000
0001
0100
0010
0100
0001
,
1000
0001
0010
0100
0010
0001
1000
0100
0010
0001
1000
0001
1000
0010
0100
0010
1000
0001
0100
0010
1000
0001
0100
0001
,
1000
0001
1000
0100
0010
0001
1000
0001
0010
0100
0010
0001
1000
0001
0100
0010
1000
0001
1000
0010
0100
0001
1000
0001
,
1000
0100
0010
0001
0100
0010
1000
0100
0010
0001
1000
0100
1000
0010
0100
0001
0010
0100
1000
0010
0100
0001
0010
0100
,
1000
0001
0100
0010
0100
0001
1000
0001
0010
0100
1000
0001
1000
0010
0100
0010
1000
0001
0100
0010
1000
0001
0100
0010
,
1000
0001
1000
0100
0010
0100
1000
0001
1000
0100
0010
0001
1000
0001
0100
0010
0100
0001
1000
0010
0100
0001
1000
0001
,
1000
0100
0010
0100
1000
0001
0010
0001
1000
0100
0010
0001
1000
0001
0100
0010
1000
0001
1000
0010
0100
0001
1000
0001
,
2000
0000
0000
0000
0000
0000
3010
0000
0000
0100
0000
0000
0000
0000
0000
0100
0000
0000
0001
0000
0000
0000
0000
0000
1000
0000
0001
0000
0100
0000
0001
0000
1000
0000
0010
0000
0100
0000
0000
0000
0000
0000
0010
0000
0000
0000
0000
0000
,
1010
0000
1000
0100
0000
0100
0010
0000
0001
0000
0100
0010
0000
0010
1000
0001
,
1000
0000
0100
0010
0000
0010
0001
0000
1000
0000
0020
0030
1000
0000
0200
0310
,
0001
0000
1000
0010
0000
0010
0100
0000
0001
0000
0010
0100
0000
0100
1000
0001
,
0100
0000
0001
1000
0000
1000
0010
0000
0100
0001
1000
0100
0010
0001
1000
0010
,
0100
0000
0001
0010
0000
0010
0100
0000
1000
0000
0001
0100
0000
0100
0010
0000
,
1000
0000
0100
1000
0000
1000
0001
0000
0100
0000
0020
0030
0100
0000
0002
0003
,
0010
0000
0100
1000
0000
1000
0001
0000
0100
0000
0010
1000
0000
1000
0001
0000
,
2002
3003
0000
0000
1000
0000
0100
0000
0000
0000
0100
0000
0010
0000
0000
0000
0001
0000
1000
0000
0100
0000
1000
0000
0001
0000
0100
0000
0010
0000
1000
0000
,
0002
0000
0000
0000
0000
0000
1003
0000
0000
0000
0000
0000
0020
0000
0000
0030
0000
0000
0100
0000
0000
0000
0000
0000
0001
0000
0000
0000
0000
0000
1000
0000
0000
0100
0000
0000
0000
0000
0000
0100
0000
0000
1000
0000
0001
0000
0010
0000
,
0100
0000
0000
0000
0000
0000
1000
0000
0000
0010
0000
0000
0000
0000
0000
0010
0000
0000
0000
0000
0000
1000
0000
0000
0000
0000
0000
0010
0000
0000
0100
0000
0000
0000
0000
0000
0001
0000
0010
0000
0100
0000
1000
0000
0010
0000
0100
0000
,
0001
0000
1000
0100
0000
0100
0010
0001
0000
1000
0100
1000
0001
0000
0100
0000
,
0040
0000
0030
0000
1000
0000
1000
0000
0001
0010
0001
0100
0000
0100
0010
1000
,
0004
0000
1003
0000
0200
0300
1000
0000
0001
0000
0100
0000
0001
0000
0010
0000
,
0100
1000
0001
1000
0000
0010
0000
0010
0000
0100
0000
0001
1000
0000
0100
0000
,
1000
0000
0000
0100
0000
0000
0100
0000
0000
0001
0000
0000
0100
0000
0000
0100
0000
0000
2000
0000
0000
0000
0000
0000
3001
0000
0010
0000
0100
0000
1000
0000
0001
0000
0100
0000
0010
0000
0100
0000
0001
0000
1000
0000
0100
0000
0010
0000
,
0002
0003
1000
0100
0000
0100
1000
0000
0001
0100
0010
0100
0001
1000
0100
0020
,
0000
0000
0000
0030
0000
0000
0000
0000
;

//---------------dance-single - No footswitches----------------
#NOTES:
     dance-single:
     No footswitches:
     Hard:
     15:
     1.000,1.000,0.073,0.202,1.000,1020.000,9.000,25.000,0.000,0.000:
0000
0000
0000
0000
,
0000
0000
0000
0000
,
0000
0000
0000
0000
,
0000
0000
0000
0000
,
1001
0000
0001
0010
0000
0010
0100
0000
1000
0000
0010
0100
0000
0100
0001
0000
,
1000
0000
0100
0010
0000
0010
0001
0000
1000
0000
0002
0003
1000
0000
0020
0030
,
0100
0000
0001
0010
0000
0010
0100
0000
1000
0000
0001
0100
0000
0100
0010
0000
,
1000
0000
0100
0010
0000
0010
0001
0000
1000
0100
1000
0001
0010
0100
1000
0010
,
0400
0300
0001
1000
0000
1000
0010
0000
0100
0000
0001
0010
0000
0010
0100
0000
,
1000
0000
0001
0100
0000
0100
0010
0000
1000
0000
0200
0300
1000
0000
0020
0030
,
0100
0000
0001
0010
0000
0010
0100
0000
1000
0000
0001
0100
0000
0100
0010
0000
,
1010
0000
1000
0100
0000
0100
0010
0000
0001
0100
0010
0100
0001
1000
0100
0010
,
0002
0000
0000
0000
0000
0000
1003
0000
0000
0000
0000
0000
0020
0000
0000
0030
0000
0000
0100
0000
0000
0000
0000
0000
0001
0000
0000
0000
0000
0000
1000
0000
0000
0100
0000
0000
0000
0000
0000
0100
0000
0000
1000
0000
0001
0000
0010
0000
,
0100
0000
0000
0000
0000
0000
1000
0000
0000
0010
0000
0000
0000
0000
0000
0010
0000
0000
0000
0000
0000
0100
0000
0000
0000
0000
0000
0001
0000
0000
1000
0000
0000
0000
0000
0000
0001
0000
0010
0000
0100
0000
1000
0000
0010
0000
0100
0000
,
0001
0000
1000
0100
0000
0100
0010
0001
0000
1000
0100
1000
0001
0000
0100
0000
,
0040
0000
0030
0000
1000
0000
1000
0000
0001
0010
0001
0100
0000
0100
0010
1000
,
0004
0000
1003
0000
0200
0300
1000
0000
0001
0000
0100
0000
0001
0000
0010
0000
,
0100
1000
0001
1000
0000
0010
0000
0010
0000
0100
0000
0001
1000
0000
0100
0000
,
1000
0000
0000
0100
0000
0000
0010
0000
0000
0100
0000
0000
1000
0000
0000
0010
0000
0000
0200
0000
0000
0000
0000
0000
0301
0000
0010
0000
0100
0000
1000
0000
0001
0000
1000
0000
0100
0000
0010
0000
0001
0000
0100
0000
0010
0000
1000
0000
,
0002
0003
0000
0000
2000
3000
0000
0000
0001
0010
0100
1000
0001
0100
0000
0001
,
1000
0100
0010
0004
0003
0100
0000
0001
0000
1000
0100
1000
0001
0000
0001
0000
,
0010
0100
1000
0004
0003
0100
0000
0010
0000
1000
0100
1000
0001
0000
0001
0000
,
0100
0010
0100
0004
0003
0010
0000
0100
0000
1000
0001
1000
0010
0000
0010
0000
,
1000
0100
0010
0400
0300
1000
0000
0001
0000
1000
0100
1000
0001
0000
0001
0000
,
1000
0100
1000
0001
0100
0010
0100
0001
1000
0001
0010
0100
1000
0001
0100
0001
,
1000
0010
0100
0010
1000
0001
1000
0100
0010
0001
1000
0010
0100
0010
1000
0001
,
0100
0001
1000
0100
0010
0001
1000
0100
0010
0100
1000
0001
1000
0010
0100
0001
,
1000
0000
0000
0000
0000
0000
0001
0000
0000
0010
0000
0000
0000
0000
0000
0010
0000
0000
0100
0000
0000
0000
0000
0000
1000
0000
0100
0000
1000
0000
0001
0000
0100
0000
0010
0000
0100
0000
0000
0000
0000
0000
0001
0000
0000
0000
0000
0000
,
1000
0010
0100
0010
1000
0001
0100
0001
1000
0010
0100
0001
1000
0001
1000
0100
0010
0001
1000
0001
0010
0100
0010
0001
,
1000
0001
0100
0010
0100
0001
1000
0010
0100
0001
1000
0001
1000
0100
0010
0100
1000
0001
0010
0100
1000
0001
0010
0001
,
1000
0001
1000
0010
0100
0001
1000
0001
0100
0010
0100
0001
1000
0001
0010
0100
1000
0001
1000
0100
0010
0001
1000
0001
,
1000
0100
0010
0001
0100
0010
1000
0100
0010
0001
0100
0010
1000
0100
1000
0001
0100
0010
0100
0001
0010
0100
1000
0010
,
1000
0001
0100
0010
0100
0001
1000
0001
0100
0010
1000
0001
1000
0100
0010
0100
1000
0001
0010
0100
1000
0001
0010
0100
,
1000
0001
1000
0010
0100
0010
1000
0001
1000
0010
0100
0001
1000
0001
0010
0100
0010
0001
1000
0100
0010
0001
1000
0001
,
1000
0010
0100
0010
1000
0001
0100
0001
1000
0010
0100
0001
1000
0001
0010
0100
1000
0001
1000
0100
0010
0001
1000
0001
,
2000
0000
0000
0000
0000
0000
3001
0000
0000
0010
0000
0000
0000
0000
0000
0010
0000
0000
0100
0000
0000
0000
0000
0000
1000
0000
0100
0000
0010
0000
0100
0000
1000
0000
0001
0000
0100
0000
0000
0000
0000
0000
0010
0000
0000
0000
0000
0000
,
1000
0001
0010
0100
0010
0001
1000
0000
0001
0100
0010
0100
0001
0000
1000
0000
,
0001
1000
0100
0010
0100
1000
0001
0000
1000
0001
0100
0010
4000
3000
0004
0003
,
1000
0010
1000
0001
0010
0100
1000
0000
0001
1000
0010
0100
0010
0000
1000
0000
,
0001
0010
0100
0010
0001
1000
0010
0000
1000
0001
0100
0010
4000
3000
0004
0003
,
1000
0100
0010
0001
1000
0010
0100
0000
0001
1000
0100
0010
0100
0000
1000
0000
,
0001
0100
0010
0100
0001
0010
0100
0000
1000
0001
0100
0010
4000
3000
0004
0003
,
1000
0100
0010
0100
1000
0001
0100
0000
0010
1000
0100
0010
0001
0000
1000
0000
,
0001
1000
0100
0010
0001
1000
0001
0000
4000
3100
0000
4000
3001
0000
4000
3000
,
1001
0000
0001
0100
0001
1000
0100
0010
0001
1000
0001
0100
0010
0000
1000
0000
,
0010
0100
0001
1000
0100
0010
0001
1000
0001
0100
0010
0100
0001
0000
1000
0000
,
0100
1000
0001
0100
0001
1000
0100
0010
0001
0100
0010
1000
0100
0010
0001
1000
,
0020
0000
0000
0000
0000
0000
0130
0000
0000
0001
0000
0000
0000
0000
0000
0100
0000
0000
0001
0000
0000
0000
0000
0000
1000
0000
0100
0000
1000
0000
0001
0000
0010
0000
0100
0000
1000
0000
0000
0000
0000
0000
0100
0000
0000
0000
0000
0000
,
1000
0000
0001
0100
0010
0100
0001
1000
0100
0010
0001
1000
0001
0000
0100
0000
,
0010
0100
0001
1000
0001
0010
0100
1000
0001
1000
0010
0100
0001
0000
1000
0000
,
0010
0000
0100
0001
0100
0010
1000
0001
1000
0100
0010
0100
1000
0010
0100
0001
,
1000
0000
0000
0000
0000
0000
0010
0000
0000
0100
0000
0000
0000
0000
0000
0100
0000
0000
0001
0000
0000
0000
0000
0000
1000
0000
0100
0000
1000
0000
0001
0000
0100
0000
0010
0000
0100
0000
0000
0000
0000
0000
0001
0000
0000
0000
0000
0000
,
1000
0100
0010
0100
1000
0001
0010
0001
1000
0100
0010
0001
1000
0001
1000
0010
0100
0001
1000
0001
0100
0010
0100
0001
,
1000
0001
0010
0100
0010
0001
1000
0100
0010
0001
1000
0001
1000
0010
0100
0010
1000
0001
0100
0010
1000
0001
0100
0001
,
1000
0001
1000
0100
0010
0001
1000
0001
0010
0100
0010
0001
1000
0001
0100
0010
1000
0001
1000
0010
0100
0001
1000
0001
,
1000
0100
0010
0001
0100
0010
1000
0100
0010
0001
1000
0100
1000
0010
0100
0001
0010
0100
1000
0010
0100
0001
0010
0100
,
1000
0001
0100
0010
0100
0001
1000
0001
0010
0100
1000
0001
1000
0010
0100
0010
1000
0001
0100
0010
1000
0001
0100
0010
,
1000
0001
1000
0100
0010
0100
1000
0001
1000
0100
0010
0001
1000
0001
0100
0010
0100
0001
1000
0010
0100
0001
1000
0001
,
1000
0100
0010
0100
1000
0001
0010
0001
1000
0100
0010
0001
1000
0001
0100
0010
1000
0001
1000
0010
0100
0001
1000
0001
,
2000
0000
0000
0000
0000
0000
3010
0000
0000
0100
0000
0000
0000
0000
0000
0100
0000
0000
0001
0000
0000
0000
0000
0000
1000
0000
0001
0000
0100
0000
0001
0000
1000
0000
0010
0000
0100
0000
0000
0000
0000
0000
0010
0000
0000
0000
0000
0000
,
1010
0000
1000
0100
0000
0100
0010
0000
0001
0000
0100
0010
0000
0010
1000
0001
,
1000
0000
0100
0010
0000
0010
0001
0000
1000
0000
0020
0030
1000
0000
0200
0310
,
0001
0000
1000
0010
0000
0010
0100
0000
0001
0000
0010
0100
0000
0100
1000
0001
,
0100
0000
0001
1000
0000
1000
0010
0000
0100
0001
1000
0100
0010
0001
1000
0010
,
0100
0000
0001
0010
0000
0010
0100
0000
1000
0000
0001
0100
0000
0100
0010
0000
,
1000
0000
0100
1000
0000
1000
0001
0000
0100
0000
0020
0030
0100
0000
0002
0003
,
0010
0000
0100
1000
0000
1000
0001
0000
0100
0000
0010
1000
0000
1000
0001
0000
,
2002
3003
0000
0000
1000
0000
0100
0000
0000
0000
0100
0000
0010
0000
0000
0000
0001
0000
1000
0000
0100
0000
1000
0000
0001
0000
0100
0000
0010
0000
1000
0000
,
0002
0000
0000
0000
0000
0000
1003
0000
0000
0000
0000
0000
0020
0000
0000
0030
0000
0000
0100
0000
0000
0000
0000
0000
0001
0000
0000
0000
0000
0000
1000
0000
0000
0100
0000
0000
0000
0000
0000
0100
0000
0000
1000
0000
0001
0000
0010
0000
,
0100
0000
0000
0000
0000
0000
1000
0000
0000
0010
0000
0000
0000
0000
0000
0010
0000
0000
0000
0000
0000
1000
0000
0000
0000
0000
0000
0010
0000
0000
0100
0000
0000
0000
0000
0000
0001
0000
0010
0000
0100
0000
1000
0000
0010
0000
0100
0000
,
0001
0000
1000
0100
0000
0100
0010
0001
0000
1000
0100
1000
0001
0000
0100
0000
,
0040
0000
0030
0000
1000
0000
1000
0000
0001
0010
0001
0100
0000
0100
0010
1000
,
0004
0000
1003
0000
0200
0300
1000
0000
0001
0000
0100
0000
0001
0000
0010
0000
,
0100
1000
0001
1000
0000
0010
0000
0010
0000
0100
0000
0001
1000
0000
0100
0000
,
1000
0000
0000
0100
0000
0000
0010
0000
0000
0100
0000
0000
1000
0000
0000
0010
0000
0000
0200
0000
0000
0000
0000
0000
0301
0000
0010
0000
0100
0000
1000
0000
0001
0000
0100
0000
0010
0000
0100
0000
0001
0000
1000
0000
0100
0000
0010
0000
,
0002
0003
1000
0100
0000
0100
1000
0000
0001
0100
0010
0100
0001
1000
0100
0020
,
0000
0000
0000
0030
0000
0000
0000
0000
;
