#TITLE:Legend Of Myth;
#SUBTITLE:;
#ARTIST:E^2;
#TITLETRANSLIT:;
#SUBTITLETRANSLIT:;
#ARTISTTRANSLIT:;
#CREDIT:;
#BANNER:LoM.png;
#BACKGROUND:LoM-BG.png;
#LYRICSPATH:;
#CDTITLE:;
#MUSIC:LoM.mp3;
#OFFSET:-0.020;
#SAMPLESTART:41.560;
#SAMPLELENGTH:12.000;
#SELECTABLE:YES;
#BPMS:0.000=70.000,32.000=140.000,160.000=70.000,180.000=140.000,260.000=70.000;
#STOPS:;
#BGCHANGES:;
// cache tags:
#FIRSTBEAT:1.000;
#LASTBEAT:261.000;
#SONGFILENAME:Songs/Chaomix Pack One/Legend Of Myth/LoM.sm;
#HASMUSIC:1;
#HASBANNER:1;
#MUSICLENGTH:139.102;
// end cache tags

//---------------dance-single - E. Holniker----------------
#NOTES:
     dance-single:
     E. Holniker:
     Challenge:
     13:
     0.873,0.914,0.359,0.510,1.000,727.000,50.000,71.000,466.000,33.000:


0000
0000
0000
0000
0000
0000
0000
0000
0000
0000
0000
0000
0000
0000
0000
1000
,
1000
0010
0010
0000
1000
0000
0000
0000
0001
0100
0100
0000
M001
0000
0000
0000
0M00
0000
0000
0000
M0M0
0000
0000
0000
0M0M
0000
0000
0000
00M0
0000
1000
0000
,
100M
0000
0100
1000
0100
0000
0000
0000
0000
0000
0000
0000
0000
0000
0010
0000
0100
0010
0100
0000
0010
0000
M000
0000
0M00
0000
00M0
0000
000M
0000
0000
0000
,
1000
0100
0100
0000
0010
0000
0000
0000
0001
0010
0010
0000
0100
0000
0000
0000
1000
0100
0100
0000
0010
0000
0000
0000
0010
0100
0100
0000
1000
0000
0000
0000
,
0100
0010
1000
0001
0010
0100
0010
0100
1000
0010
0001
0010
0100
0100
1000
0000
,
0100
1000
100M
0000
01M0
0000
0000
0000
0M10
0001
M001
0000
M010
0000
0M00
0000
01M0
0000
100M
0000
0010
0000
0100
0000
0010
0000
0001
0000
M010
0000
0M00
0000
,
10M0
0100
010M
0010
0010
0000
0000
0000
000M
0000
00M0
0000
0M00
0000
M010
0000
0001
0010
0010
0100
0100
0000
M000
0000
0M00
0000
00M0
0000
000M
0000
1000
0000
,
1000
0100
010M
0010
0010
0000
00M0
0000
0M01
0010
M010
0100
0100
0000
0M00
0000
10M0
0010
001M
0100
010M
0000
00M0
0000
0M01
0010
M010
1000
1M00
0000
00M0
0000
,
010M
10M0
0100
0010
0001
0010
M001
0M00
20M0
000M
01M0
000M
0100
00M0
010M
0000
,
3100
001M
1000
0100
0010
010M
0010
M000
0020
000M
0100
M000
0100
000M
0100
0030
,
0100
1000
0100
0010
0100
0010
1000
0000
0020
000M
0100
M000
0100
000M
0100
0030
,
M100
001M
0100
0010
0100
0010
0100
0000
0020
0000
0001
0000
0001
0000
0001
0030
,
0001
0100
0010
0001
0010
0100
0010
0100
2000
0000
0100
0000
0100
0000
3100
0000
,
0100
1000
0010
0100
0010
0100
1000
0001
0020
0000
0100
0000
0100
0000
0100
0030
,
0100
1000
0010
0100
0010
0100
0001
1000
0020
0000
0100
0000
0100
0000
0100
0030
,
0100
1000
0010
0100
0010
0100
0001
1000
0020
0000
0100
0000
0100
0000
0130
0000
,
0100
1000
0010
0100
0001
0100
0010
0100
2000
0000
0100
0000
0001
0000
0100
3000
,
0100
0001
0010
0100
0010
0001
0010
0100
0002
0000
0010
0000
0100
0000
0013
0000
,
0010
0100
1000
0100
0010
0100
0010
1000
0200
0000
0001
0000
0010
0000
0001
0300
,
0001
0000
0010
0100
0001
0100
0001
0000
0000
0100
0010
0100
0010
1000
0010
0000
,
1100
0000
0100
0010
0001
0010
0100
0010
0000
0001
0100
0000
0100
0001
0010
0000
,
0110
0000
0001
1000
0100
0010
0100
0010
0000
1000
0001
0000
0001
1000
0100
0000
,
1100
0000
0001
0010
0100
0010
0100
1000
0000
0100
0001
0000
0001
0100
0010
0000
,
0110
0010
1000
0100
0010
0000
0000
0000
1100
0100
0010
0001
0010
0000
0000
0000
,
1100
0010
0100
0010
0001
0100
0010
0000
1100
0001
0010
0100
0010
0001
0010
0000
,
1100
0100
0010
0001
0010
0100
1000
0000
0110
0010
0001
0010
1000
0010
1000
0100
,
0110
0100
1000
0100
1000
0100
0010
0000
0110
0001
0010
0100
0010
0100
1000
0000
,
0110
0010
0001
0010
0001
0010
0100
0000
0110
0000
0100
0000
1100
0000
0100
0000
,
0011
0000
0010
0100
1000
0010
0100
0000
0110
0000
0001
0010
0100
0010
1000
0000
,
1100
0000
0010
0100
0001
0100
0010
0000
1001
0000
0010
0100
0001
0010
0100
0000
,
1010
0000
0100
0010
0001
0100
0010
0000
1100
0000
0010
0001
0010
0100
1000
0000
,
0110
0000
0001
0010
0100
0010
1M0M
0000
1M1M
0000
11MM
0000
M11M
0000
2000
0000
,
0002
0MM0
0M10
01M0
0110
3MM3
0001
0200
,
0020
M00M
100M
M001
1001
M33M
0010
2000
,
0200
00M0
001M
00M1
0011
33MM
0010
0200
,
0020
0000
100M
M001
1001
M33M
0010
2000
,
020M
00M0
001M
00M1
0011
33MM
0010
00M2
,
M200
00M0
M010
10M0
1010
M3M3
0001
020M
,
M020
M00M
100M
M001
1001
M33M
M10M
20M0
,
02MM
00MM
001M
00M1
0011
33MM
MM00
0000
,
2M02
00M0
0M00
00M0
0M00
00M0
0M00
00M0
0M00
00M0
0M00
00M0
3M03
00M0
0M0M
00M0
2M00
00M0
0M00
0000
3M2M
0000
0M00
M000
0230
0000
0000
00M0
0302
0000
M020
0000
,
2003
0000
0000
0000
0000
0000
0M00
0000
0000
0000
0000
0000
0030
0000
0000
0000
0000
0000
0000
0000
0000
0000
0000
0000
320M
0000
0000
0000
0000
0000
00M0
0000
0000
0000
0000
0000
0000
0000
0000
0000
0000
0000
0000
0000
0000
0000
0000
0000
M320
0000
0000
0000
0000
0000
0M00
0000
0000
0000
0000
0000
0002
0000
0000
0000
0000
0000
0000
0000
0000
0000
0000
0000
0230
0000
0000
0000
0000
0000
M000
0000
0000
0000
0000
0000
0003
0000
0000
0000
0000
0000
0000
0000
0000
0000
0000
0000
2300
0000
0000
0000
0000
0000
0000
0000
00M0
0000
0000
0000
0000
0000
0000
0000
0000
0000
0000
0000
0000
0000
0000
0000
3002
0000
0000
0000
0000
0000
0000
0000
0M00
0000
0000
0000
0000
0000
0000
0000
0000
0000
0000
0000
0000
0000
0000
0000
0023
0000
0000
0000
0000
0000
M000
0000
0000
0000
0000
0000
0000
0000
0000
0000
0000
0000
000M
0000
0000
0000
0000
0000
M230
0000
0000
0000
0000
0000
00M0
0000
0000
0000
0000
0000
0020
0000
0000
0000
0000
0000
0000
0000
0000
0000
0000
0000
,
230M
0000
0030
0000
3M20
0000
0000
0000
M230
0000
000M
0300
0002
0000
M000
0000
2013
0MM0
0000
0000
3020
0000
M000
000M
0230
0000
00M0
M000
0302
0000
0020
0000
,
2003
0M00
003M
0000
3020
000M
0M00
0000
0230
M00M
0000
0000
0302
M000
0020
0000
2M03
0000
003M
0000
3020
0000
M000
0M0M
2030
0000
000M
00M0
3200
0000
M002
0000
,
0320
0000
0003
M00M
0032
0000
0000
0M00
0023
0000
0M00
000M
M230
0000
M000
000M
23M2
0M00
00M0
0M00
00M0
0M00
00M0
0M00
00M0
0M00
00M0
0M00
00M0
0M00
00M0
0M00
,
3013
0001
1000
0100
0010
0001
M010
0100
001M
0100
1000
0010
010M
0010
0100
MMMM
,
0001
1000
0100
0010
M10M
0010
010M
0010
M100
0001
0100
0010
010M
1000
0100
MMMM
,
0100
0001
0100
0010
M100
0010
010M
0010
1M00
0010
100M
0010
M100
0010
0001
MMMM
,
0100
0010
010M
1000
0010
0100
M010
0001
0100
0010
1000
0100
0010
0001
0010
MMMM
,
0010
0100
1000
0010
010M
0010
M100
0010
0001
0010
100M
0100
0010
0100
0001
MMMM
,
1000
0100
0010
0100
M001
0100
M010
0100
100M
0100
M010
0100
001M
0100
M010
0100
,
0001
0100
1000
0100
001M
0100
10M0
0100
100M
0100
0010
0001
M010
0100
0010
0100
,
100M
0010
0100
0010
M001
0010
010M
0010
M100
0010
0100
0001
M010
0001
0M10
0001
,
M010
0100
001M
0100
1000
MMMM
0010
0000
M010
0100
001M
0100
0010
MMMM
0001
0000
,
M001
0010
0M01
0010
M001
0000
MM1M
0000
1000
0100
10MM
0100
1000
MMMM
0100
0000
,
M010
0100
001M
0100
0010
MMMM
0100
0000
00M1
1000
0M01
1000
0001
MMMM
1000
0000
,
0M10
1000
001M
1000
0M00
1000
00M1
0000
M001
0100
00M1
0100
M000
0100
001M
0000
,
M100
0010
100M
0100
0010
0001
0010
MMMM
0100
1000
0010
0100
0010
0001
0010
MMMM
,
1000
0100
0010
0100
0010
0100
1000
MMMM
0001
0100
0010
0100
0010
0001
0010
MMMM
,
1000
0100
0010
0001
0010
0100
0010
MMMM
0010
0100
0010
0001
0010
1000
0010
MMMM
,
0100
0010
0100
0010
0100
1000
0001
MMMM
0100
0010
0100
0010
1000
0010
1000
0000
,
1MM1
M1M1
M11M
MMMM
1M1M
MM11
M11M
MMMM
,
11MM
M1M1
M11M
11MM
M1M1
MM11
11MM
M11M
,
M1MM
0010
1MMM
0001
MM1M
0100
MM1M
0100
1MMM
0010
M1MM
0010
MMM1
0010
M1MM
1000
,
0M40
M000
0M04
M000
0M00
M000
MM00
MM00
MM00
MM00
MM00
MM00
MM00
MM00
MM00
MM00
MM00
M000
0M00
M000
0M00
M000
0M00
M000
0M00
M000
0M30
M000
0003
0MM0
MMMM
0MM0
,
2MM2
0MM0
0000
0MM0
0MM0
0MM0
0MM0
3MM3
0000
0000
0000
0000
0000
0000
0000
0000
0000
0000
0000
0000
0000
0000
0000
0000
0000
0000
0000
0000
0000
0000
0000
0000
;

//---------------dance-single - E. Holniker----------------
#NOTES:
     dance-single:
     E. Holniker:
     Hard:
     10:
     0.638,0.797,0.280,0.403,0.309,526.000,39.000,56.000,222.000,3.000:

0000
0000
0000
0000
,
1000
0010
1000
0000
0001
0100
0001
0000
0100
0010
1000
0100
0010
0001
0010
0000
,
0010
1000
0010
0000
0100
0001
0100
0000
0010
1000
0010
0000
0100
0010
0100
0000
,
1000
0100
0010
0001
0010
0100
1000
0000
0010
0100
0001
1000
0100
0010
0001
0000
,
1000
0010
1000
0010
0100
0010
0100
0010
0001
0010
0001
0010
1000
0001
1000
0001
,
1000
0001
0100
0000
0010
0100
0010
0000
1000
0100
0010
0001
0010
0100
1000
0000
,
0010
0100
0010
0000
1010
0000
0101
0000
1000
0100
0010
0000
1100
0000
0101
0000
,
0010
0100
0110
0000
1000
0100
1100
0000
0001
0010
0011
0000
0010
0100
011M
0000
,
1000
0000
00M1
0000
1M00
0000
0001
0000
10M0
0000
0M01
1000
0000
1000
00M1
0000
,
0100
0000
001M
0000
M100
0000
0010
0000
100M
0000
0100
1000
00M0
1000
010M
0000
,
0010
0000
0M01
0000
M010
0000
0100
0000
M010
0000
010M
1000
0000
1000
001M
0000
,
0100
0000
M001
0000
0100
0000
001M
0000
M100
0000
0010
0001
0M00
0001
M010
0000
,
100M
0000
0100
0000
M010
0000
0M01
0000
M010
0000
0100
1000
0M00
1000
001M
0000
,
0100
0000
00M1
0000
0100
0000
001M
0000
M100
0000
0010
1000
0000
1000
010M
0000
,
0010
0000
M001
0000
0010
0000
010M
0000
0100
0000
M010
0100
000M
0100
0010
0000
,
1M00
0000
0001
0000
M010
0000
0001
0000
10M0
0000
0001
1000
0M00
1000
0001
0000
,
1M00
0000
001M
0000
1000
0000
0M10
0000
100M
0000
0010
1000
0M00
1000
0001
0000
,
M100
0000
0010
0000
010M
0000
0010
0000
M100
0000
0010
1000
0000
1000
010M
0000
,
0010
0000
M001
0000
0010
0000
010M
0000
1000
0000
0M10
1000
0000
1000
001M
0000
,
M100
0000
0010
0000
1000
0000
010M
0000
0010
0000
0100
0010
M000
0010
0001
0000
,
1M00
0000
0010
0000
100M
0000
0010
0000
1M00
0000
0010
0001
0000
0001
M010
0000
,
0100
0000
0010
0000
100M
0000
0100
0000
M010
0000
0100
0010
000M
0010
0100
0000
,
M100
0010
1001
M11M
1001
00M0
1000
010M
,
0010
0001
0110
1MM1
0110
M000
0100
001M
,
0100
0010
0100
0000
M010
0000
0010
0000
1000
0001
1000
0000
00M1
0000
0001
0000
,
M100
0010
010M
0000
0010
0000
0M10
0000
1000
0100
1000
0000
010M
0000
0100
0000
,
0010
0001
M010
0000
0M01
0000
M001
0000
0010
0100
100M
0000
0100
0000
0100
0000
,
100M
0000
1010
0000
0010
0000
M010
0000
010M
0010
0100
0000
M010
0000
0010
0000
,
100M
0100
1000
0000
0100
0000
01M0
0000
1000
0100
1000
0000
010M
0000
0100
0000
,
0M01
0010
0001
0000
M010
0000
0010
0000
010M
1000
0100
0000
1000
0000
1M00
0000
,
0010
0100
0010
0000
M100
0000
010M
0000
0010
1000
0M10
0000
1000
0000
10M0
0000
,
0100
0001
0100
0000
M010
0000
0010
0000
1000
0100
100M
0000
0100
0000
0101
0000
,
2010
30M0
0000
0000
100M
0000
0100
0000
0010
0000
M001
0000
0010
0000
000M
0000
,
1100
0000
M010
010M
0010
1M00
0001
01M0
,
0001
M000
0100
0010
100M
0100
0010
0M01
,
M011
0000
010M
1000
0010
0100
M010
0M01
,
10M0
010M
M010
0M01
M010
0100
1000
0M10
,
0010
1000
00M1
0100
M010
0100
001M
1M00
,
0011
0000
M100
0010
0100
100M
0100
1000
,
11MM
M11M
MM11
M11M
,
2M02
0000
00M0
0000
0M00
3003
00M0
0000
020M
0000
032M
0000
2030
0000
320M
0000
,
M320
0000
0M32
0000
M023
0000
0230
0000
230M
0000
3M10
2000
302M
0000
0230
0000
,
0302
20M3
320M
0320
0M32
M023
0230
230M
,
3020
0000
023M
0000
M320
0000
0M31
0020
M032
0000
0203
0000
23M0
0000
320M
0000
,
0320
0032
2M03
30M2
0200
0000
10M0
0303
,
M100
001M
1000
010M
0010
0001
M010
0100
,
100M
0000
0010
0000
M100
0000
0001
0100
M000
0100
0010
0000
100M
0000
0100
0000
,
M010
0000
0M01
0000
100M
0000
0100
1000
00M0
1000
0001
0000
0100
0000
0010
0000
,
0100
0000
010M
0000
10M0
0000
010M
1000
0000
1000
00M1
0000
0100
0000
0010
0000
,
M200
032M
2M30
30M2
,
M203
032M
2M30
320M
,
M320
0M32
M023
023M
,
23M0
0000
302M
0030
22MM
0000
3322
0000
,
1033
0010
M100
0M01
10M0
010M
0010
0001
,
0010
0100
1000
0010
0100
M010
0M01
00M0
,
010M
1000
0100
0010
0100
0001
0100
1000
,
0100
M010
0M01
10M0
001M
0100
0010
0000
,
0110
1010
0011
0100
,
1001
0110
1010
0101
,
1100
0011
1010
0110
,
0010
M000
0M01
00M0
100M
0000
M010
0M00
,
10M0
010M
0010
0000
0001
0010
010M
00M0
,
1M00
0010
0100
0001
1000
0100
0010
0001
,
0010
010M
10M0
0M01
M010
0100
0010
0100
,
1000
0010
010M
00M0
0M01
1000
0010
0000
,
2002
3003
0000
0000
;

//---------------dance-single - E. Holniker----------------
#NOTES:
     dance-single:
     E. Holniker:
     Medium:
     8:
     0.489,0.797,0.417,0.518,0.000,346.000,58.000,72.000,0.000,0.000:




0000
0000
0000
0000
,
1000
1010
0001
0101
0000
0000
0000
0000
,
0010
0110
1000
1100
0001
0101
0000
0000
,
1000
1010
0100
0110
0001
1001
0000
0000
,
1000
0001
0100
0010
,
1000
1100
0001
0101
0010
0110
1000
1100
,
0001
0000
1000
0000
,
0001
1000
0001
0000
0100
0010
0100
0000
,
1000
0100
0010
0001
,
0011
0110
1100
0110
,
1000
0010
0100
0001
,
1100
0011
0110
1010
,
1000
0010
1000
0010
1000
0000
1010
0000
,
0001
0100
0001
0100
0001
0000
0110
0000
,
1000
0100
0010
0001
0010
0000
1100
0000
,
0010
0100
0001
1000
0001
0000
1001
0000
,
1010
0110
0011
0110
,
1100
0011
0110
1010
,
1000
0010
1000
0010
1000
0000
0101
0000
,
0010
0100
1000
0100
0010
0000
0011
0000
,
1000
0100
0010
0001
0010
0100
1000
0010
,
0100
0001
1000
0010
,
1000
0100
0010
0001
0010
0100
1000
0010
,
0100
0010
0001
0000
0010
1000
0100
0000
,
1000
0100
1000
0000
0001
0100
0001
0000
,
0100
0010
0100
0000
0010
1000
0010
0000
,
1000
0100
1000
0000
0001
0010
0001
0000
,
0010
0100
0010
0000
0100
1000
0100
0000
,
1000
0100
0010
0001
0010
0100
1000
0000
,
0010
0100
0010
0001
0010
1000
0100
0000
,
0010
0001
1000
0100
0010
0100
1000
0000
,
0001
0100
0010
0000
1000
0100
1000
0000
,
1001
0000
0110
0000
,
1000
0001
1000
0010
,
0100
0001
0100
0000
0110
0000
0100
0000
,
1000
0001
0010
0100
,
1000
0010
1000
0000
1010
0000
0001
0000
,
0100
0010
1000
0100
,
0010
0100
0010
0000
0110
0000
0001
0000
,
1000
0001
1000
0000
0001
1000
0001
0000
,
2002
0000
3003
0000
2000
3020
0230
0302
,
2003
3200
0320
0032
2003
3002
0203
0320
,
2030
3200
0320
0032
2003
3020
0230
0302
,
2003
3200
0320
0032
0023
0230
2300
3200
,
0320
0230
0302
1003
2200
0000
0000
3300
,
0010
0001
0100
0010
,
1000
0100
0010
0001
,
1000
0010
1000
0001
0100
0000
0010
0000
,
1000
0100
0010
0001
0010
0100
1000
0000
,
2200
3300
0220
0330
0022
0033
0220
0330
,
2002
3003
0220
0330
0022
0033
2200
3300
,
0022
0033
2002
3003
2020
3030
0202
0303
,
0220
0330
2200
3300
0022
0033
0220
0330
,
1000
0100
1000
0001
0010
0100
0010
0200
,
0000
0000
0000
0300
,
1000
0010
1000
0001
0100
0010
0100
0020
,
0000
0000
0000
0030
,
1000
0100
1000
0100
0010
0001
0010
0200
,
0000
0000
0000
0300
,
0010
1000
0001
0100
0010
0100
0010
1000
,
0000
1000
0100
0010
0001
0010
0100
1000
,
0000
0010
0100
0001
1000
0100
0010
0001
,
0000
1000
0100
0010
0001
0010
0100
1000
,
0000
0010
0100
0010
0001
0010
1000
1000
,
0000
0100
0010
0001
0010
0100
1000
0000
,
2002
3003
0000
0000
;

//---------------dance-single - E. Holniker----------------
#NOTES:
     dance-single:
     E. Holniker:
     Easy:
     4:
     0.306,0.399,0.359,0.151,0.000,227.000,50.000,21.000,0.000,1.000:




0000
1010
0000
0101
,
0000
0110
0000
1001
,
0000
1010
0000
0110
,
0000
1100
0000
0011
,
0000
1010
0000
0101
,
0000
1100
0000
0110
,
0000
1001
0000
1010
,
0000
0101
0000
0110
,
1000
0100
0010
0001
,
0010
0100
1000
0000
,
0010
0100
0001
1000
,
0100
0010
0001
0000
,
1000
0010
1000
0000
,
0001
0100
0001
0000
,
0100
0010
1000
0100
,
0010
0001
0010
0100
,
1000
0010
0100
0010
,
0001
0010
1000
0000
,
1000
0100
1000
0100
,
1100
0000
0000
0000
,
0010
0100
0010
0100
,
0110
0010
1000
0100
,
1100
0001
0010
0100
,
0110
0000
1001
0000
,
1000
0010
1000
0000
,
0001
0100
0001
0000
,
0100
0010
1000
0100
,
0010
0001
0010
0100
,
1000
1010
0010
0110
,
0001
1000
0100
0010
,
1000
1001
1000
1010
,
0100
0001
0100
0010
,
1000
0100
0010
0001
,
0011
0010
0110
0100
,
1100
1000
0001
0100
,
0110
0010
1010
0010
,
0011
0100
0100
1000
,
1100
0100
0110
0100
,
0101
0001
1000
0010
,
1010
0010
0110
0010
,
0022
0033
2000
3020
,
0230
0302
2003
3020
,
0230
0302
2003
0020
,
3230
0302
2003
3020
,
0230
0302
2003
3000
,
1001
0100
0010
1000
,
0100
0010
0001
1000
,
1001
0010
1000
0100
,
0010
0100
1000
0001
,
1001
0010
0100
0010
,
1000
0100
0010
0010
,
0110
0001
1000
0010
,
0100
0010
0100
0100
,
0110
1000
0100
0010
,
0001
1000
0010
1000
,
1001
0010
0100
0010
,
0001
0100
1000
0100
,
1100
0001
0010
0100
,
0010
0100
0100
0010
,
0110
0010
1000
0100
,
0010
0001
1000
0100
,
1001
0000
0110
0000
,
1001
0000
0110
0000
,
1000
0100
0010
0001
,
0010
0100
1000
0001
,
2002
3003
0000
0000
;

//---------------dance-single - E. Holniker----------------
#NOTES:
     dance-single:
     E. Holniker:
     Beginner:
     1:
     0.108,0.164,0.093,0.000,0.000,92.000,13.000,0.000,0.000,0.000:




0000
0000
0000
0000
,
1000
0000
0000
0000
,
0001
0000
1000
0000
,
0010
0000
0100
0000
,
1000
0000
0010
0000
,
0100
0010
1000
0100
,
0010
0000
0000
0000
,
1000
0000
0010
0000
,
0100
0000
0000
0000
,
0001
0000
0000
0000
,
1000
0000
0010
0000
,
0100
0000
0000
0000
,
0001
0000
0000
0000
,
1000
0000
0000
0000
,
0100
0000
0000
0000
,
0010
0000
0000
0000
,
0001
0000
1000
0000
,
0001
0000
0000
0000
,
0100
0000
0010
0000
,
0100
0000
0000
0000
,
1000
0000
0100
0000
,
1000
0000
0000
0000
,
0001
0000
0100
0000
,
0001
0000
0000
0000
,
0100
0000
0010
0000
,
1000
0000
0100
0000
,
0010
0000
0001
0000
,
0010
0000
0100
0000
,
1000
0000
0100
0000
,
1000
0000
0000
0000
,
0001
0000
0100
0000
,
0001
0000
0000
0000
,
0100
0000
0010
0000
,
1000
0000
0000
0000
,
0010
0000
0100
0000
,
1000
0000
0000
0000
,
0001
0000
0100
0000
,
0010
0000
0000
0000
,
1000
0000
0100
0000
,
0010
0000
0001
0000
,
1100
0000
0100
0000
,
0000
0000
0010
0000
,
0000
0000
1000
0000
,
0000
0000
0001
0000
,
0000
0000
0100
0000
,
0000
1001
0000
0000
,
0000
0000
0000
0000
,
0110
0000
0000
0000
,
1100
0000
0000
0000
,
0011
0000
0000
0000
,
0110
0000
0000
0000
,
1001
0000
0000
0000
,
1010
0000
0000
0000
,
0101
0000
0000
0000
,
1100
0000
0000
0000
,
1010
0000
0000
0000
,
0101
0000
0000
0000
,
1000
0000
0010
0000
,
0100
0000
0000
0000
,
0001
0000
1000
0000
,
0100
0000
0000
0000
,
0010
0000
0001
0000
,
0010
0000
0000
0000
,
0100
0000
1000
0000
,
0010
0000
0000
0000
,
0101
0000
0000
0000
;
