#TITLE:Hold Your Colour;
#SUBTITLE:;
#ARTIST:Pendulum;
#TITLETRANSLIT:;
#SUBTITLETRANSLIT:;
#ARTISTTRANSLIT:;
#CREDIT:;
#BANNER:holdyourcolourbn.png;
#BACKGROUND:holdyourcolourbg.png;
#LYRICSPATH:;
#CDTITLE:;
#MUSIC:holdyourcolour.ogg;
#OFFSET:1.932;
#SAMPLESTART:61.525;
#SAMPLELENGTH:16.550;
#SELECTABLE:YES;
#DISPLAYBPM:174.000;
#BPMS:0.000=87.000,84.000=174.000,236.000=87.000,240.000=174.000,424.000=87.000,428.000=174.000,492.000=87.000,508.000=174.000,660.000=87.000,664.000=174.000,792.000=87.000;
#STOPS:;
#BGCHANGES:;
// cache tags:
#FIRSTBEAT:4.000;
#LASTBEAT:807.500;
#SONGFILENAME:Songs/Pendulum/Hold Your Colour/holdyourcolour.sm;
#HASMUSIC:1;
#HASBANNER:1;
#MUSICLENGTH:324.000;
// end cache tags

//---------------dance-single - I. Pyles----------------
#NOTES:
     dance-single:
     I. Pyles:
     Beginner:
     1:
     0.025,0.031,0.000,0.000,0.000,57.000,0.000,0.000,0.000,0.000:

0000
0000
0000
0000
,
0001
0000
0000
0000
,
0000
0000
0000
0000
,
1000
0000
0000
0000
,
0000
0000
0000
0000
,
0010
0000
0000
0000
,
0000
0000
0000
0000
,
0100
0000
0000
0000
,
0000
0000
0000
0000
,
0001
0000
0000
0000
,
0000
0000
0000
0000
,
0010
0000
0000
0000
,
0000
0000
0000
0000
,
0001
0000
0000
0000
,
0000
0000
0000
0000
,
1000
0000
0000
0000
,
0000
0000
0000
0000
,
0100
0000
0000
0000
,
0000
0000
0000
0000
,
0010
0000
0000
0000
,
0000
0000
0000
0000
,
1000
0000
0000
0000
,
0000
0000
0000
0000
,
0000
0000
0000
0000
,
0000
0000
0000
0000
,
1000
0000
0000
0000
,
0000
0000
0000
0000
,
0000
0000
0000
0000
,
0000
0000
0000
0000
,
0100
0000
0000
0000
,
0000
0000
0000
0000
,
0000
0000
0000
0000
,
0000
0000
0000
0000
,
0001
0000
0000
0000
,
0000
0000
0000
0000
,
0000
0000
0000
0000
,
0000
0000
0000
0000
,
0100
0000
0000
0000
,
0000
0000
0000
0000
,
0000
0000
0000
0000
,
0000
0000
0000
0000
,
0100
0000
0000
0000
,
0000
0000
0000
0000
,
0000
0000
0000
0000
,
0000
0000
0000
0000
,
0010
0000
0000
0000
,
0000
0000
0000
0000
,
0000
0000
0000
0000
,
0000
0000
0000
0000
,
0100
0000
0000
0000
,
0000
0000
0000
0000
,
0000
0000
0000
0000
,
0000
0000
0000
0000
,
1000
0000
0000
0000
,
0000
0000
0000
0000
,
0000
0000
0000
0000
,
0000
0000
0000
0000
,
0100
0000
0000
0000
,
0000
0000
0000
0000
,
0000
0000
0000
0000
,
0001
0000
0000
0000
,
0000
0000
0000
0000
,
0000
0000
0000
0000
,
0000
0000
0000
0000
,
0010
0000
0000
0000
,
0000
0000
0000
0000
,
0000
0000
0000
0000
,
0000
0000
0000
0000
,
0001
0000
0000
0000
,
0000
0000
0000
0000
,
0000
0000
0000
0000
,
0000
0000
0000
0000
,
1000
0000
0000
0000
,
0000
0000
0000
0000
,
0000
0000
0000
0000
,
0000
0000
0000
0000
,
1000
0000
0000
0000
,
0000
0000
0000
0000
,
0000
0000
0000
0000
,
0000
0000
0000
0000
,
0001
0000
0000
0000
,
0000
0000
0000
0000
,
0000
0000
0000
0000
,
0000
0000
0000
0000
,
0001
0000
0000
0000
,
0000
0000
0000
0000
,
0000
0000
0000
0000
,
0000
0000
0000
0000
,
0100
0000
0000
0000
,
0000
0000
0000
0000
,
0000
0000
0000
0000
,
0000
0000
0000
0000
,
0001
0000
0000
0000
,
0000
0000
0000
0000
,
0000
0000
0000
0000
,
0000
0000
0000
0000
,
0010
0000
0000
0000
,
0000
0000
0000
0000
,
0000
0000
0000
0000
,
0000
0000
0000
0000
,
1000
0000
0000
0000
,
0000
0000
0000
0000
,
0000
0000
0000
0000
,
0000
0000
0000
0000
,
0100
0000
0000
0000
,
0000
0000
0000
0000
,
0000
0000
0000
0000
,
0010
0000
0000
0000
,
0000
0000
0000
0000
,
0000
0000
0000
0000
,
0000
0000
0000
0000
,
0100
0000
0000
0000
,
0000
0000
0000
0000
,
0000
0000
0000
0000
,
0000
0000
0000
0000
,
1000
0000
0000
0000
,
0000
0000
0000
0000
,
0000
0000
0000
0000
,
0000
0000
0000
0000
,
0001
0000
0000
0000
,
0000
0000
0000
0000
,
0000
0000
0000
0000
,
0000
0000
0000
0000
,
0001
0000
0000
0000
,
0000
0000
0000
0000
,
0100
0000
0000
0000
,
0000
0000
0000
0000
,
0001
0000
0000
0000
,
0000
0000
0000
0000
,
0000
0000
0000
0000
,
0000
0000
0000
0000
,
0001
0000
0000
0000
,
0000
0000
0000
0000
,
0000
0000
0000
0000
,
0000
0000
0000
0000
,
0001
0000
0000
0000
,
0000
0000
0000
0000
,
0000
0000
0000
0000
,
0000
0000
0000
0000
,
0001
0000
0000
0000
,
0000
0000
0000
0000
,
0000
0000
0000
0000
,
0000
0000
0000
0000
,
1000
0000
0000
0000
,
0000
0000
0000
0000
,
0000
0000
0000
0000
,
0000
0000
0000
0000
,
0100
0000
0000
0000
,
0000
0000
0000
0000
,
0000
0000
0000
0000
,
0000
0000
0000
0000
,
0010
0000
0000
0000
,
0000
0000
0000
0000
,
0000
0000
0000
0000
,
0000
0000
0000
0000
,
0001
0000
0000
0000
,
0000
0000
0000
0000
,
0000
0000
0000
0000
,
0000
0000
0000
0000
,
1000
0000
0000
0000
,
0000
0000
0000
0000
,
0000
0000
0000
0000
,
0000
0000
0000
0000
,
0010
0000
0000
0000
,
0000
0000
0000
0000
,
0000
0000
0000
0000
,
0010
0000
0000
0000
,
0000
0000
0000
0000
,
0000
0000
0000
0000
,
0000
0000
0000
0000
,
0100
0000
0000
0000
,
0000
0000
0000
0000
,
0000
0000
0000
0000
,
0000
0000
0000
0000
,
0001
0000
0000
0000
,
0000
0000
0000
0000
,
0000
0000
0000
0000
,
0000
0000
0000
0000
,
0100
0000
0000
0000
,
0000
0000
0000
0000
,
0000
0000
0000
0000
,
0000
0000
0000
0000
,
0010
0000
0000
0000
,
0000
0000
0000
0000
,
0000
0000
0000
0000
,
0000
0000
0000
0000
,
0100
0000
0000
0000
,
0000
0000
0000
0000
,
0000
0000
0000
0000
,
0000
0000
0000
0000
,
0001
0000
0000
0000
,
0000
0000
0000
0000
,
0000
0000
0000
0000
,
0000
0000
0000
0000
,
0100
0000
0000
0000
,
0000
0000
0000
0000
,
0000
0000
0000
0000
,
0000
0000
0000
0000
,
1000
0000
0000
0000
;

//---------------dance-single - I. Pyles----------------
#NOTES:
     dance-single:
     I. Pyles:
     Easy:
     9:
     0.553,0.779,0.318,0.176,0.165,1095.000,103.000,57.000,122.000,0.000:





0000
0000
0000
0000
,
0001
0100
0000
0010
1000
0010
0100
0000
0001
0010
0000
0100
1000
0100
0010
0001
,
0100
0010
0000
0100
0001
0100
0010
0000
1000
0100
0000
0010
0001
1000
0000
0010
,
1000
0100
0000
1000
0001
0000
0001
0000
0001
0100
0000
0001
0100
0000
0100
0000
,
0010
0100
0000
0010
0100
0000
0100
0000
1000
0100
0000
0001
1000
0100
0010
0001
,
0100
0010
0000
0100
0001
0000
1000
0010
0100
0001
0000
0010
0100
0000
1000
0100
,
0010
0001
0000
0100
0010
0000
0010
0000
0010
1000
0000
0001
1000
0100
0000
0001
,
0100
0010
0000
1000
0010
0000
0010
0000
0100
0001
0000
0100
0001
0000
0001
0000
,
1000
0100
0000
1000
0100
0000
0100
0000
0001
0100
0000
1000
0001
0010
0100
1000
,
0020
0000
0000
0000
0000
0000
0000
0000
0000
0000
0000
0000
0000
0000
0000
0030
,
0200
0000
0000
0000
0000
0000
0000
0000
0000
0300
0001
1000
0010
0100
0010
1000
,
0200
0000
0000
0000
0000
0000
0000
0000
0000
0000
0000
0000
0000
0000
0000
0300
,
0020
0000
0000
0000
0000
0000
0000
0000
0000
0000
0000
0030
0020
0000
0000
0000
0000
0000
0000
0000
0000
0000
0000
0030
0001
0000
0000
0000
2000
0000
0000
0000
0000
0000
0000
3000
0010
0000
0000
0000
0100
0000
0000
0000
0002
0000
0000
0000
0000
0000
0000
0003
0001
0000
0000
0000
0010
0000
0000
0000
0000
0000
0000
0000
,
0200
0000
0000
0000
0000
0000
0000
0000
0000
0000
0000
0000
0000
0000
0000
0300
,
2000
0000
0000
0000
0000
0000
0000
0000
0000
3000
0001
0100
0010
0100
0001
1000
,
0200
0000
0000
0000
0000
0000
0000
0000
0000
0000
0000
0000
0000
0000
0000
0300
,
0020
0000
0000
0000
0000
0000
0000
0000
0000
0000
0000
0030
0020
0000
0000
0000
0000
0000
0000
0000
0000
0000
0000
0030
0100
0000
0000
0000
2000
0000
0000
0000
0000
0000
3000
0000
0001
0000
0000
0000
0100
0000
0000
0000
0020
0000
0000
0000
0000
0000
0000
0030
0010
0000
0000
0000
1000
0000
0000
0000
0000
0000
0000
0000
,
0002
0000
0000
0000
0000
0000
0000
0000
0000
0000
0000
0000
0000
0000
0000
0003
,
0200
0000
0000
0000
0000
0000
0000
0000
0300
0000
0010
1000
0001
1000
0010
0100
,
0001
0020
0000
0000
0000
0000
0000
0000
0000
0000
0000
0000
0000
0000
0030
0000
,
0200
0000
0000
0000
0000
0000
0000
0000
0000
0000
0000
0300
0200
0000
0000
0000
0000
0000
0000
0000
0000
0000
0000
0300
1000
0000
0000
0000
0002
0000
0000
0000
0000
0000
0000
0003
0100
0000
0000
0000
0010
0000
0000
0000
2000
0000
0000
0000
0000
0000
0000
3000
1000
0000
0000
0000
0001
0000
0000
0000
0000
0000
0000
0000
,
1MM1
0000
1001
0000
0000
0101
0000
1000
,
1000
0000
1001
0000
0000
1100
0000
0001
,
0001
0000
1001
0000
0000
0011
0000
1000
,
1000
0000
1001
0000
0000
1010
0000
0001
,
0001
1000
0100
0000
0010
0100
1000
0000
,
0001
0100
0010
0000
0100
0001
0010
0100
,
1000
0010
0100
0001
1000
0010
0100
0001
,
1000
0010
0100
0001
1000
0100
0010
0000
,
1001
0000
0001
0010
0100
0010
0001
0000
,
0001
0000
1000
0010
0100
0100
0001
0000
,
1000
0100
1000
0000
0001
0010
0001
0000
,
1000
0100
1000
0001
0100
0001
1000
0000
,
0001
0000
1000
0100
0010
0100
1000
0000
,
1000
0000
0001
0100
0010
0010
1000
0000
,
0001
0010
0001
0000
1000
0100
1000
0000
,
0001
0010
0001
1000
0010
1000
0001
0000
,
1000
0000
0001
0010
0100
0010
0001
0000
,
0001
0000
1000
0010
0100
0100
0001
0000
,
1000
0100
1000
0000
0001
0010
0001
0000
,
1000
0100
1000
0001
0100
0001
1000
0000
,
0001
0000
1000
0100
0010
0100
1000
0000
,
1000
0000
0001
0100
0010
0010
1000
0000
,
0001
0010
0001
0000
1000
0100
1000
0100
,
0020
M00M
0230
M00M
0320
M00M
0030
M00M
,
1001
0000
1100
0000
0000
1000
0100
0000
,
1001
0000
1100
0000
0100
1000
0100
0000
,
1001
0000
0011
0000
0000
0010
0001
0000
,
1001
0000
0011
0000
0010
0001
0010
0000
,
1001
0000
0101
0000
0000
0001
0100
0000
,
1001
0000
0101
0000
0100
0001
0100
0000
,
1001
0000
1010
0000
0000
1000
0010
0000
,
1001
0000
1010
0000
0010
1000
0001
0000
,
1001
0000
0110
0000
0000
0010
0100
0000
,
1001
0000
0110
0000
0010
0100
0010
0000
,
1001
0000
0110
0000
0000
0100
0010
0000
,
1001
0000
0110
0000
0100
0010
0100
0000
,
1001
0000
1100
0000
0000
1000
0100
0000
,
1001
0000
1100
0000
0100
1000
0100
0000
,
1MM1
0000
0000
0000
0000
0000
0000
0000
0002
0000
0000
0000
0000
0000
0000
0003
0020
0000
0000
0000
0000
0000
0000
0030
0020
0000
0000
0000
0000
0000
0000
0030
0200
0000
0000
0000
0000
0000
0000
0300
0200
0000
0000
0000
0000
0000
0000
0300
0020
0000
0000
0000
0000
0000
0000
0030
0020
0000
0000
0000
0000
0000
0000
0030
,
0001
0100
0010
0100
0001
0000
1000
0000
,
0001
0010
0100
0010
0001
0000
1000
0000
,
0001
0100
0010
0100
0001
0000
1000
0000
,
0001
0001
0010
0100
,
1000
0010
0100
0010
1000
0000
0001
0000
,
1000
0100
0010
0100
1000
0000
0001
0000
,
1000
0010
0100
0010
1000
0000
0001
0000
,
0001
0100
0010
1000
,
0001
0100
0010
0100
0001
0000
1000
0000
,
0001
0010
0100
0010
0001
0000
1000
0000
,
0001
0100
0010
0100
0001
0000
1000
0000
,
1000
0100
0010
0001
,
1000
0010
0100
0010
1000
0000
0001
0000
,
1000
0100
0010
0100
1000
0000
0001
0000
,
1000
0010
0100
0010
1000
0001
0010
0100
,
1001
0000
0000
0MM0
0000
0000
0MM0
0000
0MM0
0000
0000
0MM0
0000
0000
0MM0
0000
,
1001
0000
1000
0100
0010
0100
1000
0000
,
1000
0000
0001
0100
0010
0010
1000
0000
,
0001
0010
0001
0000
1000
0100
1000
0000
,
0001
0010
0001
1000
0010
1000
0001
0000
,
1000
0000
0001
0010
0100
0010
0001
0000
,
0001
0000
1000
0010
0100
0100
0001
0000
,
1000
0100
1000
0000
0001
0010
0001
0000
,
1000
0100
1000
0001
0100
0001
1000
0000
,
0001
0000
1000
0100
0010
0100
1000
0000
,
1000
0000
0001
0100
0010
0010
1000
0000
,
0001
0010
0001
0000
1000
0100
1000
0000
,
0001
0010
0001
1000
0010
1000
0001
0000
,
1000
0000
0001
0010
0100
0010
0001
0000
,
0001
0000
1000
0010
0100
0100
0001
0000
,
1000
0100
1000
0000
0001
0010
0001
0010
,
0200
M00M
0320
M00M
0230
M00M
0300
M00M
,
1001
0000
0011
0000
0000
0001
0010
0000
,
1001
0000
0011
0000
0010
0001
0010
0000
,
1001
0000
1100
0000
0000
0100
1000
0000
,
1001
0000
1100
0000
0100
1000
0100
0000
,
1001
0000
1010
0000
0000
1000
0010
0000
,
1001
0000
1010
0000
0010
1000
0010
0000
,
1001
0000
0101
0000
0000
0001
0100
0000
,
1001
0000
0101
0000
0100
0001
1000
0000
,
1001
0000
0110
0000
0000
0100
0010
0000
,
1001
0000
0110
0000
0100
0010
0100
0000
,
1001
0000
0110
0000
0000
0010
0100
0000
,
1001
0000
0110
0000
0010
0100
0010
0000
,
1001
0000
0011
0000
0000
0001
0010
0000
,
1001
0000
0011
0000
0010
0001
0010
0000
,
1MM1
0000
0000
0000
0000
0000
0000
0000
2000
0000
0000
0000
0000
0000
0000
3000
0200
0000
0000
0000
0000
0000
0000
0300
0200
0000
0000
0000
0000
0000
0000
0300
0020
0000
0000
0000
0000
0000
0000
0030
0020
0000
0000
0000
0000
0000
0000
0030
0200
0000
0000
0000
0000
0000
0000
0300
0200
0000
0000
0000
0000
0000
0000
0300
,
1000
0010
0100
0010
1000
0000
0001
0000
,
1000
0100
0010
0100
1000
0000
0001
0000
,
1000
0010
0100
0010
1000
0000
0001
0000
,
1000
1000
0100
0010
,
0001
0100
0010
0100
0001
0000
1000
0000
,
0001
0010
0100
0010
0001
0000
1000
0000
,
0001
0100
0010
0100
0001
0000
1000
0000
,
1000
0010
0100
0001
,
1000
0010
0100
0010
1000
0000
0001
0000
,
1000
0100
0010
0100
1000
0000
0001
0000
,
1000
0010
0100
0010
1000
0000
0001
0000
,
0001
0010
0100
1000
,
0001
0100
0010
0100
0001
0000
1000
0000
,
0001
0010
0100
0010
0001
0000
1000
0000
,
0001
0100
0010
0100
0001
1000
0100
0010
,
1001
0000
0000
0MM0
0000
0000
0MM0
0000
0MM0
0000
0000
0MM0
0000
0000
0MM0
0000
,
MMMM
0000
0000
0000
,
2000
0000
0000
0000
0000
0000
0000
0000
0000
3000
0001
1000
0010
1000
0100
1000
,
0002
0000
0000
0000
0000
0000
0000
0003
,
0020
0000
0000
0000
0000
0000
0000
0000
0000
0000
0000
0030
0020
0000
0000
0000
0000
0000
0000
0000
0000
0000
0000
0030
0001
0000
0000
0000
2000
0000
0000
0000
0000
0000
0000
3000
0010
0000
0000
0000
0100
0000
0000
0000
0002
0000
0000
0000
0000
0000
0000
0003
0001
0000
0000
0000
1000
0000
0000
0000
0000
0000
0000
0000
,
1MM1
0000
0000
0000
0000
0000
0000
0001
,
0001
0000
0000
0000
0000
0000
0000
1000
,
1000
0000
0000
0000
0000
0000
0000
0001
,
0001
0000
0000
0000
0000
0000
0000
1000
,
1000
0001
0010
0000
0100
0010
0001
0000
,
1000
0010
0100
0000
0010
1000
0100
0010
,
0001
0100
0010
1000
0001
0100
0010
1000
,
0001
0100
0010
1000
0001
0010
0100
0000
,
1001
0000
0001
0010
0100
0010
0001
0000
,
0001
0000
1000
0010
0100
0100
0001
0000
,
1000
0100
1000
0000
0001
0010
0001
0000
,
1000
0100
1000
0001
0100
0001
1000
0000
,
0001
0000
1000
0100
0010
0100
1000
0000
,
1000
0000
0001
0100
0010
0010
1000
0000
,
0001
0010
0001
0000
1000
0100
1000
0000
,
0001
0010
0001
1000
0010
1000
0001
0000
,
1000
0000
0001
0010
0100
0010
0001
0000
,
0001
0000
1000
0010
0100
0100
0001
0000
,
1000
0100
1000
0000
0001
0010
0001
0000
,
1000
0100
1000
0001
0100
0001
1000
0000
,
0001
0000
1000
0100
0010
0100
1000
0000
,
1000
0000
0001
0100
0010
0010
1000
0000
,
0001
0010
0001
0000
1000
0100
1000
0100
,
0020
M00M
0230
M00M
0320
M00M
0030
M00M
,
1001
0000
1100
0000
0000
1000
0100
0000
,
1001
0000
1100
0000
0100
1000
0100
0000
,
1001
0000
0011
0000
0000
0010
0001
0000
,
1001
0000
0011
0000
0010
0001
0010
0000
,
1001
0000
0101
0000
0000
0001
0100
0000
,
1001
0000
0101
0000
0100
0001
0100
0000
,
1001
0000
1010
0000
0000
1000
0010
0000
,
1001
0000
1010
0000
0010
1000
0001
0000
,
1001
0000
0110
0000
0000
0010
0100
0000
,
1001
0000
0110
0000
0010
0100
0010
0000
,
1001
0000
0110
0000
0000
0100
0010
0000
,
1001
0000
0110
0000
0100
0010
0100
0000
,
1001
0000
1100
0000
0000
1000
0100
0000
,
1001
0000
1100
0000
0100
1000
0100
0000
,
1MM1
0000
0000
0000
0000
0000
0000
0000
0002
0000
0000
0000
0000
0000
0000
0003
0020
0000
0000
0000
0000
0000
0000
0030
0020
0000
0000
0000
0000
0000
0000
0030
0200
0000
0000
0000
0000
0000
0000
0300
0200
0000
0000
0000
0000
0000
0000
0300
0020
0000
0000
0000
0000
0000
0000
0030
0020
0000
0000
0000
0000
0000
0000
0030
,
0001
0100
0010
0100
0001
0000
1000
0000
,
0001
0010
0100
0010
0001
0000
1000
0000
,
0001
0100
0010
0100
0001
0000
1000
0000
,
0001
0001
0010
0100
,
1000
0010
0100
0010
1000
0000
0001
0000
,
1000
0100
0010
0100
1000
0000
0001
0000
,
1000
0010
0100
0010
1000
0000
0001
0000
,
0001
0100
0010
1000
,
0001
0100
0010
0100
0001
0000
1000
0000
,
0001
0010
0100
0010
0001
0000
1000
0000
,
0001
0100
0010
0100
0001
0000
1000
0000
,
1000
0100
0010
0001
,
1000
0010
0100
0010
1000
0000
0001
0000
,
1000
0100
0010
0100
1000
0000
0001
0000
,
1000
0010
0100
0010
1000
0001
0010
0100
,
1001
0000
0000
0MM0
0000
0000
0MM0
0000
0MM0
0000
0000
0MM0
0000
0000
0MM0
0000
,
1000
0100
1000
0001
,
1000
0010
1000
0001
0100
0010
1000
0000
,
0001
0100
0001
1000
,
0001
0010
0001
1000
0100
0010
0001
0000
,
1000
0010
1000
0001
,
1000
0100
1000
0001
0010
0100
1000
0000
,
0001
0010
0001
1000
,
0001
0100
0001
1000
0010
0100
0001
0000
,
1000
0100
1000
0001
,
1000
0010
1000
0001
0100
0010
1000
0000
,
0001
0100
0001
1000
,
0001
0010
0001
1000
0100
0010
0001
0000
,
1000
0010
1000
0001
,
1000
0100
1000
0001
0010
0100
1000
0000
,
0001
0010
0001
1000
0100
0010
0001
1000
,
0001
0000
0000
0MM0
0000
0000
0MM0
0000
0MM0
0000
0000
0MM0
0000
0000
0MM0
0000
,
MMMM
0000
M000
0M00
00M0
000M
0000
M000
0000
0000
000M
00M0
0M00
M000
000M
0000
,
0000
0000
000M
00M0
0M00
M000
0000
000M
0000
0000
M000
0M00
00M0
000M
M000
0000
,
0000
0000
M000
0M00
00M0
000M
0000
M000
0000
0000
000M
00M0
0M00
M000
000M
0000
,
0000
0000
000M
00M0
0M00
M000
0000
000M
0000
0000
M000
0M00
00M0
000M
M000
0000
;

//---------------dance-single - I. Pyles----------------
#NOTES:
     dance-single:
     I. Pyles:
     Medium:
     10:
     0.692,0.810,0.213,0.176,0.361,1443.000,69.000,57.000,126.000,0.000:







0000
0000
0000
0000
,
0001
0100
0000
0010
1000
0010
0100
0000
0001
0010
0000
0100
1000
0100
0010
0001
,
0100
0010
0000
0100
0001
0100
0010
0000
1000
0100
0000
0010
0001
1000
0000
0010
,
1000
0100
0000
1000
0001
0000
0001
0000
0001
0100
0000
0001
0100
0000
0100
0000
,
0010
0100
0000
0010
0100
0000
0100
0000
1000
0100
0000
0001
1000
0100
0010
0001
,
0100
0010
0000
0100
0001
0000
1000
0010
0100
0001
0000
0010
0100
0000
1000
0100
,
0010
0001
0000
0100
0010
0000
0010
0000
0010
1000
0000
0001
1000
0100
0000
0001
,
0100
0010
0000
1000
0010
0000
0010
0000
0100
0001
0000
0100
0001
0000
0001
0000
,
1000
0100
0000
1000
0100
0000
0100
0000
0001
0100
0000
1000
0001
0010
0100
1000
,
0020
0000
0000
0000
0000
0000
0000
0000
0000
0000
0000
0000
0000
0000
0000
0030
,
0200
0000
0000
0000
0000
0000
0000
0000
0000
0300
0001
1000
0010
0100
0010
1000
,
0200
0000
0000
0000
0000
0000
0000
0000
0000
0000
0000
0000
0000
0000
0000
0300
,
0020
0000
0000
0000
0000
0000
0000
0000
0000
0000
0000
0030
0020
0000
0000
0000
0000
0000
0000
0000
0000
0000
0000
0030
0001
0000
0000
0000
2000
0000
0000
0000
0000
0000
0000
3000
0010
0000
0000
0000
0100
0000
0000
0000
0002
0000
0000
0000
0000
0000
0000
0003
0001
0000
0000
0000
0010
0000
0000
0000
0000
0000
0000
0000
,
0200
0000
0000
0000
0000
0000
0000
0000
0000
0000
0000
0000
0000
0000
0000
0300
,
2000
0000
0000
0000
0000
0000
0000
0000
0000
3000
0001
0100
0010
0100
0001
1000
,
0200
0000
0000
0000
0000
0000
0000
0000
0000
0000
0000
0000
0000
0000
0000
0300
,
0020
0000
0000
0000
0000
0000
0000
0000
0000
0000
0000
0030
0020
0000
0000
0000
0000
0000
0000
0000
0000
0000
0000
0030
0100
0000
0000
0000
2000
0000
0000
0000
0000
0000
3000
0000
0001
0000
0000
0000
0100
0000
0000
0000
0020
0000
0000
0000
0000
0000
0000
0030
0010
0000
0000
0000
1000
0000
0000
0000
0000
0000
0000
0000
,
0002
0000
0000
0000
0000
0000
0000
0000
0000
0000
0000
0000
0000
0000
0000
0003
,
0200
0000
0000
0000
0000
0000
0000
0000
0300
0000
0010
1000
0001
1000
0010
0100
,
0001
0020
0000
0000
0000
0000
0000
0000
0000
0000
0000
0000
0000
0000
0030
0000
,
0200
0000
0000
0000
0000
0000
0000
0000
0000
0000
0000
0300
0200
0000
0000
0000
0000
0000
0000
0000
0000
0000
0000
0300
1000
0000
0000
0000
0002
0000
0000
0000
0000
0000
0000
0003
0100
0000
0000
0000
0010
0000
0000
0000
2000
0000
0000
0000
0000
0000
0000
3000
1000
0000
0000
0000
0001
0000
0000
0000
0000
0000
0000
0000
,
1MM1
0000
1001
0000
0000
0101
0000
1000
,
1001
0000
1001
0000
0000
1100
0000
0001
,
1001
0000
1001
0000
0000
0011
0000
1000
,
1001
0000
1001
0000
0000
1010
0000
0001
,
1001
1000
0010
0100
0001
1000
0010
0100
,
0001
1000
0100
0010
0001
1000
0001
1000
,
0001
0100
0001
0100
0001
0000
1000
0000
0001
0010
0001
0010
0001
0000
1000
0000
,
0001
0100
0001
0100
0001
0000
1000
0000
0001
1000
0001
1000
0001
0000
0MM0
0000
,
1001
0000
0001
0000
0010
0000
0100
1000
0001
0000
1000
0000
0001
0000
0000
0000
,
0001
0000
1000
0000
0010
0000
0100
0001
1000
0000
0001
0000
1000
0000
0000
0000
,
1000
0000
0001
0000
0100
0000
0010
1000
0001
0000
1000
0000
0001
0000
0010
0001
,
1000
0000
0001
0000
1000
0000
0010
1000
0001
0000
1000
0000
0001
0000
0000
0000
,
1000
0000
0001
0000
0100
0000
0010
1000
0001
0000
1000
0000
0001
0000
0000
0000
,
0001
0000
1000
0000
0100
0000
0010
0001
1000
0000
0001
0000
1000
0000
0000
0000
,
1000
0000
0001
0000
0010
0000
0100
1000
0001
0000
1000
0000
0001
0000
0100
0001
,
1000
0000
0001
0000
1000
0000
0100
1000
0001
0000
1000
0000
0001
0000
0000
0000
,
1000
0000
0001
0000
0010
0000
0100
1000
0001
0000
1000
0000
0001
0000
0000
0000
,
0001
0000
1000
0000
0010
0000
0100
0001
1000
0000
0001
0000
1000
0000
0000
0000
,
1000
0000
0001
0000
0100
0000
0010
1000
0001
0000
1000
0000
0001
0000
0010
0001
,
1000
0000
0001
0000
1000
0000
0010
1000
0001
0000
1000
0000
0001
0000
0000
0000
,
1000
0000
0001
0000
0100
0000
0010
1000
0001
0000
1000
0000
0001
0000
0000
0000
,
0001
0000
1000
0000
0100
0000
0010
0001
1000
0000
0001
0000
1000
0000
0000
0000
,
1000
0000
0001
0000
0010
0000
0100
1000
0001
0000
1000
0000
0001
0000
0100
0000
,
0020
M00M
0230
M00M
0320
M00M
0030
M00M
,
1001
1000
0100
0010
0100
1000
0001
0000
,
1010
0010
0100
0010
1000
0001
0100
0000
,
1001
0001
0010
0100
0010
0001
1000
0000
,
0011
0000
0010
0000
0100
0000
0010
0001
0010
0001
1000
0000
0100
0000
0000
0000
,
1001
0001
0010
0100
0010
0001
1000
0000
,
0101
0100
0010
0100
0001
1000
0010
0000
,
1001
1000
0100
0010
0100
1000
0001
0000
,
1100
0000
0100
0000
0010
0000
0100
1000
0100
1000
0001
0000
0010
0000
0000
0000
,
1001
1000
0100
0010
0100
1000
0001
0000
,
1010
0010
0100
0010
1000
0001
0100
0000
,
1001
0001
0010
0100
0010
0001
1000
0000
,
0011
0000
0010
0000
0100
0000
0010
0001
0010
0001
1000
0000
0100
0000
0000
0000
,
1001
0001
0010
0100
0010
0001
1000
0000
,
0101
0100
0010
0100
0001
1000
0010
1000
,
1MM1
0000
0000
0000
0000
0000
0000
0000
0002
0000
0000
0000
0000
0000
0000
0003
0020
0000
0000
0000
0000
0000
0000
0030
0020
0000
0000
0000
0000
0000
0000
0030
0200
0000
0000
0000
0000
0000
0000
0300
0200
0000
0000
0000
0000
0000
0000
0300
0020
0000
0000
0000
0000
0000
0000
0030
0020
0000
0000
0000
0000
0000
0000
0030
,
0001
0100
0010
0100
0001
0000
1000
0000
,
0001
0010
0100
0010
0001
0000
1000
0000
,
0001
0100
0010
0100
0001
0000
1000
0000
,
0001
0000
0010
0000
0100
0000
1000
0001
1000
0001
1000
0000
0010
0000
0000
0000
,
1000
0010
0100
0010
1000
0000
0001
0000
,
1000
0100
0010
0100
1000
0000
0001
0000
,
1000
0010
0100
0010
1000
0000
0001
0000
,
1000
0000
0100
0000
0010
0000
0001
1000
0001
1000
0001
0000
0100
0000
0000
0000
,
0001
0100
0010
0100
0001
0000
1000
0000
,
0001
0010
0100
0010
0001
0000
1000
0000
,
0001
0100
0010
0100
0001
0000
1000
0000
,
0001
0000
0010
0000
0100
0000
1000
0001
1000
0001
1000
0000
0010
0000
0000
0000
,
1000
0010
0100
0010
1000
0000
0001
0000
,
1000
0100
0010
0100
1000
0000
0001
0000
,
1000
0010
0100
0010
1000
0001
0010
0100
,
1001
0000
0000
0MM0
0000
0000
0MM0
0000
0MM0
0000
0000
0MM0
0000
0000
0MM0
0000
,
1001
0000
1000
0000
0100
0000
0010
0001
1000
0000
0001
0000
1000
0000
0000
0000
,
1000
0000
0001
0000
0100
0000
0010
1000
0001
0000
1000
0000
0001
0000
0000
0000
,
0001
0000
1000
0000
0010
0000
0100
0001
1000
0000
0001
0000
1000
0000
0100
1000
,
0001
0000
1000
0000
0001
0000
0100
0001
1000
0000
0001
0000
1000
0000
0000
0000
,
0001
0000
1000
0000
0010
0000
0100
0001
1000
0000
0001
0000
1000
0000
0000
0000
,
1000
0000
0001
0000
0010
0000
0100
1000
0001
0000
1000
0000
0001
0000
0000
0000
,
0001
0000
1000
0000
0100
0000
0010
0001
1000
0000
0001
0000
1000
0000
0010
1000
,
0001
0000
1000
0000
0001
0000
0010
0001
1000
0000
0001
0000
1000
0000
0000
0000
,
0001
0000
1000
0000
0100
0000
0010
0001
1000
0000
0001
0000
1000
0000
0000
0000
,
1000
0000
0001
0000
0100
0000
0010
1000
0001
0000
1000
0000
0001
0000
0000
0000
,
0001
0000
1000
0000
0010
0000
0100
0001
1000
0000
0001
0000
1000
0000
0100
1000
,
0001
0000
1000
0000
0001
0000
0100
0001
1000
0000
0001
0000
1000
0000
0000
0000
,
0001
0000
1000
0000
0010
0000
0100
0001
1000
0000
0001
0000
1000
0000
0000
0000
,
1000
0000
0001
0000
0010
0000
0100
1000
0001
0000
1000
0000
0001
0000
0000
0000
,
0001
0000
1000
0000
0100
0000
0010
0001
1000
0000
0001
0000
1000
0000
0010
0000
,
0200
M00M
0320
M00M
0230
M00M
0300
M00M
,
1001
0001
0010
0100
0010
0001
1000
0000
,
0101
0100
0010
0100
0001
1000
0010
0000
,
1001
1000
0100
0010
0100
1000
0001
0000
,
1100
0000
0100
0000
0010
0000
0100
1000
0100
1000
0001
0000
0010
0000
0000
0000
,
1001
1000
0100
0010
0100
1000
0001
0000
,
1010
0010
0100
0010
1000
0001
0100
0000
,
1001
0001
0010
0100
0010
0001
1000
0000
,
0011
0000
0010
0000
0100
0000
0010
0001
0010
0001
1000
0000
0100
0000
0000
0000
,
1001
0001
0010
0100
0010
0001
1000
0000
,
0101
0100
0010
0100
0001
1000
0010
0000
,
1001
1000
0100
0010
0100
1000
0001
0000
,
1100
0000
0100
0000
0010
0000
0100
1000
0100
1000
0001
0000
0010
0000
0000
0000
,
1001
1000
0100
0010
0100
1000
0001
0000
,
1010
0010
0100
0010
1000
0001
0100
0001
,
1MM1
0000
0000
0000
0000
0000
0000
0000
2000
0000
0000
0000
0000
0000
0000
3000
0200
0000
0000
0000
0000
0000
0000
0300
0200
0000
0000
0000
0000
0000
0000
0300
0020
0000
0000
0000
0000
0000
0000
0030
0020
0000
0000
0000
0000
0000
0000
0030
0200
0000
0000
0000
0000
0000
0000
0300
0200
0000
0000
0000
0000
0000
0000
0300
,
1000
0010
0100
0010
1000
0000
0001
0000
,
1000
0100
0010
0100
1000
0000
0001
0000
,
1000
0010
0100
0010
1000
0000
0001
0000
,
1000
0000
0100
0000
0010
0000
0001
1000
0001
1000
0001
0000
0100
0000
0000
0000
,
0001
0100
0010
0100
0001
0000
1000
0000
,
0001
0010
0100
0010
0001
0000
1000
0000
,
0001
0100
0010
0100
0001
0000
1000
0000
,
0001
0000
0010
0000
0100
0000
1000
0001
1000
0001
1000
0000
0010
0000
0000
0000
,
1000
0010
0100
0010
1000
0000
0001
0000
,
1000
0100
0010
0100
1000
0000
0001
0000
,
1000
0010
0100
0010
1000
0000
0001
0000
,
1000
0000
0100
0000
0010
0000
0001
1000
0001
1000
0001
0000
0100
0000
0000
0000
,
0001
0100
0010
0100
0001
0000
1000
0000
,
0001
0010
0100
0010
0001
0000
1000
0000
,
0001
0100
0010
0100
0001
1000
0100
0010
,
1001
0000
0000
0MM0
0000
0000
0MM0
0000
0MM0
0000
0000
0MM0
0000
0000
0MM0
0000
,
MMMM
0000
0000
0000
,
2000
0000
0000
0000
0000
0000
0000
0000
0000
3000
0001
1000
0010
1000
0100
1000
,
0002
0000
0000
0000
0000
0000
0000
0003
,
0020
0000
0000
0000
0000
0000
0000
0000
0000
0000
0000
0030
0020
0000
0000
0000
0000
0000
0000
0000
0000
0000
0000
0030
0001
0000
0000
0000
2000
0000
0000
0000
0000
0000
0000
3000
0010
0000
0000
0000
0100
0000
0000
0000
0002
0000
0000
0000
0000
0000
0000
0003
0001
0000
0000
0000
1000
0000
0000
0000
0000
0000
0000
0000
,
1MM1
0000
0000
0000
0000
0000
0000
0001
,
1001
0000
0000
0000
0000
0000
0000
1000
,
1001
0000
0000
0000
0000
0000
0000
0001
,
1001
0000
0000
0000
0000
0000
0000
1000
,
1001
0001
0100
0010
1000
0001
0100
0010
,
1000
0001
0010
0100
1000
0001
1000
0001
,
1000
0010
1000
0010
1000
0000
0001
0000
1000
0100
1000
0100
1000
0000
0001
0000
,
1000
0010
1000
0010
1000
0000
0001
0000
1000
0001
1000
0001
1000
0000
0MM0
0000
,
1001
0000
1000
0000
0100
0000
0010
0001
1000
0000
0001
0000
1000
0000
0000
0000
,
1000
0000
0001
0000
0100
0000
0010
1000
0001
0000
1000
0000
0001
0000
0000
0000
,
0001
0000
1000
0000
0010
0000
0100
0001
1000
0000
0001
0000
1000
0000
0100
1000
,
0001
0000
1000
0000
0001
0000
0100
0001
1000
0000
0001
0000
1000
0000
0000
0000
,
0001
0000
1000
0000
0010
0000
0100
0001
1000
0000
0001
0000
1000
0000
0000
0000
,
1000
0000
0001
0000
0010
0000
0100
1000
0001
0000
1000
0000
0001
0000
0000
0000
,
0001
0000
1000
0000
0100
0000
0010
0001
1000
0000
0001
0000
1000
0000
0010
1000
,
0001
0000
1000
0000
0001
0000
0010
0001
1000
0000
0001
0000
1000
0000
0000
0000
,
0001
0000
1000
0000
0100
0000
0010
0001
1000
0000
0001
0000
1000
0000
0000
0000
,
1000
0000
0001
0000
0100
0000
0010
1000
0001
0000
1000
0000
0001
0000
0000
0000
,
0001
0000
1000
0000
0010
0000
0100
0001
1000
0000
0001
0000
1000
0000
0100
1000
,
0001
0000
1000
0000
0001
0000
0100
0001
1000
0000
0001
0000
1000
0000
0000
0000
,
0001
0000
1000
0000
0010
0000
0100
0001
1000
0000
0001
0000
1000
0000
0000
0000
,
1000
0000
0001
0000
0010
0000
0100
1000
0001
0000
1000
0000
0001
0000
0000
0000
,
0001
0000
1000
0000
0100
0000
0010
0001
1000
0000
0001
0000
1000
0000
0100
0000
,
0020
M00M
0230
M00M
0320
M00M
0030
M00M
,
1001
0001
0010
0100
0010
0001
1000
0000
,
0101
0100
0010
0100
0001
1000
0010
0000
,
1001
1000
0100
0010
0100
1000
0001
0000
,
1100
0000
0100
0000
0010
0000
0100
1000
0100
1000
0001
0000
0010
0000
0000
0000
,
1001
1000
0100
0010
0100
1000
0001
0000
,
1010
0010
0100
0010
1000
0001
0100
0000
,
1001
0001
0010
0100
0010
0001
1000
0000
,
0011
0000
0010
0000
0100
0000
0010
0001
0010
0001
1000
0000
0100
0000
0000
0000
,
1001
0001
0010
0100
0010
0001
1000
0000
,
0101
0100
0010
0100
0001
1000
0010
0000
,
1001
1000
0100
0010
0100
1000
0001
0000
,
1100
0000
0100
0000
0010
0000
0100
1000
0100
1000
0001
0000
0010
0000
0000
0000
,
1001
1000
0100
0010
0100
1000
0001
0000
,
1010
0010
0100
0010
1000
0001
0100
0001
,
1MM1
0000
0000
0000
0000
0000
0000
0000
0002
0000
0000
0000
0000
0000
0000
0003
0020
0000
0000
0000
0000
0000
0000
0030
0020
0000
0000
0000
0000
0000
0000
0030
0200
0000
0000
0000
0000
0000
0000
0300
0200
0000
0000
0000
0000
0000
0000
0300
0020
0000
0000
0000
0000
0000
0000
0030
0020
0000
0000
0000
0000
0000
0000
0030
,
0001
0100
0010
0100
0001
0000
1000
0000
,
0001
0010
0100
0010
0001
0000
1000
0000
,
0001
0100
0010
0100
0001
0000
1000
0000
,
0001
0000
0010
0000
0100
0000
1000
0001
1000
0001
1000
0000
0010
0000
0000
0000
,
1000
0010
0100
0010
1000
0000
0001
0000
,
1000
0100
0010
0100
1000
0000
0001
0000
,
1000
0010
0100
0010
1000
0000
0001
0000
,
1000
0000
0100
0000
0010
0000
0001
1000
0001
1000
0001
0000
0100
0000
0000
0000
,
0001
0100
0010
0100
0001
0000
1000
0000
,
0001
0010
0100
0010
0001
0000
1000
0000
,
0001
0100
0010
0100
0001
0000
1000
0000
,
0001
0000
0010
0000
0100
0000
1000
0001
1000
0001
1000
0000
0010
0000
0000
0000
,
1000
0010
0100
0010
1000
0000
0001
0000
,
1000
0100
0010
0100
1000
0000
0001
0000
,
1000
0010
0100
0010
1000
0001
0010
0100
,
1001
0000
0000
0MM0
0000
0000
0MM0
0000
0MM0
0000
0000
0MM0
0000
0000
0MM0
0000
,
1000
0100
0010
0001
1000
0010
1000
0001
,
0100
0000
0010
0000
1000
0000
0001
0010
0001
0010
0100
0000
1000
0000
0010
0000
,
1000
0001
0010
0100
1000
0001
0100
0001
,
1000
0000
0100
0000
0010
0000
0001
0100
0001
0100
0010
0000
1000
0000
0001
0000
,
1000
0100
0010
0001
1000
0010
1000
0001
,
0100
0000
0010
0000
1000
0000
0001
0010
0001
0010
0100
0000
1000
0000
0010
0000
,
1000
0001
0010
0100
1000
0001
0100
0001
,
1000
0000
0100
0000
0010
0000
0001
0100
0001
0100
0010
0000
1000
0000
0001
0000
,
1000
0100
0010
0001
1000
0010
1000
0001
,
0100
0000
0010
0000
1000
0000
0001
0010
0001
0010
0100
0000
1000
0000
0010
0000
,
1000
0001
0010
0100
1000
0001
0100
0001
,
1000
0000
0100
0000
0010
0000
0001
0100
0001
0100
0010
0000
1000
0000
0001
0000
,
1000
0100
0010
0001
1000
0010
1000
0001
,
0100
0000
0010
0000
1000
0000
0001
0010
0001
0010
0100
0000
1000
0000
0010
0000
,
0100
0000
0010
1000
0001
1000
0001
1000
0100
1000
0001
1000
0001
1000
0001
1000
,
0100
0000
0000
0MM0
0000
0000
0MM0
0000
0MM0
0000
0000
0MM0
0000
0000
0MM0
0000
,
MMMM
0000
M000
0M00
00M0
000M
0000
M000
0000
0000
000M
00M0
0M00
M000
000M
0000
,
0000
0000
000M
00M0
0M00
M000
0000
000M
0000
0000
M000
0M00
00M0
000M
M000
0000
,
0000
0000
M000
0M00
00M0
000M
0000
M000
0000
0000
000M
00M0
0M00
M000
000M
0000
,
0000
0000
000M
00M0
0M00
M000
0000
000M
0000
0000
M000
0M00
00M0
000M
M000
0000
;

//---------------dance-single - I. Pyles----------------
#NOTES:
     dance-single:
     I. Pyles:
     Hard:
     13:
     1.000,1.000,0.241,0.182,1.000,2229.000,78.000,59.000,128.000,1.000:



0000
0000
0000
0000
,
0001
0100
0000
0010
1000
0010
0100
0000
0001
0010
0000
0100
1000
0100
0010
0001
,
0100
0010
0000
0100
0001
0100
0010
0000
1000
0100
0000
0010
0001
1000
0000
0010
,
1000
0100
0000
1000
0001
0000
0001
0000
0001
0100
0000
0001
0100
0000
0100
0000
,
0010
0100
0000
0010
0100
0000
0100
0000
1000
0100
0000
0001
1000
0100
0010
0001
,
0100
0010
0000
0100
0001
0000
1000
0010
0100
0001
0000
0010
0100
0000
1000
0100
,
0010
0001
0000
0100
0010
0000
0010
0000
0010
1000
0000
0001
1000
0100
0000
0001
,
0100
0010
0000
1000
0010
0000
0010
0000
0100
0001
0000
0100
0001
0000
0001
0000
,
1000
0100
0000
1000
0100
0000
0100
0000
0001
0100
0000
1000
0001
0010
0100
1000
,
0020
0000
0000
0000
0000
0000
0000
0000
0000
0000
0000
0000
0000
0000
0000
0030
,
0200
0000
0000
0000
0000
0000
0000
0000
0000
0300
0001
1000
0010
0100
0010
1000
,
0200
0000
0000
0000
0000
0000
0000
0000
0000
0000
0000
0000
0000
0000
0000
0300
,
0020
0000
0000
0000
0000
0000
0000
0000
0000
0000
0000
0030
0020
0000
0000
0000
0000
0000
0000
0000
0000
0000
0000
0030
0001
0000
0000
0000
2000
0000
0000
0000
0000
0000
0000
3000
0010
0000
0000
0000
0100
0000
0000
0000
0002
0000
0000
0000
0000
0000
0000
0003
0001
0000
0000
0000
0010
0000
0000
0000
0000
0000
0000
0000
,
0200
0000
0000
0000
0000
0000
0000
0000
0000
0000
0000
0000
0000
0000
0000
0300
,
2000
0000
0000
0000
0000
0000
0000
0000
0000
3000
0001
0100
0010
0100
0001
1000
,
0200
0000
0000
0000
0000
0000
0000
0000
0000
0000
0000
0000
0000
0000
0000
0300
,
0020
0000
0000
0000
0000
0000
0000
0000
0000
0000
0000
0030
0020
0000
0000
0000
0000
0000
0000
0000
0000
0000
0000
0030
0100
0000
0000
0000
2000
0000
0000
0000
0000
0000
3000
0000
0001
0000
0000
0000
0100
0000
0000
0000
0020
0000
0000
0000
0000
0000
0000
0030
0010
0000
0000
0000
1000
0000
0000
0000
0000
0000
0000
0000
,
0002
0000
0000
0000
0000
0000
0000
0000
0000
0000
0000
0000
0000
0000
0000
0003
,
0200
0000
0000
0000
0000
0000
0000
0000
0300
0000
0010
1000
0001
1000
0010
0100
,
0001
0020
0000
0000
0000
0000
0000
0000
0000
0000
0000
0000
0000
0000
0030
0000
,
0200
0000
0000
0000
0000
0000
0000
0000
0000
0000
0000
0300
0200
0000
0000
0000
0000
0000
0000
0000
0000
0000
0000
0300
1000
0000
0000
0000
0002
0000
0000
0000
0000
0000
0000
0003
0100
0000
0000
0000
0010
0000
0000
0000
2000
0000
0000
0000
0000
0000
0000
3000
1000
0000
0000
0000
0001
0000
0000
0000
0000
0000
0000
0000
,
1MM1
0000
0000
0000
1001
0000
1000
0001
0010
0100
0010
0000
0000
0000
0100
0000
,
1001
0000
0000
0000
1001
0000
0001
1000
0010
0100
0010
0000
0000
0000
0100
0000
,
1001
0000
0000
0000
1001
0000
1000
0001
0010
0100
0010
0000
0000
0000
0100
0000
,
1001
0000
0000
0000
1001
0000
0001
1000
0010
0100
0010
0000
0000
0000
0100
0000
,
1001
0001
0101
0100
0010
1000
1010
1000
,
0001
0010
0011
0001
1000
0100
1100
1000
,
0001
0100
0001
0100
0010
1000
0001
0100
0010
1000
0001
0010
0100
1000
0001
0010
,
0001
1000
0100
1000
0001
0010
0100
1000
0001
0100
0001
0100
0020
0000
0000
0000
,
1031
0000
1000
0010
0100
0000
0010
0100
0001
1000
0100
0010
0001
1000
0100
0010
,
0100
0010
0001
1000
0010
0100
0001
0100
0010
0100
0001
1000
0100
0010
0001
0000
,
0011
0000
0001
0010
0100
0000
0010
0100
1000
0001
0100
0010
1000
0001
1000
0001
,
1000
0010
0100
0010
1000
0001
0100
0010
1000
0001
0100
0010
1000
0001
1000
0000
,
1100
0000
1000
0100
0010
0000
0100
0010
0001
1000
0010
0100
0001
1000
0010
0100
,
0010
0100
0001
1000
0100
0010
0001
0010
0100
0010
0001
1000
0010
0100
0001
0000
,
0101
0000
0001
0100
0010
0000
0100
0010
1000
0001
0010
0100
1000
0001
1000
0001
,
1000
0100
0010
0100
1000
0001
0010
0100
1000
0001
0010
0100
1000
0001
1000
0000
,
1001
0000
0001
0100
0010
0000
0100
0010
1000
0001
0010
0100
1000
0001
0010
0100
,
0010
0100
1000
0001
0100
0010
1000
0010
0100
0010
1000
0001
0010
0100
1000
0000
,
1100
0000
1000
0100
0010
0000
0100
0010
0001
1000
0010
0100
0001
1000
0001
1000
,
0001
0100
0010
0100
0001
1000
0010
0100
0001
1000
0010
0100
0001
1000
0001
0000
,
0011
0000
0001
0010
0100
0000
0010
0100
1000
0001
0100
0010
1000
0001
0100
0010
,
0100
0010
1000
0001
0010
0100
1000
0100
0010
0100
1000
0001
0100
0010
1000
0000
,
1010
0000
1000
0010
0100
0000
0010
0100
0001
1000
0100
0010
0001
1000
0001
1000
,
0020
M00M
0230
M00M
0320
M00M
0030
MMMM
,
1001
0000
0001
0100
0001
0000
0010
0100
0010
0001
0010
0000
0001
0000
1000
0000
,
1001
0000
1000
0100
1000
0000
0010
0100
0010
1000
0010
0000
1000
0000
0001
0000
,
0011
0000
0010
0001
0010
0000
0001
1000
0001
0100
0001
0000
1000
0000
0001
0000
,
1010
0000
0010
1000
0010
0000
1000
0001
0100
0010
1000
0001
0100
0010
1000
0001
,
1000
0000
0010
1000
0010
0000
1000
0001
1000
0100
1000
0000
0001
0000
1000
0000
,
0011
0000
0010
0001
0010
0000
0001
1000
0001
0100
0001
0000
1000
0000
0001
0000
,
0101
0000
0100
0010
0100
0000
0001
1000
0010
0100
0010
0000
1000
0000
0001
0000
,
1100
0000
0100
0010
0100
0000
1000
0001
0010
0100
1000
0001
0010
0100
1000
0001
,
1000
0000
0001
0100
0001
0000
0010
0100
0010
0001
0010
0000
0001
0000
1000
0000
,
1001
0000
1000
0100
1000
0000
0010
0100
0010
1000
0010
0000
1000
0000
0001
0000
,
0011
0000
0010
0001
0010
0000
0001
1000
0001
0100
0001
0000
1000
0000
0001
0000
,
1010
0000
0010
1000
0010
0000
1000
0001
0100
0010
1000
0001
0100
0010
1000
0001
,
1000
0000
0010
1000
0010
0000
1000
0001
1000
0100
1000
0000
0001
0000
1000
0000
,
0011
0000
0010
0001
0010
0000
0001
1000
0001
0100
0001
0000
1000
0000
0001
0000
,
1MM1
0000
0000
0000
0000
0000
0000
0000
0002
0000
0000
0000
0000
0000
0000
0003
0020
0000
0000
0000
0000
0000
0000
0030
0020
0000
0000
0000
0000
0000
0000
0030
0200
0000
0000
0000
0000
0000
0000
0300
0200
0000
0000
0000
0000
0000
0000
0300
0020
0000
0000
0000
0000
0000
0000
0030
0020
0000
0000
0000
0000
0000
0000
0030
,
0001
0100
0010
0000
1000
0000
0010
0100
0001
0000
1000
0010
1000
0010
0100
0000
,
0010
1000
0001
0000
0100
0000
0001
1000
0010
0000
0100
0001
0100
0001
1000
0000
,
0100
0010
0001
0000
1000
0000
0001
0010
0100
0000
0010
0001
0010
0001
1000
0000
,
0001
0100
0001
0000
1000
0000
0001
0100
0001
1000
0100
0010
0001
1000
0010
1000
,
0001
0010
0100
0000
1000
0000
0100
0010
0001
0000
1000
0100
1000
0100
0010
0000
,
0100
1000
0001
0000
0010
0000
0001
1000
0100
0000
0010
0100
0010
0100
1000
0000
,
0010
0100
0001
0000
1000
0000
0001
0100
0010
0000
1000
0001
1000
0001
0010
0000
,
0100
1000
0100
0000
0010
0000
0100
1000
0100
0010
0001
1000
0001
0100
0010
1000
,
0001
0100
0010
0000
1000
0000
0010
0100
0001
0000
0010
0001
0010
0001
1000
0000
,
0100
1000
0001
0000
0010
0000
0001
1000
0100
0000
1000
0010
1000
0010
0100
0000
,
0001
0010
0100
0000
1000
0000
0100
0010
0001
0000
0010
0100
0010
0100
1000
0000
,
0001
0010
0001
0000
1000
0000
0001
0010
0001
1000
0010
0100
0001
1000
0100
1000
,
0001
0100
0010
0000
1000
0000
0010
0100
0001
0000
1000
0100
1000
0100
0010
0000
,
0001
1000
0100
0000
0010
0000
0100
1000
0001
0000
0100
0010
0100
0010
1000
0000
,
0010
0100
0001
0000
1000
0000
0001
0100
0010
0000
1000
0001
1000
0001
0010
0000
,
1001
0000
0000
0MM0
0000
0000
0MM0
0000
0MM0
0000
0000
0MM0
0000
0000
0MM0
0000
,
1001
0000
0001
1000
0010
0000
1000
0010
0100
0001
0100
0001
1000
0100
0010
0001
,
1000
0100
0010
0001
1000
0100
1000
0001
0010
0100
1000
0001
1000
0010
1000
0000
,
0101
0000
0100
0001
1000
0000
0001
1000
0010
0100
0010
0100
0001
0010
0100
1000
,
0001
0010
0001
1000
0100
1000
0001
0100
0010
1000
0001
0100
0010
1000
0001
0000
,
0011
0000
0010
0001
1000
0000
0001
1000
0100
0010
0100
0010
0001
1000
0010
1000
,
0001
0100
0010
1000
0001
0100
0001
1000
0010
1000
0001
0010
0100
1000
0001
0000
,
1100
0000
0100
1000
0001
0000
1000
0001
0100
0010
0100
0010
1000
0001
0010
0001
,
1000
0100
0010
0001
1000
0100
0010
0001
1000
0100
1000
0001
1000
0010
0100
0000
,
1001
0000
1000
0001
0100
0000
0001
0100
0010
1000
0010
1000
0001
0010
0100
1000
,
0001
0010
0100
1000
0001
0010
0001
1000
0100
0010
0001
1000
0001
0100
0001
0000
,
1010
0000
0010
1000
0001
0000
1000
0001
0100
0010
0100
0010
1000
0100
0010
0001
,
1000
0100
1000
0001
0010
0001
1000
0010
0100
0001
1000
0010
0100
0001
1000
0000
,
1100
0000
0100
1000
0001
0000
1000
0001
0010
0100
0010
0100
1000
0001
0100
0001
,
1000
0010
0100
0001
1000
0010
1000
0001
0100
0001
1000
0100
0010
0001
1000
0000
,
0011
0000
0010
0001
1000
0000
0001
1000
0010
0100
0010
0100
0001
1000
0001
1000
,
0200
M00M
0320
M00M
0230
M00M
0300
MMMM
,
1001
0000
1000
0010
1000
0000
0100
0010
0100
1000
0100
0000
1000
0000
0001
0000
,
1001
0000
0001
0010
0001
0000
0100
0010
0100
0001
0100
0000
0001
0000
1000
0000
,
1100
0000
0100
1000
0100
0000
1000
0001
1000
0010
1000
0000
0001
0000
1000
0000
,
0101
0000
0100
0001
0100
0000
0001
1000
0010
0100
0001
1000
0010
0100
0001
1000
,
0001
0000
0100
0001
0100
0000
0001
1000
0001
0010
0001
0000
1000
0000
0001
0000
,
1100
0000
0100
1000
0100
0000
1000
0001
1000
0010
1000
0000
0001
0000
1000
0000
,
1010
0000
0010
0100
0010
0000
1000
0001
0100
0010
0100
0000
0001
0000
1000
0000
,
0011
0000
0010
0100
0010
0000
0001
1000
0100
0010
0001
1000
0100
0010
0001
1000
,
0001
0000
1000
0010
1000
0000
0100
0010
0100
1000
0100
0000
1000
0000
0001
0000
,
1001
0000
0001
0010
0001
0000
0100
0010
0100
0001
0100
0000
0001
0000
1000
0000
,
1100
0000
0100
1000
0100
0000
1000
0001
1000
0010
1000
0000
0001
0000
1000
0000
,
0101
0000
0100
0001
0100
0000
0001
1000
0010
0100
0001
1000
0010
0100
0001
1000
,
0001
0000
0100
0001
0100
0000
0001
1000
0001
0010
0001
0000
1000
0000
0001
0000
,
1100
0000
0100
1000
0100
0000
1000
0001
1000
0010
1000
0000
0001
0000
1000
0000
,
1MM1
0000
0000
0000
0000
0000
0000
0000
2000
0000
0000
0000
0000
0000
0000
3000
0200
0000
0000
0000
0000
0000
0000
0300
0200
0000
0000
0000
0000
0000
0000
0300
0020
0000
0000
0000
0000
0000
0000
0030
0020
0000
0000
0000
0000
0000
0000
0030
0200
0000
0000
0000
0000
0000
0000
0300
0200
0000
0000
0000
0000
0000
0000
0300
,
1000
0010
0100
0000
0001
0000
0100
0010
1000
0000
0001
0100
0001
0100
0010
0000
,
0100
0001
1000
0000
0010
0000
1000
0001
0100
0000
0010
1000
0010
1000
0001
0000
,
0010
0100
1000
0000
0001
0000
1000
0100
0010
0000
0100
1000
0100
1000
0001
0000
,
1000
0010
1000
0000
0001
0000
1000
0010
1000
0001
0010
0100
1000
0001
0100
0001
,
1000
0100
0010
0000
0001
0000
0010
0100
1000
0000
0001
0010
0001
0010
0100
0000
,
0010
0001
1000
0000
0100
0000
1000
0001
0010
0000
0100
0010
0100
0010
0001
0000
,
0100
0010
1000
0000
0001
0000
1000
0010
0100
0000
0001
1000
0001
1000
0100
0000
,
0010
0001
0010
0000
0100
0000
0010
0001
0010
0100
1000
0001
1000
0010
0100
0001
,
1000
0010
0100
0000
0001
0000
0100
0010
1000
0000
0100
1000
0100
1000
0001
0000
,
0010
0001
1000
0000
0100
0000
1000
0001
0010
0000
0001
0100
0001
0100
0010
0000
,
1000
0100
0010
0000
0001
0000
0010
0100
1000
0000
0100
0010
0100
0010
0001
0000
,
1000
0100
1000
0000
0001
0000
1000
0100
1000
0001
0100
0010
1000
0001
0010
0001
,
1000
0010
0100
0000
0001
0000
0100
0010
1000
0000
0001
0010
0001
0010
0100
0000
,
1000
0001
0010
0000
0100
0000
0010
0001
1000
0000
0010
0100
0010
0100
0001
0000
,
0100
0010
1000
0000
0001
0000
1000
0010
0100
0000
0001
1000
0001
1000
0100
0000
,
1001
0000
0000
0MM0
0000
0000
0MM0
0000
0MM0
0000
0000
0MM0
0000
0000
0MM0
0000
,
MMMM
0000
0000
0000
,
2000
0000
0000
0000
0000
0000
0000
0000
0000
3000
0001
1000
0010
1000
0100
1000
,
0002
0000
0000
0000
0000
0000
0000
0003
,
0020
0000
0000
0000
0000
0000
0000
0000
0000
0000
0000
0030
0020
0000
0000
0000
0000
0000
0000
0000
0000
0000
0000
0030
0001
0000
0000
0000
2000
0000
0000
0000
0000
0000
0000
3000
0010
0000
0000
0000
0100
0000
0000
0000
0002
0000
0000
0000
0000
0000
0000
0003
0001
0000
0000
0000
1000
0000
0000
0000
0000
0000
0000
0000
,
1MM1
0000
0000
0000
0000
0000
0000
0100
,
1001
0000
0000
0000
0000
0000
0000
0100
,
1001
0000
0000
0000
0000
0000
0000
0100
,
1001
0000
0000
0000
0000
0000
0000
0100
,
1001
1000
1010
0010
0100
0001
0101
0001
,
1000
0100
1100
1000
0001
0010
0011
0001
,
1000
0010
1000
0010
0100
0001
1000
0010
0100
0001
1000
0100
0010
0001
1000
0100
,
1000
0001
0010
0001
1000
0100
0010
0001
1000
0010
1000
0010
0200
0000
0000
0000
,
0301
0010
0100
1000
0001
0100
0001
1000
0010
0100
0010
0100
0010
1000
0001
1000
,
0001
0010
0100
1000
0001
1000
0100
1000
0001
0010
0100
1000
0001
0010
0100
1000
,
0001
0100
0010
1000
0001
0010
0001
1000
0100
0010
0100
0010
0100
1000
0001
1000
,
0001
0100
0010
1000
0001
1000
0010
1000
0001
0100
0010
1000
0001
0100
0010
1000
,
0001
0010
0100
1000
0001
0100
0001
0100
0010
1000
0001
0100
0001
1000
0010
0100
,
0010
0100
0010
1000
0001
0100
0010
1000
0010
1000
0001
1000
0010
0100
0001
1000
,
0001
0100
0010
1000
0001
0010
0001
0010
0100
1000
0001
0010
0001
1000
0100
0010
,
0100
0010
0100
1000
0001
0010
0100
1000
0100
1000
0001
1000
0100
0010
0001
1000
,
0001
0010
0100
1000
0001
0100
0001
0100
0010
1000
0010
0100
0001
1000
0010
0100
,
0001
1000
0001
0100
0010
0100
0001
1000
0001
0100
0001
0100
0010
0100
0001
1000
,
0001
0100
0010
1000
0001
0010
0001
0010
0100
1000
0100
0010
0001
1000
0100
0010
,
0001
1000
0001
0010
0100
0010
0001
1000
0001
0010
0001
0010
0100
0010
0001
1000
,
0001
0010
0100
1000
0010
1000
0010
0100
0001
1000
0001
0100
0010
0100
0001
1000
,
0001
0100
0010
0100
0001
1000
0010
0100
0010
1000
0001
0100
0001
0100
0010
1000
,
0001
0100
0010
1000
0100
1000
0100
0010
0001
1000
0001
0010
0100
0010
0001
1000
,
0020
M00M
0230
M00M
0320
M00M
0030
MMMM
,
1001
0000
0001
0010
0001
0000
0100
0010
0100
0001
0100
0000
0001
0000
1000
0000
,
1001
0000
1000
0010
1000
0000
0100
0010
0100
1000
0100
0000
1000
0000
0001
0000
,
0101
0000
0100
0001
0100
0000
0001
1000
0001
0010
0001
0000
1000
0000
0001
0000
,
1100
0000
0100
1000
0100
0000
1000
0001
0010
0100
1000
0001
0010
0100
1000
0001
,
1000
0000
0100
1000
0100
0000
1000
0001
1000
0010
1000
0000
0001
0000
1000
0000
,
0101
0000
0100
0001
0100
0000
0001
1000
0001
0010
0001
0000
1000
0000
0001
0000
,
0011
0000
0010
0100
0010
0000
0001
1000
0100
0010
0100
0000
1000
0000
0001
0000
,
1010
0000
0010
0100
0010
0000
1000
0001
0100
0010
1000
0001
0100
0010
1000
0001
,
1000
0000
0001
0010
0001
0000
0100
0010
0100
0001
0100
0000
0001
0000
1000
0000
,
1001
0000
1000
0010
1000
0000
0100
0010
0100
1000
0100
0000
1000
0000
0001
0000
,
0101
0000
0100
0001
0100
0000
0001
1000
0001
0010
0001
0000
1000
0000
0001
0000
,
1100
0000
0100
1000
0100
0000
1000
0001
0010
0100
1000
0001
0010
0100
1000
0001
,
1000
0000
0100
1000
0100
0000
1000
0001
1000
0010
1000
0000
0001
0000
1000
0000
,
0101
0000
0100
0001
0100
0000
0001
1000
0001
0010
0001
0000
1000
0000
0001
0000
,
1MM1
0000
0000
0000
0000
0000
0000
0000
0002
0000
0000
0000
0000
0000
0000
0003
0020
0000
0000
0000
0000
0000
0000
0030
0020
0000
0000
0000
0000
0000
0000
0030
0200
0000
0000
0000
0000
0000
0000
0300
0200
0000
0000
0000
0000
0000
0000
0300
0020
0000
0000
0000
0000
0000
0000
0030
0020
0000
0000
0000
0000
0000
0000
0030
,
0001
0010
0100
0000
1000
0000
0100
0010
0001
0000
1000
0100
1000
0100
0010
0000
,
0100
1000
0001
0000
0010
0000
0001
1000
0100
0000
0010
0001
0010
0001
1000
0000
,
0010
0100
0001
0000
1000
0000
0001
0100
0010
0000
0100
0001
0100
0001
1000
0000
,
0001
0010
0001
0000
1000
0000
0001
0010
0001
1000
0010
0100
0001
1000
0100
1000
,
0001
0100
0010
0000
1000
0000
0010
0100
0001
0000
1000
0010
1000
0010
0100
0000
,
0010
1000
0001
0000
0100
0000
0001
1000
0010
0000
0100
0010
0100
0010
1000
0000
,
0100
0010
0001
0000
1000
0000
0001
0010
0100
0000
1000
0001
1000
0001
0100
0000
,
0010
1000
0010
0000
0100
0000
0010
1000
0010
0100
0001
1000
0001
0010
0100
1000
,
0001
0010
0100
0000
1000
0000
0100
0010
0001
0000
0100
0001
0100
0001
1000
0000
,
0010
1000
0001
0000
0100
0000
0001
1000
0010
0000
1000
0100
1000
0100
0010
0000
,
0001
0100
0010
0000
1000
0000
0010
0100
0001
0000
0100
0010
0100
0010
1000
0000
,
0001
0100
0001
0000
1000
0000
0001
0100
0001
1000
0100
0010
0001
1000
0010
1000
,
0001
0010
0100
0000
1000
0000
0100
0010
0001
0000
1000
0010
1000
0010
0100
0000
,
0001
1000
0010
0000
0100
0000
0010
1000
0001
0000
0010
0100
0010
0100
1000
0000
,
0100
0010
0001
0000
1000
0000
0001
0010
0100
0000
1000
0001
1000
0001
0100
0000
,
1001
0000
0000
0MM0
0000
0000
0MM0
0000
0MM0
0000
0000
0MM0
0000
0000
0MM0
0000
,
1000
0100
0010
0001
1000
0000
0010
1000
0010
0000
0100
0000
0001
0000
1000
0000
,
0001
0010
0100
1000
0001
0000
0010
0001
0010
0000
0100
0000
1000
0000
0001
0000
,
1000
0010
0100
0001
1000
0000
0100
1000
0100
0000
0010
0000
0001
0000
1000
0000
,
0001
0100
0010
1000
0001
0100
0010
1000
0001
0100
0010
0100
0001
1000
0100
0000
,
1000
0010
0100
0001
1000
0000
0010
1000
0010
0000
0100
0000
0001
0000
1000
0000
,
0001
0010
0001
1000
0001
0000
0100
0010
0100
0000
0010
0000
0100
0000
0001
0000
,
1000
0010
1000
0001
1000
0000
0100
0010
0100
0000
0010
0000
0001
0000
1000
0000
,
0001
0010
0100
1000
0001
0010
0100
1000
0001
0010
0100
0010
0001
1000
0010
0000
,
1000
0010
0100
0001
1000
0000
0100
1000
0100
0000
0010
0000
0001
0000
1000
0000
,
0001
0100
0010
1000
0001
0000
0100
0001
0100
0000
0010
0000
1000
0000
0001
0000
,
1000
0100
0010
0001
1000
0000
0010
1000
0010
0000
0100
0000
0001
0000
1000
0000
,
0001
0010
0100
1000
0001
0010
0100
1000
0001
0010
0100
0010
0001
1000
0010
0000
,
1000
0100
0010
0001
1000
0000
0100
1000
0100
0000
0010
0000
0001
0000
1000
0000
,
0001
0100
0001
1000
0001
0000
0010
0100
0010
0000
0100
0000
0010
0000
0001
0000
,
1000
0100
1000
0001
1000
0000
0010
0100
0010
0000
0100
0000
0001
0000
1000
0000
,
1001
0000
0000
0MM0
0000
0000
0MM0
0000
0MM0
0000
0000
0MM0
0000
0000
0MM0
0000
,
MMMM
0000
M000
0M00
00M0
000M
0000
M000
0000
0000
000M
00M0
0M00
M000
000M
0000
,
0000
0000
000M
00M0
0M00
M000
0000
000M
0000
0000
M000
0M00
00M0
000M
M000
0000
,
0000
0000
M000
0M00
00M0
000M
0000
M000
0000
0000
000M
00M0
0M00
M000
000M
0000
,
0000
0000
000M
00M0
0M00
M000
0000
000M
0000
0000
M000
0M00
00M0
000M
M000
0000
;

//---------------dance-single - I. Pyles----------------
#NOTES:
     dance-single:
     I. Pyles:
     Challenge:
     15:
     1.000,1.000,0.090,0.182,1.000,2517.000,29.000,59.000,116.000,0.000:




0000
0000
0000
0000
,
0001
0100
0000
0010
1000
0010
0100
0000
0001
0010
0000
0100
1000
0100
0010
0001
,
0100
0010
0000
0100
0001
0100
0010
0000
1000
0100
0000
0010
0001
1000
0000
0010
,
1000
0100
0000
1000
0001
0000
0001
0000
0001
0100
0000
0001
0100
0000
0100
0000
,
0010
0100
0000
0010
0100
0000
0100
0000
1000
0100
0000
0001
1000
0100
0010
0001
,
0100
0010
0000
0100
0001
0000
1000
0010
0100
0001
0000
0010
0100
0000
1000
0100
,
0010
0001
0000
0100
0010
0000
0010
0000
0010
1000
0000
0001
1000
0100
0000
0001
,
0100
0010
0000
1000
0010
0000
0010
0000
0100
0001
0000
0100
0001
0000
0001
0000
,
1000
0100
0000
1000
0100
0000
0100
0000
0001
0100
0000
1000
0001
0010
0100
1000
,
0020
0000
0000
0000
0000
0000
0000
0000
0000
0000
0000
0000
0000
0000
0000
0030
,
0200
0000
0000
0000
0000
0000
0000
0000
0000
0300
0001
1000
0010
0100
0010
1000
,
0200
0000
0000
0000
0000
0000
0000
0000
0000
0000
0000
0000
0000
0000
0000
0300
,
0020
0000
0000
0000
0000
0000
0000
0000
0000
0000
0000
0030
0020
0000
0000
0000
0000
0000
0000
0000
0000
0000
0000
0030
0001
0000
0000
0000
2000
0000
0000
0000
0000
0000
0000
3000
0010
0000
0000
0000
0100
0000
0000
0000
0002
0000
0000
0000
0000
0000
0000
0003
0001
0000
0000
0000
0010
0000
0000
0000
0000
0000
0000
0000
,
0200
0000
0000
0000
0000
0000
0000
0000
0000
0000
0000
0000
0000
0000
0000
0300
,
2000
0000
0000
0000
0000
0000
0000
0000
0000
3000
0001
0100
0010
0100
0001
1000
,
0200
0000
0000
0000
0000
0000
0000
0000
0000
0000
0000
0000
0000
0000
0000
0300
,
0020
0000
0000
0000
0000
0000
0000
0000
0000
0000
0000
0030
0020
0000
0000
0000
0000
0000
0000
0000
0000
0000
0000
0030
0100
0000
0000
0000
2000
0000
0000
0000
0000
0000
3000
0000
0001
0000
0000
0000
0100
0000
0000
0000
0020
0000
0000
0000
0000
0000
0000
0030
0010
0000
0000
0000
1000
0000
0000
0000
0000
0000
0000
0000
,
0002
0000
0000
0000
0000
0000
0000
0000
0000
0000
0000
0000
0000
0000
0000
0003
,
0200
0000
0000
0000
0000
0000
0000
0000
0300
0000
0010
1000
0001
1000
0010
0100
,
0001
0020
0000
0000
0000
0000
0000
0000
0000
0000
0000
0000
0000
0000
0030
0000
,
0200
0000
0000
0000
0000
0000
0000
0000
0000
0000
0000
0300
0200
0000
0000
0000
0000
0000
0000
0000
0000
0000
0000
0300
1000
0000
0000
0000
0002
0000
0000
0000
0000
0000
0000
0003
0100
0000
0000
0000
0010
0000
0000
0000
2000
0000
0000
0000
0000
0000
0000
3000
1000
0000
0000
0000
0001
0000
0000
0000
0000
0000
0000
0000
,
1MM1
0000
0000
0000
1001
0000
1000
0001
0010
0100
0010
0000
0000
0000
0100
0000
,
1001
0000
0000
0000
1001
0000
0001
1000
0010
0100
0010
0000
0000
0000
0100
0000
,
1001
0000
0000
0000
1001
0000
1000
0001
0010
0100
0010
0000
0000
0000
0100
0000
,
1001
0000
0000
0000
1001
0000
0001
1000
0010
0100
0010
0000
0000
0000
0100
0000
,
1001
0001
0101
0100
0010
1000
1010
1000
,
0001
0010
0011
0001
1000
0100
1100
1000
,
0001
0100
0001
0100
0010
1000
0001
0100
0010
1000
0001
0010
0100
1000
0001
0010
,
0001
1000
0100
1000
0001
0010
0100
1000
0001
0100
0001
0100
0020
0000
0000
0000
,
1030
0001
0100
0001
0010
0001
1000
0001
0010
0001
1000
0100
1000
0100
0010
0001
,
1000
0100
1000
0100
0010
0001
0100
0001
0010
0001
1000
0010
0100
0001
0100
0010
,
1000
0001
0010
0001
0100
0001
1000
0001
0100
0001
1000
0010
1000
0010
0100
0001
,
1000
0010
1000
0010
0100
0001
0010
0001
0100
0001
1000
0100
0010
0001
0010
0100
,
1000
0001
0100
0001
0010
0001
1000
0001
0010
0001
1000
0100
1000
0100
0010
0001
,
1000
0100
1000
0100
0010
0001
0100
0001
0010
0001
1000
0010
0100
0001
0100
0010
,
1000
0001
0010
0001
0100
0001
1000
0001
0100
0001
1000
0010
1000
0010
0100
0001
,
1000
0010
1000
0010
0100
0001
0010
0001
0100
0001
1000
0100
0010
0001
0010
0100
,
1000
0001
0100
0001
0010
0001
1000
0001
0010
0001
1000
0100
1000
0100
0010
0001
,
1000
0100
1000
0100
0010
0001
0100
0001
0010
0001
1000
0010
0100
0001
0100
0010
,
1000
0001
0010
0001
0100
0001
1000
0001
0100
0001
1000
0010
1000
0010
0100
0001
,
1000
0010
1000
0010
0100
0001
0010
0001
0100
0001
1000
0100
0010
0001
0010
0100
,
1000
0001
0100
0001
0010
0001
1000
0001
0010
0001
1000
0100
1000
0100
0010
0001
,
1000
0100
1000
0100
0010
0001
0100
0001
0010
0001
1000
0010
0100
0001
0100
0010
,
1000
0001
0010
0001
0100
0001
1000
0001
0100
0001
1000
0010
1000
0010
0100
0001
,
0020
M00M
0230
M00M
0320
M00M
0030
0000
,
0001
0010
0100
1000
0010
0100
0001
0010
0100
1000
0010
0100
0001
0010
0100
1000
,
0010
0100
0001
0010
0100
1000
0010
0100
0001
0100
0010
1000
0100
0010
0001
0100
,
0001
1000
0010
0100
0001
0010
0100
1000
0010
0100
0001
0010
0100
1000
0010
0100
,
0001
1000
0100
0010
0001
0100
0010
1000
0010
0100
0001
0010
0100
1000
0010
0100
,
0001
0100
0010
1000
0100
0010
0001
0100
0010
1000
0100
0010
0001
0100
0010
1000
,
0100
0010
0001
0100
0010
1000
0100
0010
0001
0010
0100
1000
0010
0100
0001
0010
,
0001
1000
0100
0010
0001
0100
0010
1000
0100
0010
0001
0100
0010
1000
0100
0010
,
0001
1000
0010
0100
0001
0010
0100
1000
0010
0100
0010
1000
0100
1000
0010
0100
,
0001
0010
0100
1000
0010
0100
0001
0010
0100
1000
0010
0100
0001
0010
0100
1000
,
0010
0100
0001
0010
0100
1000
0010
0100
0001
0100
0010
1000
0100
0010
0001
0100
,
0001
1000
0010
0100
0001
0010
0100
1000
0010
0100
0001
0010
0100
1000
0010
0100
,
0001
1000
0100
0010
0001
0100
0010
1000
0010
0100
0001
0010
0100
1000
0010
0100
,
0001
0100
0010
1000
0100
0010
0001
0100
0010
1000
0100
0010
0001
0100
0010
1000
,
0100
0010
0001
0100
0010
1000
0100
0010
0001
0010
0100
1000
0010
0100
0001
0000
,
1MM1
0000
0000
0000
0000
0000
0000
0000
0002
0000
0000
0000
0000
0000
0000
0003
0020
0000
0000
0000
0000
0000
0000
0030
0020
0000
0000
0000
0000
0000
0000
0030
0200
0000
0000
0000
0000
0000
0000
0300
0200
0000
0000
0000
0000
0000
0000
0300
0020
0000
0000
0000
0000
0000
0000
0030
0020
0000
0000
0000
0000
0000
0000
0030
,
0001
0100
0010
0000
1000
0000
0010
0100
0001
0000
1000
0010
1000
0010
0100
0000
,
0010
1000
0001
0000
0100
0000
0001
1000
0010
0000
0100
0001
0100
0001
1000
0000
,
0100
0010
0001
0000
1000
0000
0001
0010
0100
0000
0010
0001
0010
0001
1000
0000
,
0001
0100
0001
0000
1000
0000
0001
0100
0001
1000
0100
0010
0001
1000
0010
1000
,
0001
0010
0100
0000
1000
0000
0100
0010
0001
0000
1000
0100
1000
0100
0010
0000
,
0100
1000
0001
0000
0010
0000
0001
1000
0100
0000
0010
0100
0010
0100
1000
0000
,
0010
0100
0001
0000
1000
0000
0001
0100
0010
0000
1000
0001
1000
0001
0010
0000
,
0100
1000
0100
0000
0010
0000
0100
1000
0100
0010
0001
1000
0001
0100
0010
1000
,
0001
0100
0010
0000
1000
0000
0010
0100
0001
0000
0010
0001
0010
0001
1000
0000
,
0100
1000
0001
0000
0010
0000
0001
1000
0100
0000
1000
0010
1000
0010
0100
0000
,
0001
0010
0100
0000
1000
0000
0100
0010
0001
0000
0010
0100
0010
0100
1000
0000
,
0001
0010
0001
0000
1000
0000
0001
0010
0001
1000
0010
0100
0001
1000
0100
1000
,
0001
0100
0010
0000
1000
0000
0010
0100
0001
0000
1000
0100
1000
0100
0010
0000
,
0001
1000
0100
0000
0010
0000
0100
1000
0001
0000
0100
0010
0100
0010
1000
0000
,
0010
0100
0001
0000
1000
0000
0001
0100
0010
0000
1000
0001
1000
0001
0010
0000
,
1001
0000
0000
0MM0
0000
0000
0MM0
0000
0MM0
0000
0000
0MM0
0000
0000
0MM0
0000
,
0001
1000
0100
1000
0010
1000
0001
1000
0010
1000
0001
0100
0001
0100
0010
1000
,
0001
0100
0001
0100
0010
1000
0100
1000
0010
1000
0001
0010
0100
1000
0100
0010
,
0001
1000
0010
1000
0100
1000
0001
1000
0100
1000
0001
0010
0001
0010
0100
1000
,
0001
0010
0001
0010
0100
1000
0010
1000
0100
1000
0001
0100
0010
1000
0010
0100
,
0001
1000
0100
1000
0010
1000
0001
1000
0010
1000
0001
0100
0001
0100
0010
1000
,
0001
0100
0001
0100
0010
1000
0100
1000
0010
1000
0001
0010
0100
1000
0100
0010
,
0001
1000
0010
1000
0100
1000
0001
1000
0100
1000
0001
0010
0001
0010
0100
1000
,
0001
0010
0001
0010
0100
1000
0010
1000
0100
1000
0001
0100
0010
1000
0010
0100
,
0001
1000
0100
1000
0010
1000
0001
1000
0010
1000
0001
0100
0001
0100
0010
1000
,
0001
0100
0001
0100
0010
1000
0100
1000
0010
1000
0001
0010
0100
1000
0100
0010
,
0001
1000
0010
1000
0100
1000
0001
1000
0100
1000
0001
0010
0001
0010
0100
1000
,
0001
0010
0001
0010
0100
1000
0010
1000
0100
1000
0001
0100
0010
1000
0010
0100
,
0001
1000
0100
1000
0010
1000
0001
1000
0010
1000
0001
0100
0001
0100
0010
1000
,
0001
0100
0001
0100
0010
1000
0100
1000
0010
1000
0001
0010
0100
1000
0100
0010
,
0001
1000
0010
1000
0100
1000
0001
1000
0100
1000
0001
0010
0001
0010
0100
1000
,
0020
M00M
0230
M00M
0320
M00M
0030
0000
,
1000
0100
0010
0001
0100
0010
1000
0100
0010
0001
0100
0010
1000
0100
0010
0001
,
0100
0010
1000
0100
0010
0001
0100
0010
1000
0010
0100
0001
0010
0100
1000
0010
,
1000
0001
0100
0010
1000
0100
0010
0001
0100
0010
1000
0100
0010
0001
0100
0010
,
1000
0001
0010
0100
1000
0010
0100
0001
0100
0010
1000
0100
0010
0001
0100
0010
,
1000
0010
0100
0001
0010
0100
1000
0010
0100
0001
0010
0100
1000
0010
0100
0001
,
0010
0100
1000
0010
0100
0001
0010
0100
1000
0100
0010
0001
0100
0010
1000
0100
,
1000
0001
0010
0100
1000
0010
0100
0001
0010
0100
1000
0010
0100
0001
0010
0100
,
1000
0001
0100
0010
1000
0100
0010
0001
0100
0010
0100
0001
0010
0001
0100
0010
,
1000
0100
0010
0001
0100
0010
1000
0100
0010
0001
0100
0010
1000
0100
0010
0001
,
0100
0010
1000
0100
0010
0001
0100
0010
1000
0010
0100
0001
0010
0100
1000
0010
,
1000
0001
0100
0010
1000
0100
0010
0001
0100
0010
1000
0100
0010
0001
0100
0010
,
1000
0001
0010
0100
1000
0010
0100
0001
0100
0010
1000
0100
0010
0001
0100
0010
,
1000
0010
0100
0001
0010
0100
1000
0010
0100
0001
0010
0100
1000
0010
0100
0001
,
0010
0100
1000
0010
0100
0001
0010
0100
1000
0100
0010
0001
0100
0010
1000
0000
,
1MM1
0000
0000
0000
0000
0000
0000
0000
2000
0000
0000
0000
0000
0000
0000
3000
0200
0000
0000
0000
0000
0000
0000
0300
0200
0000
0000
0000
0000
0000
0000
0300
0020
0000
0000
0000
0000
0000
0000
0030
0020
0000
0000
0000
0000
0000
0000
0030
0200
0000
0000
0000
0000
0000
0000
0300
0200
0000
0000
0000
0000
0000
0000
0300
,
1000
0010
0100
0000
0001
0000
0100
0010
1000
0000
0001
0100
0001
0100
0010
0000
,
0100
0001
1000
0000
0010
0000
1000
0001
0100
0000
0010
1000
0010
1000
0001
0000
,
0010
0100
1000
0000
0001
0000
1000
0100
0010
0000
0100
1000
0100
1000
0001
0000
,
1000
0010
1000
0000
0001
0000
1000
0010
1000
0001
0010
0100
1000
0001
0100
0001
,
1000
0100
0010
0000
0001
0000
0010
0100
1000
0000
0001
0010
0001
0010
0100
0000
,
0010
0001
1000
0000
0100
0000
1000
0001
0010
0000
0100
0010
0100
0010
0001
0000
,
0100
0010
1000
0000
0001
0000
1000
0010
0100
0000
0001
1000
0001
1000
0100
0000
,
0010
0001
0010
0000
0100
0000
0010
0001
0010
0100
1000
0001
1000
0010
0100
0001
,
1000
0010
0100
0000
0001
0000
0100
0010
1000
0000
0100
1000
0100
1000
0001
0000
,
0010
0001
1000
0000
0100
0000
1000
0001
0010
0000
0001
0100
0001
0100
0010
0000
,
1000
0100
0010
0000
0001
0000
0010
0100
1000
0000
0100
0010
0100
0010
0001
0000
,
1000
0100
1000
0000
0001
0000
1000
0100
1000
0001
0100
0010
1000
0001
0010
0001
,
1000
0010
0100
0000
0001
0000
0100
0010
1000
0000
0001
0010
0001
0010
0100
0000
,
1000
0001
0010
0000
0100
0000
0010
0001
1000
0000
0010
0100
0010
0100
0001
0000
,
0100
0010
1000
0000
0001
0000
1000
0010
0100
0000
0001
1000
0001
1000
0100
0000
,
1001
0000
0000
0MM0
0000
0000
0MM0
0000
0MM0
0000
0000
0MM0
0000
0000
0MM0
0000
,
MMMM
0000
0000
0000
,
2000
0000
0000
0000
0000
0000
0000
0000
0000
3000
0001
1000
0010
1000
0100
1000
,
0002
0000
0000
0000
0000
0000
0000
0003
,
0020
0000
0000
0000
0000
0000
0000
0000
0000
0000
0000
0030
0020
0000
0000
0000
0000
0000
0000
0000
0000
0000
0000
0030
0001
0000
0000
0000
2000
0000
0000
0000
0000
0000
0000
3000
0010
0000
0000
0000
0100
0000
0000
0000
0002
0000
0000
0000
0000
0000
0000
0003
0001
0000
0000
0000
1000
0000
0000
0000
0000
0000
0000
0000
,
1MM1
0000
0000
0000
0000
0000
0000
0100
,
1001
0000
0000
0000
0000
0000
0000
0100
,
1001
0000
0000
0000
0000
0000
0000
0100
,
1001
0000
0000
0000
0000
0000
0000
0100
,
1001
0001
0101
0100
0010
1000
1010
1000
,
0001
0010
0011
0001
1000
0100
1100
1000
,
0001
0100
0001
0100
0010
1000
0001
0100
0010
1000
0001
0010
0100
1000
0001
0010
,
0001
1000
0100
1000
0001
0010
0100
1000
0001
0100
0001
0100
0020
0000
0000
0000
,
1030
0001
0100
0001
0010
0001
1000
0001
0010
0001
1000
0100
1000
0100
0010
0001
,
1000
0100
1000
0100
0010
0001
0100
0001
0010
0001
1000
0010
0100
0001
0100
0010
,
1000
0001
0010
0001
0100
0001
1000
0001
0100
0001
1000
0010
1000
0010
0100
0001
,
1000
0010
1000
0010
0100
0001
0010
0001
0100
0001
1000
0100
0010
0001
0010
0100
,
1000
0001
0100
0001
0010
0001
1000
0001
0010
0001
1000
0100
1000
0100
0010
0001
,
1000
0100
1000
0100
0010
0001
0100
0001
0010
0001
1000
0010
0100
0001
0100
0010
,
1000
0001
0010
0001
0100
0001
1000
0001
0100
0001
1000
0010
1000
0010
0100
0001
,
1000
0010
1000
0010
0100
0001
0010
0001
0100
0001
1000
0100
0010
0001
0010
0100
,
1000
0001
0100
0001
0010
0001
1000
0001
0010
0001
1000
0100
1000
0100
0010
0001
,
1000
0100
1000
0100
0010
0001
0100
0001
0010
0001
1000
0010
0100
0001
0100
0010
,
1000
0001
0010
0001
0100
0001
1000
0001
0100
0001
1000
0010
1000
0010
0100
0001
,
1000
0010
1000
0010
0100
0001
0010
0001
0100
0001
1000
0100
0010
0001
0010
0100
,
1000
0001
0100
0001
0010
0001
1000
0001
0010
0001
1000
0100
1000
0100
0010
0001
,
1000
0100
1000
0100
0010
0001
0100
0001
0010
0001
1000
0010
0100
0001
0100
0010
,
1000
0001
0010
0001
0100
0001
1000
0001
0100
0001
1000
0010
1000
0010
0100
0001
,
0020
M00M
0230
M00M
0320
M00M
0030
0000
,
0001
0100
0010
1000
0100
0010
0001
0100
0010
1000
0100
0010
0001
0100
0010
1000
,
0100
0010
0001
0100
0010
1000
0100
0010
0001
0010
0100
1000
0010
0100
0001
0010
,
0001
1000
0100
0010
0001
0100
0010
1000
0100
0010
0001
0100
0010
1000
0100
0010
,
0001
1000
0010
0100
0001
0010
0100
1000
0100
0010
0001
0100
0010
1000
0100
0010
,
0001
0010
0100
1000
0010
0100
0001
0010
0100
1000
0010
0100
0001
0010
0100
1000
,
0010
0100
0001
0010
0100
1000
0010
0100
0001
0100
0010
1000
0100
0010
0001
0100
,
0001
1000
0010
0100
0001
0010
0100
1000
0010
0100
0001
0010
0100
1000
0010
0100
,
0001
1000
0100
0010
0001
0100
0010
1000
0100
0010
0100
1000
0010
1000
0100
0010
,
0001
0100
0010
1000
0100
0010
0001
0100
0010
1000
0100
0010
0001
0100
0010
1000
,
0100
0010
0001
0100
0010
1000
0100
0010
0001
0010
0100
1000
0010
0100
0001
0010
,
0001
1000
0100
0010
0001
0100
0010
1000
0100
0010
0001
0100
0010
1000
0100
0010
,
0001
1000
0010
0100
0001
0010
0100
1000
0100
0010
0001
0100
0010
1000
0100
0010
,
0001
0010
0100
1000
0010
0100
0001
0010
0100
1000
0010
0100
0001
0010
0100
1000
,
0010
0100
0001
0010
0100
1000
0010
0100
0001
0100
0010
1000
0100
0010
0001
0000
,
1MM1
0000
0000
0000
0000
0000
0000
0000
0002
0000
0000
0000
0000
0000
0000
0003
0020
0000
0000
0000
0000
0000
0000
0030
0020
0000
0000
0000
0000
0000
0000
0030
0200
0000
0000
0000
0000
0000
0000
0300
0200
0000
0000
0000
0000
0000
0000
0300
0020
0000
0000
0000
0000
0000
0000
0030
0020
0000
0000
0000
0000
0000
0000
0030
,
0001
0010
0100
0000
1000
0000
0100
0010
0001
0000
1000
0100
1000
0100
0010
0000
,
0100
1000
0001
0000
0010
0000
0001
1000
0100
0000
0010
0001
0010
0001
1000
0000
,
0010
0100
0001
0000
1000
0000
0001
0100
0010
0000
0100
0001
0100
0001
1000
0000
,
0001
0010
0001
0000
1000
0000
0001
0010
0001
1000
0010
0100
0001
1000
0100
1000
,
0001
0100
0010
0000
1000
0000
0010
0100
0001
0000
1000
0010
1000
0010
0100
0000
,
0010
1000
0001
0000
0100
0000
0001
1000
0010
0000
0100
0010
0100
0010
1000
0000
,
0100
0010
0001
0000
1000
0000
0001
0010
0100
0000
1000
0001
1000
0001
0100
0000
,
0010
1000
0010
0000
0100
0000
0010
1000
0010
0100
0001
1000
0001
0010
0100
1000
,
0001
0010
0100
0000
1000
0000
0100
0010
0001
0000
0100
0001
0100
0001
1000
0000
,
0010
1000
0001
0000
0100
0000
0001
1000
0010
0000
1000
0100
1000
0100
0010
0000
,
0001
0100
0010
0000
1000
0000
0010
0100
0001
0000
0100
0010
0100
0010
1000
0000
,
0001
0100
0001
0000
1000
0000
0001
0100
0001
1000
0100
0010
0001
1000
0010
1000
,
0001
0010
0100
0000
1000
0000
0100
0010
0001
0000
1000
0010
1000
0010
0100
0000
,
0001
1000
0010
0000
0100
0000
0010
1000
0001
0000
0010
0100
0010
0100
1000
0000
,
0100
0010
0001
0000
1000
0000
0001
0010
0100
0000
1000
0001
1000
0001
0100
0000
,
1001
0000
0000
0MM0
0000
0000
0MM0
0000
0MM0
0000
0000
0MM0
0000
0000
0MM0
0000
,
1000
0001
0010
0001
0100
0001
1000
0001
0100
0001
1000
0010
1000
0010
0100
0001
,
1000
0010
1000
0010
0100
0001
0010
0001
0100
0001
1000
0100
0010
0001
0010
0100
,
1000
0001
0100
0001
0010
0001
1000
0001
0010
0001
1000
0100
1000
0100
0010
0001
,
1000
0100
1000
0100
0010
0001
0100
0001
0010
0001
1000
0010
0100
0001
0100
0010
,
1000
0001
0010
0001
0100
0001
1000
0001
0100
0001
1000
0010
1000
0010
0100
0001
,
1000
0010
1000
0010
0100
0001
0010
0001
0100
0001
1000
0100
0010
0001
0010
0100
,
1000
0001
0100
0001
0010
0001
1000
0001
0010
0001
1000
0100
1000
0100
0010
0001
,
1000
0100
1000
0100
0010
0001
0100
0001
0010
0001
1000
0010
0100
0001
0100
0010
,
1000
0001
0010
0001
0100
0001
1000
0001
0100
0001
1000
0010
1000
0010
0100
0001
,
1000
0010
1000
0010
0100
0001
0010
0001
0100
0001
1000
0100
0010
0001
0010
0100
,
1000
0001
0100
0001
0010
0001
1000
0001
0010
0001
1000
0100
1000
0100
0010
0001
,
1000
0100
1000
0100
0010
0001
0100
0001
0010
0001
1000
0010
0100
0001
0100
0010
,
1000
0001
0010
0001
0100
0001
1000
0001
0100
0001
1000
0010
1000
0010
0100
0001
,
1000
0010
1000
0010
0100
0001
0010
0001
0100
0001
1000
0100
0010
0001
0010
0100
,
1000
0001
0100
0001
0010
0001
1000
0001
0010
0001
1000
0100
1000
0100
0010
0000
,
1001
0000
0000
0MM0
0000
0000
0MM0
0000
0MM0
0000
0000
0MM0
0000
0000
0MM0
0000
,
MMMM
0000
M000
0M00
00M0
000M
0000
M000
0000
0000
000M
00M0
0M00
M000
000M
0000
,
0000
0000
000M
00M0
0M00
M000
0000
000M
0000
0000
M000
0M00
00M0
000M
M000
0000
,
0000
0000
M000
0M00
00M0
000M
0000
M000
0000
0000
000M
00M0
0M00
M000
000M
0000
,
0000
0000
000M
00M0
0M00
M000
0000
000M
0000
0000
M000
0M00
00M0
000M
M000
0000
;
