#TITLE:Hamatte Sabotte Oh My God!;
#SUBTITLE:;
#ARTIST:Aya Hirano & Emiri Katou & Kaori Fukuharai & Ayu Endou;
#TITLETRANSLIT:;
#SUBTITLETRANSLIT:;
#ARTISTTRANSLIT:;
#CREDIT:;
#BANNER:../Zeppelin_bn.png;
#BACKGROUND:../bg_Zeppelin.png;
#LYRICSPATH:;
#CDTITLE:../cdtitle_ZAiA.png;
#MUSIC:Hamatte Sabotte Oh My God!.ogg;
#OFFSET:0.726;
#SAMPLESTART:62.300;
#SAMPLELENGTH:24.100;
#SELECTABLE:YES;
#BPMS:0.000=158.000;
#STOPS:;
#BGCHANGES:;
// cache tags:
#FIRSTBEAT:4.000;
#LASTBEAT:280.000;
#SONGFILENAME:Songs/Cirque du Zeppelin/Hamatte Sabotte Oh My God! - [Zaia]/Hamatte Sabotte Oh My God!.sm;
#HASMUSIC:1;
#HASBANNER:1;
#MUSICLENGTH:110.425;
// end cache tags

//---------------dance-single - 8/32----------------
#NOTES:
     dance-single:
     8/32:
     Challenge:
     13:
     1.000,1.000,0.163,0.018,1.000,875.000,18.000,2.000,0.000,0.000:
0000
0000
0000
0000
,
1001
0000
0100
0100
1001
0000
0001
1000
,
0000
0001
0010
0001
0100
0010
1000
0001
,
0110
1000
0001
0100
1001
0001
0010
0100
,
0000
0000
1000
0000
0001
0100
0010
0100
0001
0000
0010
0000
0100
0000
1000
0000
,
1001
0001
0100
0010
0110
0001
1000
0100
,
0000
0000
0010
0000
0100
0000
1000
0001
0100
0000
0010
0000
1000
0000
0001
0000
,
0010
0000
0001
0100
0001
0000
0010
0000
0100
1000
0100
0000
1000
0010
0000
0100
,
0001
1000
0000
0001
0010
0100
0000
1000
0001
0000
0010
0000
0001
0000
1000
0000
,
0001
0100
0010
1000
0001
0010
0100
0010
0001
0100
0010
1000
0100
1000
0010
0100
,
0001
1000
0100
0010
0100
1000
0001
1000
0010
0100
0001
1000
0001
0010
0100
1000
,
0010
1000
0001
0010
0001
1000
0010
0100
0010
1000
0100
0010
0001
1000
0001
0100
,
0010
0100
0001
0010
0001
1000
0010
1000
0100
0010
0001
1000
0001
0010
0100
1000
,
0010
0100
0001
1000
0100
0010
0100
1000
0010
0100
0001
0010
0001
0100
0010
1000
,
0001
0010
0100
0010
0001
1000
0001
0100
0010
1000
0001
1000
0100
0010
0001
0100
,
0001
1000
0100
1000
0001
0100
0010
0100
0001
0010
0100
1000
0001
1000
0010
0100
,
0010
1000
0100
1000
0001
0100
0010
1000
0001
0010
0100
1000
0010
0100
0001
1000
,
0100
0000
0010
0100
0010
0000
0001
0010
0001
0000
1000
0000
0000
0000
0010
0000
,
0100
0000
0001
1000
0010
0000
0100
0010
1000
0100
0010
0000
0000
0000
0001
0000
,
0000
0000
1000
0010
0100
0000
0001
1000
0100
0000
0010
0000
0000
0000
0100
0000
,
0000
0000
1000
0000
0001
0000
0100
0010
0100
0000
0001
0000
1000
0000
0100
0010
,
0001
1000
0100
0000
1100
0000
0000
0000
,
0000
0000
1000
0000
0001
0000
0100
0010
1000
0000
0001
0000
0010
0000
0000
0000
,
0001
1000
0010
0000
0000
0000
0000
0000
,
0000
0000
0000
0000
0000
4000
0000
0000
,
3001
0100
0001
1000
0010
1000
0100
0010
0001
1000
0001
0100
0010
0100
0001
1000
,
0001
0010
0100
1000
0001
0010
0001
1000
0001
0100
0010
0100
0001
1000
0100
0010
,
0100
1000
0010
0100
0010
1000
0001
0010
0001
0100
0010
0100
0001
1000
0001
0010
,
0001
1000
0010
0100
0010
1000
0001
0010
0001
1000
0010
1000
0001
0100
0001
0010
,
0001
1000
0100
0010
0100
1000
0001
1000
0010
0100
0001
1000
0100
1000
0001
0010
,
0100
1000
0010
1000
0001
0100
0010
1000
0100
0010
0100
1000
0001
1000
0010
0100
,
0010
1000
0001
0010
0100
1000
0001
1000
0010
1000
0100
0010
0001
1000
0001
0100
,
0010
1000
0100
1000
0010
0100
0001
1000
0001
0010
0001
0100
0010
1000
0001
0010
,
0100
1000
0001
1000
0010
1000
0001
0100
0001
1000
0100
0010
0100
1000
0001
1000
,
0010
0100
0001
1000
0001
0010
0100
1000
0001
0100
0010
0100
0001
0100
0001
1000
,
0100
1000
0001
0100
0010
0100
0001
0010
0001
1000
0100
1000
0001
0100
0010
1000
,
0001
0010
0100
0010
0001
1000
0010
1000
0001
0010
0100
1000
0100
1000
0010
0100
,
0001
0010
0001
0010
0100
1000
0001
0010
0001
1000
0010
0100
0010
1000
0001
1000
,
0100
0010
0001
1000
0001
0100
0010
1000
0001
0010
0100
0010
0001
0010
0001
1000
,
0010
1000
0001
0010
0100
0010
0001
0100
0001
1000
0010
1000
0001
0010
0100
1000
,
0001
0100
0010
0100
0001
1000
0100
1000
0001
0100
0010
1000
0010
1000
0100
0010
,
0001
0100
0010
1000
0001
1000
0001
0010
0100
1000
0010
0100
0001
0100
0010
1000
,
0001
0010
0100
1000
0001
0100
0010
1000
0100
1000
0001
0100
0010
1000
0010
0100
,
0001
0100
0010
1000
0100
1000
0001
0100
0010
0100
0001
1000
0100
0010
0001
1000
,
0010
0100
0001
0010
0100
1000
0001
1000
0100
1000
0001
0100
0010
0100
0001
1000
,
0001
0010
0001
1000
0100
0010
0100
1000
0001
1000
0010
0100
0001
1000
0001
1000
,
0100
0010
0001
1000
0010
0100
0001
0010
0001
1000
0010
0100
0001
0100
0010
1000
,
0010
0100
0001
0010
0001
1000
0010
0100
0010
1000
0001
0010
0100
1000
0001
0100
,
0001
0010
0001
1000
0100
0010
0001
1000
0001
0100
0001
1000
0100
0010
0100
1000
,
0010
0100
0001
0010
0100
1000
0001
1000
0001
0100
0010
1000
0001
0010
0100
1000
,
0001
0100
0010
1000
0001
0010
0100
1000
0010
1000
0001
0010
0100
1000
0100
0010
,
0001
0010
0100
1000
0010
1000
0001
0010
0100
0010
0001
1000
0010
0100
0001
1000
,
0100
0010
0001
0100
0010
1000
0001
1000
0010
1000
0001
0010
0100
0010
0001
1000
,
0001
0100
0001
1000
0010
0100
0010
1000
0001
1000
0100
0010
0001
0100
0010
1000
,
0001
0010
0001
0010
0100
0010
0100
0010
0001
0100
0010
0100
0001
1000
0001
0010
,
0100
0010
0001
1000
0001
0100
0010
1000
0001
0010
0100
1000
0001
1000
0010
0100
,
0010
1000
0001
0100
0001
1000
0100
0010
0001
0100
0001
1000
0010
1000
0100
0010
,
0001
1000
0100
1000
0100
0010
0001
1000
0001
0100
0010
0100
0001
1000
0100
0000
,
0010
0000
0010
0000
0001
1000
0001
0000
0100
0000
0010
0000
1010
0000
1000
0000
,
0000
0000
0001
0000
0010
0100
1000
0000
0001
0000
0100
0000
0001
0000
0010
0000
,
0001
0000
0001
0000
1000
0100
0010
0000
0100
0000
1000
0000
1001
0000
0001
0000
,
0000
0000
0100
0000
0010
1000
0001
1000
0100
0000
0010
0000
0100
0000
0100
0000
,
1001
1000
0001
0100
1001
0001
1000
0100
,
0000
1000
0010
0100
0001
0010
0001
0100
,
0110
0010
1000
0001
0110
1000
0001
0100
,
0000
0000
0010
0000
1000
0001
0010
0001
1000
0000
0010
0000
0100
0000
0001
0000
,
0011
0010
0100
1000
1010
0010
0100
0001
,
0000
0000
1000
0000
0100
0000
1000
0010
0100
0000
0001
0000
0010
0000
0100
0000
,
1000
0000
0010
1000
0010
0000
0100
0000
0001
0010
0001
0000
0100
0010
0000
1000
,
0001
0010
0000
0100
1000
0001
0000
0100
0010
0000
1010
0000
2002
0000
0000
0000
,
3003
0000
0000
0000
;

//---------------dance-single - 8/9----------------
#NOTES:
     dance-single:
     8/9:
     Hard:
     11:
     0.922,1.000,0.199,0.054,0.833,685.000,22.000,6.000,0.000,0.000:
0000
0000
0000
0000
,
1001
0000
0100
0100
1001
0000
0001
1000
,
0000
0001
0010
0001
0100
0010
1000
0001
,
0110
1000
0001
0100
1001
0001
0010
0100
,
0000
0000
1000
0000
0001
0100
0010
0100
0001
0000
0010
0000
0100
0000
1000
0000
,
1001
0001
0100
0010
0110
0001
1000
0100
,
0000
0000
0010
0000
0100
0000
1000
0001
0100
0000
0010
0000
1000
0000
0001
0000
,
0010
0000
0001
0100
0001
0000
0010
0000
0100
1000
0100
0000
1000
0010
0000
0100
,
0001
1000
0000
0001
0010
0100
0000
1000
0001
0000
0010
0000
0001
0000
1000
0000
,
0001
0100
0010
1000
0001
0010
0100
0010
0001
0100
0010
1000
0100
1000
0010
0100
,
0001
1000
0100
0010
0100
1000
0001
1000
0010
0100
0001
1000
0001
0010
0100
1000
,
0010
1000
0001
0010
0001
1000
0010
0100
0010
1000
0100
0010
0001
1000
0001
0100
,
0010
0100
0001
0010
0001
1000
0010
1000
0100
0010
0001
1000
0001
0010
0100
1000
,
0010
0100
0001
1000
0100
0010
0100
1000
0010
0100
0001
0010
0001
0100
0010
1000
,
0001
0010
0100
0010
0001
1000
0001
0100
0010
1000
0001
1000
0100
0010
0001
0100
,
0001
1000
0100
1000
0001
0100
0010
0100
0001
0010
0100
1000
0001
1000
0010
0100
,
0010
1000
0100
1000
0001
0100
0010
1000
0001
0010
0100
1000
0010
0100
0001
1000
,
0100
0000
0010
0100
0010
0000
0001
0010
0001
0000
1000
0000
0000
0000
0010
0000
,
0100
0000
0001
1000
0010
0000
0100
0010
1000
0100
0010
0000
0000
0000
0001
0000
,
0000
0000
1000
0010
0100
0000
0001
1000
0100
0000
0010
0000
0000
0000
0100
0000
,
0000
0000
1000
0000
0001
0000
0100
0010
0100
0000
0001
0000
1000
0000
0100
0010
,
0001
1000
0100
0000
1100
0000
0000
0000
,
0000
0000
1000
0000
0001
0000
0100
0010
1000
0000
0001
0000
0010
0000
0000
0000
,
0001
1000
0010
0000
0000
0000
0000
0000
,
0000
0000
0000
0000
0000
4000
0000
0000
,
3001
0000
1000
0100
0010
0000
0001
1000
0001
0000
0100
0000
0000
0000
0010
0000
,
1000
0000
0001
0010
0100
0000
1000
0001
0100
0001
0020
0000
0000
0000
0130
0000
,
0000
0000
1000
0010
1000
0000
0001
0010
0001
0000
2000
0000
0000
0000
3010
0000
,
0000
0000
0100
0000
0001
0000
1000
0001
0010
0000
0100
0000
1000
0000
0010
1000
,
0001
0100
0002
0000
0023
0000
0030
0000
,
0000
0000
0100
0000
1000
0000
0001
0100
0010
0000
1000
0000
0001
0000
0010
0000
,
0100
1000
0010
0100
0001
1000
0001
0010
,
0100
1000
0001
0100
0010
0100
1001
0010
,
1001
1000
0100
1000
0001
0100
0001
0010
,
0100
1000
0001
0100
0010
1000
0100
1000
,
0001
0100
0010
0100
0001
0010
0100
1000
,
0001
0100
0001
1000
0100
0010
1001
0100
,
1001
0001
0010
0100
1000
0001
0100
0010
,
0100
0001
1000
0100
1000
0010
0100
0001
,
1000
0001
0010
0100
0010
0001
0100
0010
,
1000
0001
0010
0100
0010
0001
1000
0001
,
1000
0010
0100
0001
1000
0001
1000
0100
0010
0001
0100
0010
1000
0010
0100
0001
,
1000
0100
0010
0001
1000
0010
0100
0001
0010
0001
1000
0010
0100
0001
0100
0010
,
1000
0010
0100
0001
0010
0001
1000
0010
0100
0010
1000
0001
0010
0100
1000
0001
,
0100
0010
1000
0100
0010
0001
1000
0001
0010
0001
1000
0010
0100
0010
1000
0001
,
1000
0100
1000
0001
0010
0100
0010
0001
1000
0001
0100
0010
1000
0001
1000
0001
,
0010
0100
1000
0001
0100
0010
1000
0100
1000
0001
0100
0010
1000
0010
0100
0001
,
0100
0010
1000
0100
1000
0001
0100
0010
0100
0001
1000
0100
0010
0001
1000
0010
,
1000
0100
1000
0001
0010
0100
1000
0001
1000
0010
1000
0001
0010
0100
0010
0001
,
0100
0010
1000
0100
0010
0001
1000
0001
1000
0010
0100
0001
1000
0100
0010
0001
,
1000
0100
1000
0010
1000
0001
0100
0001
,
0010
0001
1000
0100
0010
0001
1000
0010
,
0100
0001
1000
0010
1000
0001
0010
0100
,
0010
0001
1000
0100
1000
0001
0100
0010
,
0100
0001
1000
0001
0010
0100
1000
0001
,
0100
0001
0010
0100
1000
0010
1000
0001
,
0010
0001
0100
0010
1000
0100
0010
0100
,
1000
0000
0001
0000
0100
0000
0010
0000
0100
0000
0001
0000
1000
0001
0010
0000
,
0100
0000
0100
0000
1000
0001
1000
0000
0010
0000
0100
0000
0101
0000
0001
0000
,
0000
0000
1000
0000
0100
0010
0001
0000
1000
0000
0010
0000
1000
0000
0100
0000
,
1000
0000
1000
0000
0001
0010
0100
0000
0010
0000
0001
0000
1001
0000
1000
0000
,
0000
0000
0010
0000
0100
0001
1000
0001
0010
0000
0100
0000
0010
0000
0010
0000
,
1001
0001
1000
0010
1001
1000
0001
0010
,
0000
0001
0100
0010
1000
0100
1000
0010
,
0110
0100
0001
1000
0110
0001
1000
0010
,
0000
0000
0100
0000
0001
1000
0100
1000
0001
0000
0100
0000
0010
0000
1000
0000
,
1100
0100
0010
0001
0101
0100
0010
1000
,
0000
0000
0001
0000
0010
0000
0001
0100
0010
0000
1000
0000
0100
0000
0010
0000
,
0001
0000
0100
0001
0100
0000
0010
0000
1000
0100
1000
0000
0010
0100
0000
0001
,
1000
0100
0000
0010
0001
1000
0000
0010
0100
0000
0101
0000
2002
0000
0000
0000
,
3003
0000
0000
0000
;

//---------------dance-single - ----------------
#NOTES:
     dance-single:
     :
     Medium:
     9:
     0.750,0.761,0.208,0.054,0.235,551.000,23.000,6.000,0.000,0.000:
0000
0000
0000
0000
,
1001
0000
0100
0100
1001
0000
0001
1000
,
0000
0001
0010
0001
0100
0010
1000
0001
,
0110
1000
0001
0100
1001
0001
0010
0100
,
0000
0000
1000
0000
0001
0100
0010
0100
0001
0000
0010
0000
0100
0000
1000
0000
,
1001
0001
0100
0010
0110
0001
1000
0100
,
0000
0000
0010
0000
0100
0000
1000
0001
0100
0000
0010
0000
1000
0000
0001
0000
,
0010
0000
0001
0100
0001
0000
0010
0000
0100
1000
0100
0000
1000
0010
0000
0100
,
0001
1000
0000
0001
0010
0100
0000
1000
0001
0000
0010
0000
0001
0000
1000
0000
,
0001
0100
0010
0100
0001
0010
0001
1000
,
0100
1000
0010
1000
0001
0010
0100
1000
,
0001
1000
0010
0100
0001
1000
0100
0010
,
0100
1000
0010
1000
0001
0010
0001
0100
,
0010
0100
0001
1000
0100
0010
0100
0010
,
0001
1000
0010
0100
0001
1000
0001
0010
,
0100
0010
0001
1000
0010
0100
0010
1000
,
0001
0100
0010
1000
0001
0010
0001
1000
,
0100
0000
0010
0100
0010
0000
0001
0010
0001
0000
1000
0000
0000
0000
0010
0000
,
0100
0000
0001
1000
0010
0000
0100
0010
1000
0100
0010
0000
0000
0000
0001
0000
,
0000
0000
1000
0010
0100
0000
0001
1000
0100
0000
0010
0000
0000
0000
0100
0000
,
0000
0000
1000
0000
0001
0000
0100
0010
0100
0000
0001
0000
1000
0000
0100
0010
,
0001
1000
0100
0000
1100
0000
0000
0000
,
0000
0000
1000
0000
0001
0000
0100
0010
1000
0000
0001
0000
0010
0000
0000
0000
,
0001
1000
0010
0000
0000
0000
0000
0000
,
0000
0000
0000
0000
0000
4000
0000
0000
,
3001
0000
1000
0100
0010
0000
0001
1000
0001
0000
0100
0000
0000
0000
0010
0000
,
1000
0000
0001
0010
0100
0000
1000
0001
0100
0001
0020
0000
0000
0000
0130
0000
,
0000
0000
1000
0010
1000
0000
0001
0010
0001
0000
2000
0000
0000
0000
3010
0000
,
0000
0000
0100
0000
0001
0000
1000
0001
0010
0000
0100
0000
1000
0000
0010
1000
,
0001
0100
0002
0000
0023
0000
0030
0000
,
0000
0000
0100
0000
1000
0000
0001
0100
0010
0000
1000
0000
0001
0000
0010
0000
,
0100
1000
0010
0100
0001
1000
0001
0010
,
0100
1000
0001
0100
0010
0100
1001
0010
,
1001
1000
0100
1000
0001
0100
0001
0010
,
0100
1000
0001
0100
0010
1000
0100
1000
,
0001
0100
0010
0100
0001
0010
0100
1000
,
0001
0100
0001
1000
0100
0010
1001
0100
,
1001
0001
0010
0100
1000
0001
0100
0010
,
0100
0001
1000
0100
1000
0010
0100
0001
,
1000
0001
0010
0100
0010
0001
0100
0010
,
1000
0001
0010
0100
0010
0001
1000
0001
,
1000
0010
1000
0000
0001
0010
0001
0000
1000
0100
1000
0000
0001
0100
0001
0000
,
1000
1000
0001
0010
0010
0100
1000
1000
,
0010
0100
0100
0001
0010
0001
0100
0010
,
1000
0100
0010
0100
1000
0001
0100
0010
,
1000
0100
1000
0010
0100
0001
0010
0100
,
1000
1000
0001
0100
0100
0010
1000
1000
,
0100
0010
0010
0001
0100
0001
0010
0100
,
1000
0001
1000
0100
1000
0001
1000
0010
,
1000
0001
1000
0100
0010
0000
1001
0000
,
1000
0100
1000
0010
1000
0001
0100
0001
,
0010
0001
1000
0100
0010
0001
1000
0010
,
0100
0001
1000
0010
1000
0001
0010
0100
,
0010
0001
1000
0100
1000
0001
0100
0010
,
0100
0001
1000
0001
0010
0100
1000
0001
,
0100
0001
0010
0100
1000
0010
1000
0001
,
0010
0001
0100
0010
1000
0100
0010
0100
,
1000
0000
0001
0000
0100
0000
0010
0000
0100
0000
0001
0000
1000
0001
0010
0000
,
0100
0000
0100
0000
1000
0001
1000
0000
0010
0000
0100
0000
0101
0000
0001
0000
,
0000
0000
1000
0000
0100
0010
0001
0000
1000
0000
0010
0000
1000
0000
0100
0000
,
1000
0000
1000
0000
0001
0010
0100
0000
0010
0000
0001
0000
1001
0000
1000
0000
,
0000
0000
0010
0000
0100
0001
1000
0001
0010
0000
0100
0000
0010
0000
0010
0000
,
1001
0001
1000
0010
1001
1000
0001
0010
,
0000
0001
0100
0010
1000
0100
1000
0010
,
0110
0100
0001
1000
0110
0001
1000
0010
,
0000
0000
0100
0000
0001
1000
0100
1000
0001
0000
0100
0000
0010
0000
1000
0000
,
1100
0100
0010
0001
0101
0100
0010
1000
,
0000
0000
0001
0000
0010
0000
0001
0100
0010
0000
1000
0000
0100
0000
0010
0000
,
0001
0000
0100
0001
0100
0000
0010
0000
1000
0100
1000
0000
0010
0100
0000
0001
,
1000
0100
0000
0010
0001
1000
0000
0010
0100
0000
0101
0000
2002
0000
0000
0000
,
3003
0000
0000
0000
;
