#TITLE:Fake Star;
#SUBTITLE:Oh Henry!;
#ARTIST:RoughSketch;
#TITLETRANSLIT:;
#SUBTITLETRANSLIT:;
#ARTISTTRANSLIT:;
#CREDIT:;
#BANNER:../Fallback-Ban.png;
#BACKGROUND:../Fallback-BG.png;
#LYRICSPATH:;
#CDTITLE:../~CDTitle-@@.png;
#MUSIC:RoughSketch - Fake Star.ogg;
#OFFSET:1.210;
#SAMPLESTART:117.578;
#SAMPLELENGTH:19.394;
#SELECTABLE:YES;
#BPMS:0.000=198.000;
#STOPS:;
#BGCHANGES:;
// cache tags:
#FIRSTBEAT:24.000;
#LASTBEAT:911.500;
#SONGFILENAME:Songs/Oh Henry! Mad Stamina/Fake Star (16-)/Fake Star.sm;
#HASMUSIC:1;
#HASBANNER:1;
#MUSICLENGTH:280.090;
// end cache tags

//---------------dance-single - @@----------------
#NOTES:
     dance-single:
     @@:
     Challenge:
     16:
     1.000,1.000,0.179,0.857,1.000,2608.000,50.000,240.000,1.000,0.000:
0000
0000
0000
0000
,
0000
0000
0000
0000
,
0000
0000
0000
0000
,
0000
0000
0000
0000
,
0000
0000
0000
0000
,
0000
0000
0000
0000
,
0001
1000
0100
1000
0001
0100
0001
1000
0001
0010
0100
1000
0001
0000
1000
0000
,
0010
0100
0001
1000
0100
0010
0100
1000
0001
0100
0010
0100
0001
0010
0000
0000
,
0100
1000
0001
0010
0001
1000
0010
0100
0001
1000
0100
0010
0100
0000
1000
0000
,
0001
0100
0010
1000
0001
0010
0001
1000
0010
1000
0001
0100
0001
0010
0000
0000
,
0100
1000
0001
1000
0010
0100
0001
1000
0100
0010
0100
1000
0001
0000
0001
0000
,
0100
0010
1000
0001
0010
0100
0010
0001
1000
0010
1000
0100
0010
0000
0000
0000
,
0100
1000
0001
1000
0010
0100
0001
1000
0100
0010
0100
1000
0001
0010
0001
0000
,
1000
0010
0100
0001
1000
0100
0010
0100
1000
0010
0100
0001
1000
0000
0000
0000
,
0100
1000
0001
1000
0010
0100
0010
1000
0001
0010
0100
0010
0001
0000
0001
0000
,
1000
0010
0100
0010
1000
0001
0010
0001
1000
0010
0100
0001
0010
0000
0000
0000
,
0100
0010
0001
1000
0010
1000
0001
0100
0001
1000
0100
0010
0001
0010
0100
0000
,
1000
0001
0100
0010
1000
0001
0010
0001
1000
0010
1000
0100
0010
0000
0000
0000
,
0001
1000
0010
1000
0001
0010
0001
1000
0010
0100
0001
1000
0010
1000
0001
0000
,
0010
0100
1000
0001
1000
0010
0100
0001
1000
0100
0010
0100
1000
0010
0000
0000
,
0100
0001
1000
0010
1000
0001
0010
0100
1000
0001
0100
0001
1000
0010
1000
0000
,
0001
0010
0100
0010
0001
1000
0010
1000
0001
0010
0001
0100
0010
0000
0000
0000
,
1000
0100
0010
0100
1000
0001
0100
0010
1000
0001
0010
0001
1000
0100
1000
0000
,
0001
0100
0010
0100
0001
1000
0100
0010
0001
1000
0010
1000
0100
0010
0000
0000
,
0100
1000
0001
0010
0001
1000
0010
1000
0001
0010
0100
1000
0001
0100
0001
0000
,
1000
0100
0010
0001
1000
0010
1000
0001
0010
0100
0010
0001
0100
0010
0100
0000
,
0001
1000
0001
0000
0010
0000
0100
0000
,
1000
0010
0100
0001
,
1000
0000
1000
0000
0010
0100
0001
1000
0010
1000
0100
0010
0001
0100
0010
1000
,
0001
0100
0001
0010
0100
1000
0010
1000
0001
0100
0010
1000
0100
0010
0001
0000
,
1000
0001
0100
0000
0010
0000
1000
1000
,
0001
0000
0100
0000
0010
0000
1000
1000
,
0001
0010
0100
1000
0010
0100
0001
0100
0010
1000
0100
0010
0100
1000
0001
0010
,
0001
0000
0000
0000
1000
0000
0000
0000
0010
0100
0001
1000
0100
0000
0000
0000
,
1000
0010
1000
0001
1000
0100
0010
0001
1000
0100
1000
0001
0100
0010
1000
0001
,
0100
0001
1000
0100
0010
0001
0010
0100
1000
0001
0100
0001
1000
0100
1000
0001
,
0100
0010
0100
0001
0010
0100
1000
0100
0010
0001
0100
0010
0100
0001
0010
0100
,
1000
0001
0100
0010
1000
0100
1000
0010
0100
0001
0100
0010
1000
0000
1000
0000
,
0001
0010
0001
1000
0001
0100
0010
1000
0001
0100
0001
1000
0100
0010
0100
1000
,
0001
0010
0001
1000
0010
1000
0001
0010
0100
1000
0001
0100
0001
1000
0010
1000
,
0001
0010
0001
0100
0010
1000
0010
0100
0001
0010
0001
0100
0010
1000
0100
0010
,
0001
0010
0100
1000
0001
0100
0010
1000
,
0001
0010
0001
1000
0001
0100
0010
1000
0001
0100
0001
1000
0100
0010
0001
1000
,
0100
1000
0001
0100
0010
1000
0010
0100
0001
1000
0100
1000
0001
0100
0001
1000
,
0100
0010
0100
1000
0010
0100
0001
0100
0010
1000
0100
0010
0100
1000
0010
0100
,
0001
1000
0100
0010
0001
0100
0001
0010
0100
1000
0100
0010
0001
1000
0001
0000
,
1000
0010
1000
0001
1000
0100
0010
0001
0010
0100
1000
0001
0100
0010
0100
0001
,
1000
0010
1000
0001
0010
0100
1000
0001
0100
0001
1000
0100
0010
0100
1000
0001
,
0100
0010
1000
0100
0010
0001
0100
0001
0010
0100
1000
0001
0100
0010
0100
0001
,
0010
0000
0000
0000
0001
0000
0000
0000
1000
0010
1000
0001
0010
0000
0000
0000
,
0100
1000
0001
1000
0010
0100
0001
0100
0010
1000
0001
1000
0100
0010
0001
0100
,
0010
1000
0001
0100
0001
0010
0100
1000
0010
0100
0001
1000
0010
0100
0010
1000
,
0001
0010
0100
1000
0010
0100
0001
1000
0010
1000
0100
0010
0001
0100
0001
1000
,
0010
0100
0001
0010
0100
1000
0010
0100
0001
0010
0001
0100
0010
1000
0001
0100
,
0001
0010
0100
1000
0100
0010
0001
1000
0010
1000
0001
0100
0001
1000
0010
1000
,
0001
0100
0010
1000
0100
0010
0001
1000
0100
0010
0100
1000
0010
0100
0001
1000
,
0001
0100
0001
0010
0100
1000
0010
1000
0001
0100
0001
0010
0100
0010
0001
0100
,
0010
1000
0001
1000
0100
0010
0001
0001
,
1000
0001
0100
0010
1000
0001
1000
0010
0100
0001
1000
0001
0010
0100
1000
0010
,
0100
0001
1000
0010
1000
0100
0010
0001
0100
0010
1000
0001
0100
0010
0100
0001
,
1000
0100
0010
0001
0100
0010
1000
0001
0100
0001
0010
0100
1000
0010
1000
0001
,
0010
0001
0100
0010
1000
0001
0100
0001
0010
0100
1000
0100
0010
0001
0100
0000
,
0001
1000
0010
1000
0001
0010
0100
0010
0001
1000
0010
1000
0001
0010
0100
1000
,
0001
0100
0010
0100
0001
1000
0100
1000
0001
0100
0010
0100
0001
1000
0100
1000
,
0010
0100
0010
0100
0001
0010
0100
1000
0010
0100
0010
0100
0001
0010
0100
1000
,
0001
0000
0000
0000
0010
0000
0000
0000
0001
0100
0010
1000
0100
0000
0000
0000
,
1000
0010
1000
0001
1000
0100
0010
0001
,
1000
0010
1000
0001
1000
0100
1000
0010
,
0100
0001
1000
0001
0010
0001
1000
0010
,
0100
0000
0001
0000
1000
0000
0001
0000
0010
0100
1000
0000
0010
0000
1000
0000
,
0001
0010
0001
1000
0001
0100
0010
1000
,
0001
0000
0010
0000
0001
0000
1000
0000
0001
0100
0010
0000
1000
0000
0100
0000
,
0010
0001
1000
0001
0000
1000
0010
0100
,
0001
0010
0001
1000
0000
0001
0010
0100
,
1000
0010
1000
0001
0000
1000
0100
0010
,
0001
0100
0001
1000
0000
0001
0100
0010
,
1000
0100
1000
0001
0000
1000
0010
0100
,
0001
0010
0001
1000
0000
0001
0010
0100
,
1000
0010
1000
0001
0000
1000
0001
0100
,
0010
1000
0100
1000
0000
0001
1000
0010
,
0100
0001
0010
0001
0000
1000
0001
0010
,
0100
0000
1000
0000
0010
0000
1000
0000
0001
0010
0100
1000
0010
0000
0000
0000
,
2020
3030
0000
0000
2002
3003
0000
0000
0022
0033
0000
0000
0010
0000
0100
0000
,
1000
0001
0100
0010
0000
1000
0100
0010
,
0022
0033
0000
0000
2002
3003
0000
0000
1000
0000
0010
0000
0100
0000
0001
0000
,
0000
0010
0100
0010
0000
0001
1000
0100
,
2200
3300
0000
0000
2002
3003
0000
0000
0202
0303
0000
0000
0001
0000
1000
0000
,
0100
1000
0001
0100
0000
0010
1000
0001
,
2002
3003
0000
0000
2002
3003
0000
0000
1000
0000
0100
0000
0010
0000
0100
0000
,
0000
1000
0000
0001
0100
0010
1000
0100
,
2200
3300
0000
0000
2002
3003
0000
0000
0202
0303
0000
0000
0100
0000
0010
0000
,
1000
0001
0010
0100
0000
1000
0010
0100
,
0202
0303
0000
0000
2002
3003
0000
0000
1000
0000
0100
0000
0010
0000
0001
0000
,
0000
0100
0010
0100
0000
0001
1000
0010
,
2020
3030
0000
0000
2002
3003
0000
0000
0022
0033
0000
0000
0001
0000
1000
0000
,
0010
1000
0001
0010
0000
0100
1000
0001
,
2002
3003
0000
0000
2002
3003
0000
0000
1000
0000
0010
0000
0100
0000
0010
0000
,
2000
0000
0000
0000
3000
0000
0000
0000
0000
0000
0000
0000
0000
0000
0000
0000
0000
0000
0000
0000
0000
0000
0000
0000
1000
0000
0000
0010
0000
0000
0100
0000
0000
0001
0000
0000
0010
0000
0000
0000
0000
0000
0000
0000
0000
0000
0000
0000
,
2002
0000
3003
0000
0220
0000
0330
0000
2002
0000
3003
0000
0002
0003
0020
0030
,
0200
0300
2000
3000
0020
0030
0200
0300
0000
0000
0002
0003
2000
3000
0200
0300
,
0220
0000
0330
0000
2002
0000
3003
0000
2000
3000
0020
0030
0200
0300
0002
0003
,
0000
0000
2000
3000
0200
0300
2000
3000
0000
0000
0020
0030
0200
0300
0002
0003
,
2002
0000
3003
0000
0220
0000
0330
0000
2002
0000
3003
0000
2000
3000
0200
0300
,
0020
0030
0002
0003
0200
0300
0020
0030
0000
0000
2000
3000
0200
0300
0020
0030
,
0220
0000
0330
0000
2002
0000
3003
0000
2000
3000
0020
0030
0200
0300
0002
0003
,
0000
0000
0002
0003
0000
0000
0020
0030
0200
0300
2000
3000
0020
0030
0200
0300
,
0002
0003
0010
0000
0200
0300
1000
0000
0020
0030
1000
0000
0200
0300
0020
0030
,
0200
0300
2000
3000
0020
0030
0200
0300
0001
0000
0020
0030
0002
0003
0200
0300
,
0020
0030
1000
0000
0200
0300
1000
0000
0020
0030
0200
0300
0002
0003
2000
3000
,
0100
0000
0020
0030
0002
0003
0200
0300
0010
0000
2000
3000
0200
0300
2000
3000
,
0020
0030
0100
0000
0002
0003
0010
0000
0200
0300
1000
0000
0020
0030
0200
0300
,
0002
0003
0020
0030
0002
0003
0200
0300
0010
0000
2000
3000
0002
0003
0200
0300
,
0001
0000
0000
0000
,
0001
0000
0000
0000
0010
0000
0000
0000
0010
0100
1000
0010
0100
0000
0000
0000
,
0001
0100
0001
1000
0100
0010
0100
1000
0001
0100
0001
1000
0100
0010
0001
0100
,
0010
1000
0010
0100
0001
0010
0100
1000
0100
0010
0001
0100
0001
1000
0001
0100
,
0010
1000
0010
0100
0001
1000
0100
1000
0001
0100
0001
1000
0001
0010
0001
1000
,
0100
0010
0001
1000
0010
1000
0100
0010
0001
1000
0100
1000
0001
0010
0001
0100
,
0010
1000
0001
1000
0100
0010
0100
1000
0001
0100
0001
1000
0100
0010
0100
1000
,
0010
0100
0001
0100
0010
1000
0100
0010
0001
0010
0100
1000
0010
1000
0001
1000
,
0100
0010
0001
1000
0010
0100
0010
1000
0001
0010
0001
1000
0001
0100
0001
1000
,
0010
0100
0001
1000
0100
0010
0001
1000
0001
0100
0001
0010
0001
1000
0010
0100
,
0001
0010
0001
1000
0010
0100
0010
1000
0001
0010
0001
1000
0010
0100
0001
0010
,
0100
1000
0100
0010
0001
0100
0010
1000
0010
0100
0001
0010
0001
1000
0001
0010
,
0100
1000
0100
0010
0001
1000
0010
1000
0001
0010
0001
1000
0001
0100
0001
1000
,
0010
0100
0001
1000
0100
1000
0010
0100
0001
1000
0010
1000
0001
0100
0001
0010
,
0100
1000
0001
1000
0010
0100
0010
1000
0001
0010
0001
1000
0010
0100
0010
1000
,
0100
0010
0001
0010
0100
1000
0010
0100
0001
0100
0010
1000
0100
1000
0001
1000
,
0010
0100
0001
1000
0100
0010
0100
1000
0010
0100
0001
1000
0100
0010
0001
1000
,
0010
0000
0000
0000
0000
0000
0000
0000
0010
0100
0001
0010
0100
0000
0000
0000
,
1000
0100
1000
0001
0100
0010
0100
0001
1000
0100
1000
0001
0100
0010
1000
0100
,
0010
0001
0010
0100
1000
0010
0100
0001
0100
0010
1000
0100
1000
0001
1000
0100
,
0010
0001
0010
0100
1000
0001
0100
0001
1000
0100
1000
0001
1000
0010
1000
0001
,
0100
0010
1000
0001
0010
0001
0100
0010
1000
0001
0100
0001
1000
0010
1000
0100
,
0010
0001
1000
0001
0100
0010
0100
0001
1000
0100
1000
0001
0100
0010
0100
0001
,
0010
0100
1000
0100
0010
0001
0100
0010
1000
0010
0100
0001
0010
0001
1000
0001
,
0100
0010
1000
0001
0010
0100
0010
0001
1000
0010
1000
0001
1000
0100
1000
0001
,
0010
0100
1000
0001
0100
0010
1000
0001
0010
0100
1000
0001
1000
0100
0010
0100
,
1000
0000
0000
0000
1000
0100
0010
0001
1000
0010
1000
0001
0010
0100
1000
0010
,
0100
0001
0100
0010
1000
0100
0010
0001
0010
0100
1000
0010
1000
0001
1000
0010
,
0100
0001
0100
0010
1000
0001
0010
0001
1000
0010
1000
0001
1000
0100
1000
0001
,
0010
0100
1000
0001
0100
0001
0010
0100
1000
0001
0010
0001
1000
0100
1000
0010
,
0100
0001
1000
0001
0010
0100
0010
0001
1000
0010
1000
0001
0010
0100
0010
0001
,
1000
0010
1000
0001
0010
0100
1000
0001
1000
0010
0100
0001
1000
0100
1000
0001
,
0100
0010
0100
0010
1000
0100
0010
0001
0100
0010
0100
0010
1000
0100
0010
0001
,
1000
0000
0000
0000
0000
0000
0000
0000
1000
0010
0100
0001
0010
0000
0000
0000
,
0002
0003
0000
0000
0200
0300
0000
0000
0002
0003
0000
0000
2000
3000
0200
0300
,
0020
0030
0200
0300
2000
3000
0020
0030
0000
0000
0200
0300
0002
0003
2000
3000
,
0200
0300
0000
0000
2000
3000
0000
0000
0020
0030
0200
0300
0020
0030
2000
3000
,
0000
0000
2000
3000
0200
0300
0020
0030
0001
1000
0010
0000
0200
0300
0002
0003
,
0020
0030
0000
0000
0200
0300
0000
0000
0020
0030
0000
0000
0001
0000
0100
0000
,
0010
0000
1000
0000
0100
0000
1000
0000
0010
0000
0100
0001
1000
0000
0100
0000
,
0010
0100
1000
0000
0010
0100
0001
1000
,
0100
0000
0010
0000
0001
0000
0100
0000
0001
1000
0010
0000
1000
0000
0100
0000
,
1000
0001
0100
0001
1000
0100
1000
0001
0100
0010
1000
0001
0100
0001
1000
0000
,
0100
0010
0001
1000
0001
0100
0010
1000
0001
0010
0100
0010
0001
0100
0000
0000
,
0010
1000
0001
0100
0001
1000
0100
0010
0001
1000
0010
1000
0001
0100
0010
1000
,
0001
0010
0100
0010
0001
1000
0010
0100
0001
1000
0001
0100
0010
0100
0001
0000
,
1000
0010
0100
0010
1000
0001
0010
0100
1000
0001
0100
0001
1000
0010
1000
0000
,
0001
0010
0100
0010
0001
1000
0010
0100
0001
1000
0100
1000
0010
0100
0000
0000
,
0010
1000
0001
0100
0001
1000
0100
1000
0001
0100
0010
1000
0001
0010
0001
0100
,
0010
0000
0000
0000
0000
0000
0000
0000
0010
1000
0100
0010
0001
0000
0000
0000
,
1000
0010
1000
0100
0010
0001
1000
0001
0100
0010
1000
0001
0010
0100
1000
0010
,
0100
0001
0100
0010
1000
0100
0010
0001
0010
0100
1000
0010
1000
0001
1000
0010
,
0100
0001
0100
0010
1000
0001
0010
0001
1000
0010
1000
0001
1000
0100
1000
0001
,
0010
0100
1000
0001
0100
0001
0010
0100
1000
0001
0010
0001
1000
0100
1000
0001
,
0100
0010
1000
0001
0010
0100
0010
0001
1000
0010
1000
0001
0010
0100
0010
0001
,
0100
0010
1000
0010
0100
0001
0010
0100
1000
0100
0010
0001
0100
0001
1000
0001
,
0010
0100
1000
0001
0100
0010
0100
0001
1000
0100
1000
0001
1000
0010
1000
0001
,
0100
0010
1000
0001
0010
0100
1000
0001
1000
0010
1000
0100
1000
0001
0100
0010
,
1000
0100
1000
0001
0100
0010
0100
0001
1000
0100
1000
0001
0100
0010
1000
0100
,
0010
0001
0010
0100
1000
0010
0100
0001
0100
0010
1000
0100
1000
0001
1000
0100
,
0010
0001
0010
0100
1000
0001
0100
0001
1000
0100
1000
0001
1000
0010
1000
0001
,
0100
0010
1000
0001
0010
0001
0100
0010
1000
0001
0100
0001
1000
0010
1000
0100
,
0010
0001
1000
0001
0100
0010
0100
0001
1000
0100
1000
0001
0100
0010
0100
0001
,
0010
0100
1000
0100
0010
0001
0100
0010
1000
0010
0100
0001
0010
0001
1000
0001
,
0100
0010
1000
0001
0010
0100
0010
0001
1000
0010
1000
0001
1000
0100
0010
0001
,
0100
0000
0000
0000
0000
0000
0000
0000
0100
0010
1000
0100
0010
0000
0000
0000
,
2002
0000
3003
0000
0220
0000
0330
0000
2002
0000
3003
0000
2000
3000
0020
0030
,
0200
0300
0002
0003
0020
0030
0200
0300
0000
0000
2000
3000
0002
0003
0200
0300
,
0220
0000
0330
0000
2002
0000
3003
0000
0002
0003
0020
0030
0200
0300
2000
3000
,
0000
0000
0002
0003
0200
0300
0002
0003
0000
0000
0020
0030
0200
0300
2000
3000
,
2002
0000
3003
0000
0220
0000
0330
0000
2002
0000
3003
0000
0002
0003
0200
0300
,
0020
0030
2000
3000
0200
0300
0020
0030
0000
0000
0002
0003
0200
0300
0020
0030
,
0220
0000
0330
0000
2002
0000
3003
0000
0002
0003
0020
0030
0200
0300
2000
3000
,
0000
0000
2000
3000
0000
0000
0002
0003
0020
0030
0200
0300
2000
3000
0020
0030
,
2020
3030
0000
0000
2002
3003
0000
0000
0022
0033
0000
0000
0010
0000
0100
0000
,
1000
0001
0100
0010
0000
1000
0100
0010
,
0022
0033
0000
0000
2002
3003
0000
0000
1000
0000
0010
0000
0100
0000
0001
0000
,
0000
0010
0100
0010
0000
0001
1000
0100
,
2200
3300
0000
0000
2002
3003
0000
0000
0202
0303
0000
0000
0001
0000
1000
0000
,
0100
1000
0001
0100
0000
0010
1000
0001
,
2002
3003
0000
0000
2002
3003
0000
0000
1000
0000
0100
0000
0010
0000
0100
0000
,
2000
0000
0000
0000
3000
0000
0000
0000
0000
0000
0000
0000
0000
0000
0000
0000
0000
0000
0000
0000
0000
0000
0000
0000
1000
0000
0000
0100
0000
0000
0010
0000
0000
0001
0000
0000
0100
0000
0000
0000
0000
0000
0000
0000
0000
0000
0000
0000
,
0001
0010
0001
1000
0001
0100
0010
1000
0001
0100
0001
1000
0100
0010
0001
1000
,
0100
1000
0001
0100
0010
1000
0010
0100
0001
1000
0100
1000
0001
0100
0001
1000
,
0100
0010
0100
1000
0010
0100
0001
0100
0010
1000
0100
0010
0100
1000
0010
0100
,
0001
1000
0100
0010
0001
0100
0001
0010
0100
1000
0100
0010
0001
0000
0001
0000
,
1000
0010
1000
0001
1000
0100
0010
0001
1000
0100
1000
0001
0100
0010
0100
0001
,
1000
0010
1000
0001
0010
0001
1000
0010
0100
0001
1000
0100
1000
0001
0010
0001
,
1000
0010
1000
0100
0010
0001
0010
0100
1000
0010
1000
0100
0010
0001
0100
0010
,
1000
0010
0100
0001
1000
0100
0010
0001
,
1000
0010
1000
0001
1000
0100
0010
0001
1000
0100
1000
0001
0100
0010
1000
0001
,
0100
0001
1000
0100
0010
0001
0010
0100
1000
0001
0100
0001
1000
0100
1000
0001
,
0100
0010
0100
0001
0010
0100
1000
0100
0010
0001
0100
0010
0100
0001
0010
0100
,
1000
0001
0100
0010
1000
0100
1000
0010
0100
0001
0100
0010
1000
0001
1000
0000
,
0001
0010
0001
1000
0001
0100
0010
1000
0010
0100
0001
1000
0100
0010
0100
1000
,
0001
0010
0001
1000
0010
0100
0001
1000
0100
1000
0001
0100
0010
0100
0001
1000
,
0100
0010
0001
0100
0010
1000
0100
1000
0010
0100
0001
1000
0100
0010
0100
1000
,
0010
0000
0000
0000
0000
0000
0000
0000
0010
0100
0001
1000
0100
0000
0000
0000
,
1000
0001
0100
0001
1000
0100
1000
0001
1000
0010
0100
0001
1000
0000
0001
0000
,
0010
0100
1000
0001
0100
0010
0100
0001
1000
0100
0010
0100
1000
0010
0000
0000
,
0100
0001
1000
0010
1000
0001
0010
0100
1000
0001
0100
0010
0100
0000
0001
0000
,
1000
0100
0010
0001
1000
0010
1000
0001
0010
0001
1000
0100
1000
0010
0000
0000
,
0100
0001
1000
0001
0010
0100
1000
0001
0100
0010
0100
0001
1000
0000
1000
0000
,
0100
0010
0001
1000
0010
0100
0010
1000
0001
0010
0001
0100
0010
0000
0000
0000
,
0100
0001
1000
0001
0010
0100
1000
0001
0100
0010
0100
0001
1000
0010
1000
0000
,
0001
0010
0100
1000
0001
0100
0010
0100
0001
0010
0100
1000
0001
0000
0000
0000
,
0100
0001
1000
0001
0010
0100
0010
0001
1000
0010
0100
0010
1000
0000
1000
0000
,
0001
0010
0100
0010
0001
1000
0010
1000
0001
0010
0100
1000
0010
0000
0000
0000
,
0100
0010
1000
0001
0010
0001
1000
0100
1000
0001
0100
0010
1000
0010
0100
0000
,
0001
1000
0100
0010
0001
1000
0010
1000
0001
0010
0001
0100
0010
0000
0000
0000
,
1000
0001
0010
0001
1000
0010
1000
0001
0010
0100
1000
0001
0010
0001
1000
0000
,
0010
0100
0001
1000
0001
0010
0100
1000
0001
0100
0010
0100
0001
0010
0000
0000
,
0100
1000
0001
0010
0001
1000
0010
0100
0001
1000
0100
1000
0001
0010
0001
0000
,
1000
0010
0100
0010
1000
0001
0010
0001
1000
0010
1000
0100
0010
0001
1000
0000
,
0000
0000
0000
0000
,
0000
0000
0000
0000
0000
0000
0000
000M
;
