#TITLE:Mother;
#SUBTITLE:;
#ARTIST:From Super Smash Bros. Melee;
#TITLETRANSLIT:;
#SUBTITLETRANSLIT:;
#ARTISTTRANSLIT:;
#CREDIT:;
#BANNER:Mother-bn.bmp;
#BACKGROUND:Mother-bg.bmp;
#LYRICSPATH:;
#CDTITLE:!3rdMix.png;
#MUSIC:19 - Mother.MP3;
#OFFSET:0.000;
#SAMPLESTART:1.008;
#SAMPLELENGTH:24.000;
#SELECTABLE:YES;
#BPMS:0.000=136.070,111.000=89.770,195.000=98.950,196.000=109.230,197.000=117.410,198.000=125.650,199.500=136.090;
#STOPS:111.000=0.060
;
#BGCHANGES:4.500=-random-=1.000=0=0=1,
215.500=Mother-bg.bmp=1.000=1=0=1,
99999=-nosongbg-=1.000=0=0=0 // don't automatically add -songbackground-
;
// cache tags:
#FIRSTBEAT:4.500;
#LASTBEAT:215.500;
#SONGFILENAME:Songs/mike songs/Mother - SSMBM/Mother.sm;
#HASMUSIC:1;
#HASBANNER:1;
#MUSICLENGTH:120.847;
// end cache tags

//---------------dance-single - ----------------
#NOTES:
     dance-single:
     :
     Easy:
     3:
     0.194,0.267,0.232,0.141,0.000,119.000,28.000,17.000,0.000,0.000:
0000
0000
0000
0000
,
0000
1000
0000
0000
0000
0000
0000
0000
,
0000
0010
0000
0000
0000
0000
0000
0000
,
0000
0100
0000
0000
0000
0000
0000
0000
,
0000
0001
1000
0010
,
0101
0010
1000
0001
,
0100
0010
1100
0001
,
1001
0010
1000
0001
,
0100
0101
1100
0001
,
0100
0010
1000
0001
,
0100
0002
0000
1003
,
0010
0100
0001
1000
,
0010
0110
1001
0010
,
1000
0010
1000
0000
0001
0000
0100
0000
,
0010
1000
0101
0100
,
1010
0101
0000
1020
,
0000
0230
0000
0301
,
1000
0010
0100
1001
,
0110
1001
0110
2002
,
0000
3003
0000
1020
,
0000
0230
0000
0301
,
1000
0010
0100
0001
,
1000
1010
0000
0001
,
0100
0010
1000
0000
,
0000
2002
0000
0000
0000
0000
3003
0000
,
0000
0220
0000
0000
0000
0000
0000
0330
,
0000
2002
0000
0000
0000
0000
0000
3003
,
0000
0000
0000
2002
,
0000
0000
0000
0000
,
0000
0000
3003
0000
,
0000
0001
0000
1000
,
0000
0001
0000
0100
,
0000
0010
0000
1000
,
0000
0100
0000
0010
,
0000
0001
0000
1000
,
0000
0010
0000
1000
,
0000
0001
0000
0100
,
0000
0001
0000
1000
,
0000
0010
0000
0100
,
0000
0001
0000
1000
,
0000
0001
1000
0001
,
1000
0000
0001
0000
,
0100
0000
0010
0000
,
1000
0000
0001
0000
,
0100
0000
0001
0000
,
1001
0000
0000
0000
,
0110
0000
0000
0000
,
1001
0000
0110
0000
,
1002
1000
2000
0000
,
0000
0000
0000
0000
0000
0000
0000
3003
,
0000
0010
0000
0000
,
0000
0100
0000
0000
,
0000
0010
0000
0000
,
0000
0000
1000
0000
0000
0000
0000
1001
;

//---------------dance-single - Copied from----------------
#NOTES:
     dance-single:
     Copied from:
     Beginner:
     2:
     0.112,0.245,0.116,0.091,0.000,70.000,14.000,11.000,0.000,0.000:
0000
0000
0000
0000
,
0000
1000
0000
0000
0000
0000
0000
0000
,
0000
0010
0000
0000
0000
0000
0000
0000
,
0000
0100
0000
0000
0000
0000
0000
0000
,
0000
0000
1000
0010
,
0000
0010
0000
0001
,
0000
0010
0000
0001
,
0000
0010
0000
0001
,
0000
0101
0000
0001
,
0000
0010
0000
0001
,
0000
0001
0000
0000
,
0010
0000
0001
0000
,
0010
0000
0000
0000
,
0000
0000
0001
0000
,
0010
0000
0101
0000
,
1010
0000
0000
0110
,
0000
0100
0000
0001
,
0000
0000
0000
1001
,
1001
1001
1001
2002
,
0000
3003
0000
0010
,
0000
0100
0000
0000
,
1000
0000
0100
0000
,
1000
0000
0000
0000
,
0100
0000
1000
0000
,
0000
2002
0000
0000
0000
0000
3003
0000
,
0000
0220
0000
0000
0000
0000
0000
0330
,
0000
2002
0000
0000
0000
0000
0000
3003
,
0000
0000
0000
2002
,
0000
0000
0000
0000
,
0000
0000
3003
0000
,
0001
0000
0000
0000
,
1000
0000
0000
0000
,
0001
0000
0000
0000
,
0100
0000
0000
0000
,
0010
0000
0000
0000
,
1000
0000
0000
0000
,
0001
0000
0000
0000
,
1000
0000
0000
0000
,
0001
0000
0000
0000
,
0100
0000
0000
0000
,
0010
0000
0000
0000
,
1000
0000
0000
0000
,
0010
0000
0000
0000
,
0100
0000
0000
0000
,
0010
0000
0000
0000
,
0100
0000
0100
0000
,
0100
0000
0010
0000
,
0010
0000
0010
0000
,
0010
0000
0020
0000
,
0000
0000
0000
0000
0000
0000
0000
0030
,
0000
0100
0000
0000
,
0000
0010
0000
0000
,
0000
0100
0000
0000
,
0000
0000
1000
0000
0000
0000
0000
1001
;

//---------------dance-single - Copied from----------------
#NOTES:
     dance-single:
     Copied from:
     Medium:
     5:
     0.312,0.334,0.257,0.157,0.000,214.000,31.000,19.000,0.000,0.000:
0000
0000
0000
0000
,
0000
1000
0000
0000
0000
0000
0100
0010
,
0000
1000
0000
0000
0000
0000
0001
1000
,
0000
0010
0000
0000
0000
0000
0001
1000
,
0000
0010
0100
0010
0100
0000
0010
0000
,
0101
0000
0010
1000
0010
0000
0001
0100
,
0001
0000
0010
0000
1100
0000
0001
0100
,
0001
0000
0010
1000
0100
0000
0101
0000
,
1100
0000
0101
0000
1100
0000
0001
0100
,
0010
0000
0010
1000
0010
0000
0100
0010
,
0100
1002
0010
1003
,
0010
0100
0010
0000
0001
1000
0001
0000
,
0010
0100
0110
0000
1001
0000
0010
0000
,
1000
0010
1000
0100
0001
0000
0100
0010
,
0100
0000
1000
0100
0101
0000
0101
0000
,
1010
0101
0000
1020
,
0100
0230
0001
0301
,
1000
0100
0010
0000
0100
0010
1001
0000
,
0110
1001
0110
2002
,
0000
3003
0000
1020
,
0100
0230
0001
1300
,
1000
0010
1000
0000
0100
0010
0100
0000
,
1000
0010
1000
0000
0000
0000
0001
0100
,
0001
0010
1000
0010
1000
0010
0100
0002
,
0000
2000
0000
0000
3003
0000
0010
2000
,
0000
0020
0000
0000
3030
0000
1000
0002
,
0000
0200
0000
0000
0303
0000
0010
0200
,
0000
0020
0000
0000
0000
0330
2002
0000
,
0000
0000
0000
0000
,
0000
0000
3003
0000
,
0001
1000
0010
0100
,
0001
1000
0100
0010
,
0001
0100
0001
1000
0100
0000
0010
0000
,
0001
1000
0010
0100
,
0001
0100
0001
0000
1000
0010
1000
0000
,
0001
1000
0001
0000
1000
0010
1000
0000
,
0001
0000
0100
0100
0100
0000
0010
0000
,
1000
0000
0100
0000
0010
0001
1000
0100
,
0010
0000
0001
0000
0100
0010
1000
0001
,
0100
0010
1000
0001
,
1000
0100
0010
0001
1000
0000
0001
0000
,
0100
0010
1000
0000
0001
0100
0010
0000
,
1000
0100
0010
0001
,
0100
0010
1000
0001
,
1000
0010
0100
0000
,
1001
0000
0101
0000
,
1010
0000
1001
0000
,
0011
0000
1100
0000
,
1001
0101
2002
0000
,
0000
0000
0000
0000
0000
0000
0000
3003
,
0000
0000
0010
0000
0000
0000
0000
1000
,
0001
0000
1000
0000
0000
0000
0000
0001
,
0100
0000
0010
0000
0000
0000
0000
1000
,
0010
0000
0100
0000
0000
0000
0000
1001
;

//---------------dance-single - Copied from Copied f----------------
#NOTES:
     dance-single:
     Copied from Copied f:
     Hard:
     7:
     0.435,0.490,0.372,0.348,0.033,281.000,45.000,42.000,0.000,0.000:
0000
0000
0000
0000
,
0000
1000
0000
0000
0000
0000
0100
0020
,
0000
2000
0000
0000
3030
0000
0001
2000
,
0000
0020
0000
0000
3030
0000
0001
1000
,
0000
0000
0010
0000
1000
0001
0000
0000
0001
0100
0000
0000
0010
0000
1000
0000
,
0100
0020
0000
0032
0000
0013
1000
0010
,
0100
2000
0000
0000
0000
3000
0001
1000
,
0100
0110
0000
0101
0000
1000
0010
1000
,
0001
0200
0010
0010
0310
0000
0001
1000
,
0100
0110
0000
0101
0000
1000
0010
0100
,
0001
2000
0100
0100
3100
0000
1000
0100
,
0010
0101
0000
1001
0000
0010
1000
0001
,
0100
0000
0010
0000
1000
0100
0000
0000
0100
0010
0000
0000
0101
0000
0000
0000
,
0010
1000
0001
0100
0010
1000
0101
0000
,
1001
0000
0000
0000
0110
0000
0000
0000
0101
0000
0000
0000
1000
0000
0001
1000
,
0001
0000
0100
0000
0101
0000
1000
0020
,
0100
0130
0001
0200
0001
0001
0301
1000
,
0010
0100
0001
1000
0010
0100
0011
0000
,
1001
0000
0000
0000
0110
0000
0000
0000
0101
0000
0000
0000
1000
0000
0100
0010
,
0200
0010
0310
1000
0010
0100
0001
2000
,
0100
0100
3100
0002
0100
0103
1010
0000
,
0101
0000
1001
0000
0010
1000
0001
0100
,
0001
0100
0010
0000
1001
0000
0001
0100
,
0010
1000
0001
0000
1000
0010
1000
0002
,
0000
0200
0000
0000
0303
0000
0010
2000
,
0000
0020
0000
0000
3030
0000
1000
0002
,
0000
0200
0000
0000
0303
0000
0010
0200
,
0000
0020
0000
0000
0000
0330
2002
0000
,
0000
0000
0000
0000
,
0000
0000
3003
0000
,
0001
0100
0010
0100
2000
0000
0000
0000
,
3001
0100
0010
1000
0001
1000
1100
0000
,
0001
0100
0010
1000
1002
0000
0000
0000
,
2003
3002
0203
0320
,
1030
0100
0010
0001
0100
0010
1000
0010
,
0100
0001
1000
0100
1010
0000
0001
0100
,
0110
0000
1000
0001
1001
0000
0000
0000
,
0001
1000
0100
0010
0001
0100
0010
1000
,
0100
0001
0010
1000
0001
0100
0010
0001
,
1000
0010
0100
0002
0000
1003
0000
0000
,
0010
1000
0001
0100
0010
1000
0100
0010
,
0002
0203
0320
2030
,
3100
0010
0001
1000
0100
0010
0001
0100
,
0010
1000
0010
0100
0001
0000
1000
0010
,
1000
0000
0001
0100
0010
0000
0000
0000
,
1010
0000
0101
0001
1001
0000
0101
0000
,
1010
0000
0101
0100
1100
0000
1001
0000
,
0110
0000
1001
0001
0101
0100
0110
0010
,
1001
0101
2010
0000
,
0000
0000
0000
0000
0000
0000
0000
3001
,
0100
0000
2002
0000
0000
0000
3003
0010
,
0100
0000
0202
0000
0000
0000
0303
0010
,
1000
0000
0202
0000
0000
0000
0303
1000
,
0010
0000
0100
0000
0001
0000
1000
0010
1000
0000
0001
0100
0001
0000
1001
0000
;

//---------------dance-single - Copied from Copied f----------------
#NOTES:
     dance-single:
     Copied from Copied f:
     Challenge:
     8:
     0.466,0.669,0.554,0.141,0.046,310.000,67.000,17.000,0.000,0.000:
0000
0000
0000
0000
,
0000
1000
0000
0000
0000
0000
0001
0001
,
0000
1010
0000
0001
0010
0001
1000
1000
,
0000
0101
0000
1000
0010
0100
0001
0001
,
0000
0000
1000
0000
0001
0100
0001
0000
1000
0010
1000
0000
0001
0000
1000
0000
,
0100
0010
0000
0001
0000
0100
0010
1000
,
0010
0200
0000
0000
0010
0000
0301
1000
,
0100
0110
0000
0101
0000
1000
0010
0100
,
0001
0101
0000
1000
0001
0010
0001
1000
,
0010
0101
0000
1001
0000
0001
0100
1000
,
0001
0010
0000
0100
0000
0001
0100
1000
,
0001
0101
0000
1001
0000
0010
1000
0001
,
0100
0000
0010
0000
1000
0100
1000
0000
0100
0010
0100
0000
1001
0000
0000
0000
,
1000
0100
0001
0010
0100
0001
2000
0000
,
3020
0000
0230
0000
0302
0000
2003
0100
,
3100
0000
0100
0000
0101
0000
1000
1000
,
0100
0100
0001
0001
1000
1000
0101
0000
,
1000
0100
0001
0010
1000
0100
0002
0000
,
2003
0000
3020
0000
0230
0000
0302
1000
,
1003
1000
0100
0010
0001
0100
0001
0010
,
1000
0100
0001
0100
1000
0000
1001
0000
,
0101
0000
1001
0000
0010
1000
0001
1000
,
0010
0100
0001
0000
1001
0000
0001
0100
,
0010
1000
0001
0000
1000
0010
1000
1000
,
0000
0101
0000
0010
1000
0001
0100
0100
,
0000
1001
0000
0100
0001
1000
0010
0010
,
0000
1100
0000
0001
0100
0010
1000
1000
,
0000
1001
0000
0000
0110
0000
2002
0000
,
0000
0000
0000
0000
,
0000
0000
3003
0000
,
1001
1000
0100
0010
1001
0000
0000
0000
,
1001
0100
0010
1000
0101
0000
1100
0000
,
0011
0100
0010
1000
1001
0000
0000
0000
,
1001
0101
1010
0110
,
1000
0100
0001
0010
1000
0100
0010
0100
,
0001
0010
0100
0001
1010
0000
0001
0100
,
0110
0000
1000
0001
1001
0000
0000
0000
,
1000
0100
0001
0010
1000
0100
0010
0001
,
1000
0010
0001
0100
1000
0100
0010
0001
,
1000
0100
0001
0020
0000
1030
0000
0000
,
0010
1000
0001
0100
0010
1000
0100
0010
,
1001
0101
1010
0110
,
0001
0100
1000
0100
0001
0010
1000
0010
,
0001
1000
0100
0010
1001
0000
1000
0010
,
1010
0000
0001
0100
0110
0000
0000
0000
,
1001
0000
0010
1000
1010
0000
0101
0000
1001
0000
0000
0000
0101
0000
0000
0000
,
1010
0000
0001
0100
0101
0000
1010
0000
0110
0000
0000
0000
1001
0000
0000
0000
,
0101
0000
1000
0001
1001
0000
0101
0000
1001
0000
0110
0000
1001
0000
0011
0000
,
1100
0101
2010
0000
,
0000
0000
0000
0000
0000
0000
0000
3001
,
0100
0000
2002
0000
0000
0000
3003
0010
,
0010
0000
1010
0000
0001
1000
0100
0010
,
0010
0000
1001
0000
0010
1000
0001
1000
,
0010
0000
0100
0000
0001
0000
1000
0010
1000
0010
0100
0001
0100
0001
1001
0000
;
