#TITLE:Everyday;
#SUBTITLE:(Netsky Remix);
#ARTIST:Rusko;
#TITLETRANSLIT:;
#SUBTITLETRANSLIT:;
#ARTISTTRANSLIT:;
#CREDIT:;
#BANNER:../BN.png;
#BACKGROUND:../BG.png;
#LYRICSPATH:;
#CDTITLE:../CDTitleKaze.png;
#MUSIC:Rusko - Everyday (Netsky Remix).ogg;
#OFFSET:-0.060;
#SAMPLESTART:34.543;
#SAMPLELENGTH:12.000;
#SELECTABLE:YES;
#BPMS:0.000=173.999;
#STOPS:;
#BGCHANGES:;
// cache tags:
#FIRSTBEAT:0.000;
#LASTBEAT:704.000;
#SONGFILENAME:Songs/Index Gradation/Everyday (Netsky Remix) - [Bobbykaze]/Rusko - Everyday (Netsky Remix).sm;
#HASMUSIC:1;
#HASBANNER:1;
#MUSICLENGTH:251.982;
// end cache tags

//---------------dance-single - ----------------
#NOTES:
     dance-single:
     :
     Challenge:
     20:
     0.950,1.000,0.214,0.698,1.000,1370.000,54.000,176.000,0.000,24.000:

1000
0000
0000
0000
1000
0000
0000
0000
1000
0000
0000
0000
1000
0000
0100
0010
,
0001
0000
0000
0000
0001
0000
0000
0000
0001
0000
0000
0000
0001
0000
0010
0001
,
0100
0000
0000
0000
0100
0000
0000
0000
0100
0000
0000
0000
0100
0000
0010
1000
,
0001
0000
0000
0000
0001
0000
0000
0000
0001
0000
0000
0010
0100
1000
0000
0000
,
0010
0000
0000
0000
0010
0000
0000
0000
0010
0000
0000
0000
0010
0000
0100
0010
,
1000
0000
0000
0000
1000
0000
0000
0000
1000
0000
0000
0000
1000
0000
0010
0100
,
0001
0000
0000
0000
0001
0000
0000
0000
0001
0000
0000
0000
0001
0000
0100
0001
,
1000
0000
0000
0000
1000
0000
0000
0000
1000
0000
0000
0100
0010
0001
0000
0000
,
0100
0000
0000
0000
0100
0000
0000
0000
0100
0000
0000
0000
0100
0000
0010
1000
,
0001
0000
0000
0000
0001
0000
0000
0000
0001
0000
0000
0000
0001
0000
0010
0001
,
0100
0000
0000
0000
0100
0000
0000
0000
0100
0000
0000
0000
0100
0000
0010
1000
,
0001
0000
0000
0000
0001
0000
0000
0000
0001
0000
0000
0010
0100
1000
0000
0000
,
0010
0000
0000
0000
0010
0000
0000
0000
0010
0000
0000
0000
0010
0000
0100
0001
,
1000
0000
0000
0000
1000
0000
0000
0000
1000
0000
0000
0000
1000
0000
0100
0010
,
0001
0000
0000
0000
0001
0000
0000
0000
0001
0000
0000
0000
0001
0000
0100
0001
,
0000
1000
0010
0100
0001
1000
0010
0100
,
0001
0000
0000
1000
0000
0000
0010
0000
0000
0100
0000
0000
0001
0000
0000
0100
,
0000
0000
0010
0000
0000
1000
0000
0000
0001
0000
0000
0100
0000
0000
0010
0000
,
0100
0000
0000
0010
0000
0000
1000
0000
0000
0001
0000
0000
0100
0000
0000
0010
,
0100
0000
0000
0001
0000
0000
1000
0000
0000
0010
0000
0000
0100
0000
0000
0001
,
0010
0000
0000
0100
0000
0000
1000
0000
0000
0010
0000
0000
0100
0000
0000
0001
,
0000
0000
0100
0000
0000
0010
0000
0000
1000
0000
0000
0100
0000
0000
0100
0000
,
0010
0000
0000
0001
0000
0000
0100
0000
0000
0010
0000
0000
1000
0000
0000
0001
,
0010
0000
0000
0100
0000
0000
1000
0000
0000
0010
0000
0000
1000
0000
0000
0001
,
0100
0000
0000
0010
0000
0000
0100
0000
0000
0001
0000
0000
0100
0000
0000
0010
,
0000
0000
1000
0000
0000
0001
0000
0000
0100
0000
0000
0010
0000
0000
1000
0000
,
0001
0000
0000
0100
0000
0000
0010
0000
0000
0100
0000
0000
0001
0000
0000
0010
,
0100
0000
0000
1000
0000
0000
0001
0000
0000
0100
0000
0000
0010
0000
0000
0100
,
0010
0000
0000
1000
0000
0000
0001
0000
0000
0100
0000
0000
0010
0000
0000
1000
,
0000
0000
0001
0000
0000
0100
0000
0000
0010
0000
0000
1000
0000
0000
1000
0000
,
0010
0000
0000
0100
0000
0000
0001
0000
0000
0100
0000
0000
0010
0000
0000
1000
,
0010
0000
0000
0100
0000
0000
0001
0000
0000
1000
0000
0000
0001
0000
0000
1000
,
0110
0000
0000
0010
1100
0000
0010
0000
,
0110
0000
0000
1000
0011
0000
0100
0000
,
0110
0000
0000
1000
0011
0000
0010
0000
,
1100
0000
0000
0001
0110
0000
0100
0000
,
0011
0000
0000
1000
0110
0000
0010
0000
,
1100
0000
0000
0001
0110
0000
1000
0000
,
0011
0000
0000
0100
0110
0000
1000
0000
,
0011
0000
0000
0010
1100
0000
0010
0000
,
1000
0001
1000
0001
1000
0001
1000
0001
,
1000
0001
1000
0001
1000
0001
1000
0001
,
1000
0001
1000
0001
1000
0001
1000
0001
,
1000
0001
1000
0001
1000
0001
1000
0001
,
1000
0100
0010
0001
1000
0100
0010
0001
1000
0100
0010
0001
1000
0100
0010
0001
,
1000
0100
0010
0001
1000
0100
0010
0001
1000
0100
0010
0001
1000
0100
0010
0001
,
1000
0100
0010
0001
1000
0100
0010
0001
1000
0100
0010
0001
1000
0100
0010
0001
,
1000
0100
0010
0001
1000
0100
0010
0001
0110
0000
0000
0000
0000
0000
0000
0000
,
2002
0000
3023
0000
,
0000
0000
0000
2030
3002
0203
0320
0000
,
2030
0000
0000
0000
0000
0000
3002
0203
,
0320
0000
0000
2030
,
3220
0000
0332
0000
,
0000
0000
0000
0000
0000
0000
2003
0000
3020
0230
0302
0000
2003
0000
0000
0000
,
3020
0000
0000
0000
0000
0000
0000
0000
0000
0000
0000
0000
0000
0000
0000
0000
0000
0000
0000
0000
0000
0000
0230
0000
0000
0302
0000
0203
0000
0000
0320
0000
,
2030
0000
0000
3020
,
2032
0000
3203
0000
,
0000
0000
0000
0320
2030
3002
0203
0000
,
0320
0000
0000
0000
0000
0000
0230
0302
,
2003
0000
0000
3020
,
2032
0000
0000
0000
3403
0340
0430
0340
,
0430
0340
0430
0340
0430
0340
0430
0340
,
2030
0000
0000
0000
3004
0403
0304
0403
,
0300
0010
0100
0001
1000
0001
0100
0010
,
2002
0000
3203
0000
,
0000
0000
0000
0320
2030
3002
0203
0000
,
0320
0000
0000
0000
0000
0000
2030
3002
,
0203
0000
0000
0320
,
2032
0000
3203
0000
,
0000
0000
0000
0000
0000
0000
0000
0000
0000
0000
0000
0000
0000
0000
0000
0000
0000
0000
0320
0000
0000
0230
0000
0000
0302
0000
0000
0000
2003
0000
0000
0000
3020
0000
0000
0000
0230
0000
0000
0000
0000
0000
0000
0000
0000
0000
0000
0000
,
0302
0000
0000
0000
0000
0000
0000
0000
0000
0000
2003
0000
3200
0320
0032
0000
,
0203
0000
0000
0320
,
2032
0000
3203
0000
,
0000
0000
0000
0320
2030
3020
0230
0000
,
0302
0000
0000
0000
0000
0000
0203
0320
,
2030
0000
0000
3020
,
2032
0000
0000
0000
3403
0340
0430
0340
,
0430
0340
0430
0340
0430
0340
0430
0340
,
0000
0000
0000
0000
4030
3004
4003
3004
,
4003
3004
4003
3004
4003
3004
4003
3004
,
0203
0000
0000
0000
0000
0000
0000
0000
0000
0000
0000
0000
0310
1000
0001
0100
0010
1000
0001
0100
0001
1000
0100
0010
,
0001
0100
0001
1000
0010
0100
0001
0100
0010
1000
0100
0010
0001
0010
0100
1000
0010
0100
0001
1000
0001
0100
0010
1000
,
0001
0100
0001
1000
0010
1000
0001
0100
0010
1000
0010
0100
0001
1000
0010
0100
0001
1000
0010
1000
0001
0100
0010
1000
,
0001
0010
0100
1000
0100
0010
0001
0100
0010
1000
0001
0100
0001
1000
0010
0100
0001
1000
0001
0010
0100
1000
0010
0100
,
0002
0000
0000
0000
0000
0000
0000
0000
0000
0000
0000
0000
0103
0010
1000
0010
0100
0001
1000
0010
1000
0001
0010
0100
,
1000
0010
1000
0001
0100
0010
1000
0010
0100
0001
0010
0100
1000
0100
0010
0001
0100
0010
1000
0001
1000
0010
0100
0001
,
1000
0010
1000
0001
0100
0001
1000
0010
0100
0001
0100
0010
1000
0001
0100
0010
1000
0001
0010
0001
1000
0010
0100
0001
,
1000
0100
0010
0001
0010
0100
1000
0010
0100
0001
1000
0010
1000
0001
0100
0010
1000
0001
1000
0100
0010
0001
0100
0010
,
2000
0000
0000
0000
0000
0000
0000
0000
0000
0000
0000
0000
3010
0100
0001
0010
0100
1000
0010
1000
0001
0100
0010
1000
,
0001
0100
0010
1000
0010
0100
0001
1000
0001
0010
0100
1000
0100
0010
0001
0100
0010
1000
0001
0100
0001
1000
0100
0010
,
0001
1000
0010
1000
0001
0100
0010
1000
0001
0100
0001
1000
0010
0100
0001
1000
0100
0010
0001
0010
0100
1000
0010
1000
,
0001
0100
0010
1000
0010
0100
0001
1000
0001
0100
0010
1000
0100
0010
0001
0100
0001
1000
0100
1000
0001
0010
0100
1000
,
0002
0000
0000
0000
0000
0000
0000
0000
0000
0000
0000
0000
0103
0010
1000
0100
0010
0001
0100
0010
1000
0001
0100
0010
,
1000
0100
0010
0001
1000
0010
0100
0010
1000
0001
0010
0100
1000
0100
0010
0001
0100
0010
1000
0010
0100
0001
1000
0001
,
0100
0010
1000
0001
0100
0001
1000
0100
0010
0001
0100
0010
1000
0001
0010
0100
1000
0100
0010
0001
0100
0010
1000
0001
,
1000
0100
0010
0001
0100
0010
1000
0100
0010
0001
0100
0010
1000
0100
0010
0001
0100
0010
1000
0010
0100
0001
1000
0010
,
0100
0000
0000
0001
0000
0000
0100
0000
0000
0010
0000
0000
1000
0000
0000
0010
,
0000
0000
0100
0000
0000
0001
0000
0000
1000
0000
0000
0010
0000
0000
0100
0000
,
0010
0000
0000
0100
0000
0000
0001
0000
0000
1000
0000
0000
0010
0000
0000
0100
,
0010
0000
0000
1000
0000
0000
0001
0000
0000
0100
0000
0000
0010
0000
0000
1000
,
0100
0000
0000
0010
0000
0000
0001
0000
0000
0100
0000
0000
0010
0000
0000
1000
,
0000
0000
0010
0000
0000
0100
0000
0000
0001
0000
0000
0010
0000
0000
0010
0000
,
0100
0000
0000
1000
0000
0000
0010
0000
0000
0100
0000
0000
0001
0000
0000
1000
,
0100
0000
0000
0010
0000
0000
0001
0000
0000
0100
0000
0000
0001
0000
0000
1000
,
0010
0000
0000
0100
0000
0000
0010
0000
0000
1000
0000
0000
0010
0000
0000
0100
,
0000
0000
0001
0000
0000
1000
0000
0000
0010
0000
0000
0100
0000
0000
0001
0000
,
1000
0000
0000
0010
0000
0000
0100
0000
0000
0010
0000
0000
1000
0000
0000
0100
,
0010
0000
0000
0001
0000
0000
1000
0000
0000
0010
0000
0000
0100
0000
0000
0010
,
0100
0000
0000
0001
0000
0000
1000
0000
0000
0010
0000
0000
0100
0000
0000
0001
,
0000
0000
1000
0000
0000
0010
0000
0000
0100
0000
0000
0001
0000
0000
0001
0000
,
0100
0000
0000
0010
0000
0000
1000
0000
0000
0010
0000
0000
0100
0000
0000
0001
,
0100
0000
0000
0010
0000
0000
1000
0000
0000
0001
0000
0000
1000
0000
0000
0001
,
0110
0000
0000
0100
0011
0000
0100
0000
,
0110
0000
0000
0001
1100
0000
0010
0000
,
0110
0000
0000
0001
1100
0000
0100
0000
,
0011
0000
0000
1000
0110
0000
0010
0000
,
1100
0000
0000
0001
0110
0000
0100
0000
,
0011
0000
0000
1000
0110
0000
0001
0000
,
1100
0000
0000
0010
0110
0000
0001
0000
,
1100
0000
0000
0100
0011
0000
0100
0000
,
0001
1000
0001
1000
0001
1000
0001
1000
,
0001
1000
0001
1000
0001
1000
0001
1000
,
0001
1000
0001
1000
0001
1000
0001
1000
,
0001
1000
0001
1000
0001
1000
0001
1000
,
0001
0010
0100
1000
0001
0010
0100
1000
0001
0010
0100
1000
0001
0010
0100
1000
,
0001
0010
0100
1000
0001
0010
0100
1000
0001
0010
0100
1000
0001
0010
0100
1000
,
0001
0010
0100
1000
0001
0010
0100
1000
0001
0010
0100
1000
0001
0010
0100
1000
,
0001
0010
0100
1000
0001
0010
0100
1000
0110
0000
0000
0000
0000
0000
0000
0000
,
2002
0000
3203
0000
,
0000
0000
0000
0302
2003
3020
0230
0000
,
0302
0000
0000
0000
0000
0000
2003
3020
,
0230
0000
0000
0302
,
0223
0000
2330
0000
,
0000
0000
0000
0000
0000
0000
3002
0000
0203
0320
2030
0000
3002
0000
0000
0000
,
0203
0000
0000
0000
0000
0000
0000
0000
0000
0000
0000
0000
0000
0000
0000
0000
0000
0000
0000
0000
0000
0000
0320
0000
0000
2030
0000
3020
0000
0000
0230
0000
,
0302
0000
0000
0203
,
2302
0000
3023
0000
,
0000
0000
0000
0230
0302
2003
3020
0000
,
0230
0000
0000
0000
0000
0000
0320
2030
,
3002
0000
0000
0203
,
2302
0000
0000
0000
3043
0430
0340
0430
,
0340
0430
0340
0430
0340
0430
0340
0430
,
0302
0000
0000
0000
4003
3040
4030
3040
,
0030
0100
0010
1000
0001
1000
0010
0100
,
2002
0000
3023
0000
,
0000
0000
0000
0230
0302
2003
3020
0000
,
0230
0000
0000
0000
0000
0000
0302
2003
,
3020
0000
0000
0230
,
2302
0000
3023
0000
,
0000
0000
0000
0000
0000
0000
0000
0000
0000
0000
0000
0000
0000
0000
0000
0000
0000
0000
0230
0000
0000
0320
0000
0000
2030
0000
0000
0000
3002
0000
0000
0000
0203
0000
0000
0000
0320
0000
0000
0000
0000
0000
0000
0000
0000
0000
0000
0000
,
2030
0000
0000
0000
0000
0000
0000
0000
0000
0000
3002
0000
0023
0230
2300
0000
,
3020
0000
0000
0230
,
2302
0000
3023
0000
,
0000
0000
0000
0230
0302
0203
0320
0000
,
2030
0000
0000
0000
0000
0000
3020
0230
,
0302
0000
0000
0203
,
2302
0000
0000
0000
3043
0430
0340
0430
,
0340
0430
0340
0430
0340
0430
0340
0430
,
0000
0000
0000
0000
0304
4003
3004
4003
,
3004
4003
3004
4003
3004
4003
3004
4003
,
3020
0000
0000
0000
0000
0000
0000
0000
0000
0000
0000
0000
0130
0001
1000
0010
0100
0001
1000
0010
1000
0001
0010
0100
,
1000
0010
1000
0001
0100
0010
1000
0010
0100
0001
0010
0100
1000
0100
0010
0001
0100
0010
1000
0001
1000
0010
0100
0001
,
1000
0010
1000
0001
0100
0001
1000
0010
0100
0001
0100
0010
1000
0001
0100
0010
1000
0001
0100
0001
1000
0010
0100
0001
,
1000
0100
0010
0001
0010
0100
1000
0010
0100
0001
1000
0010
1000
0001
0100
0010
1000
0001
1000
0100
0010
0001
0100
0010
,
2000
0000
0000
0000
0000
0000
0000
0000
0000
0000
0000
0000
3010
0100
0001
0100
0010
1000
0001
0100
0001
1000
0100
0010
,
0001
0100
0001
1000
0010
0100
0001
0100
0010
1000
0100
0010
0001
0010
0100
1000
0010
0100
0001
1000
0001
0100
0010
1000
,
0001
0100
0001
1000
0010
1000
0001
0100
0010
1000
0010
0100
0001
1000
0010
0100
0001
1000
0100
1000
0001
0100
0010
1000
,
0001
0010
0100
1000
0100
0010
0001
0100
0010
1000
0001
0100
0001
1000
0010
0100
0001
1000
0001
0010
0100
1000
0010
0100
,
0002
0000
0000
0000
0000
0000
0000
0000
0000
0000
0000
0000
0103
0010
1000
0100
0010
0001
0100
0001
1000
0010
0100
0001
,
1000
0010
0100
0001
0100
0010
1000
0001
1000
0100
0010
0001
0010
0100
1000
0010
0100
0001
1000
0010
1000
0001
0010
0100
,
1000
0001
0100
0001
1000
0010
0100
0001
1000
0010
1000
0001
0100
0010
1000
0001
0010
0100
1000
0100
0010
0001
0100
0001
,
1000
0010
0100
0001
0100
0010
1000
0001
1000
0010
0100
0001
0010
0100
1000
0010
1000
0001
0010
0001
1000
0100
0010
0001
,
2000
0000
0000
0000
0000
0000
0000
0000
0000
0000
0000
0000
3010
0100
0001
0010
0100
1000
0010
0100
0001
1000
0010
0100
,
0001
0010
0100
1000
0001
0100
0010
0100
0001
1000
0100
0010
0001
0010
0100
1000
0010
0100
0001
0100
0010
1000
0001
1000
,
0010
0100
0001
1000
0010
1000
0001
0010
0100
1000
0010
0100
0001
1000
0100
0010
0001
0010
0100
1000
0010
0100
0001
1000
,
0001
0010
0100
1000
0010
0100
0001
0010
0100
1000
0010
0100
0001
0010
0100
1000
0010
0100
0001
0100
0010
1000
0001
0100
,
0010
0000
0000
0000
;
