#TITLE:M29;
#SUBTITLE:DOG DAYS 3;
#ARTIST:Isshiki Yui;
#TITLETRANSLIT:;
#SUBTITLETRANSLIT:;
#ARTISTTRANSLIT:;
#CREDIT:bombastik.png;
#BANNER:BN.jpg;
#BACKGROUND:BG.jpg;
#LYRICSPATH:;
#CDTITLE:;
#MUSIC:M29.mp3;
#OFFSET:-0.520;
#SAMPLESTART:27.500;
#SAMPLELENGTH:12.000;
#SELECTABLE:YES;
#BPMS:0.000=172.980;
#STOPS:;
#BGCHANGES:;
// cache tags:
#FIRSTBEAT:0.000;
#LASTBEAT:179.000;
#SONGFILENAME:Songs/FUCK ANIME PACK/DOG DAYS 3/Dog Days 3.sm;
#HASMUSIC:1;
#HASBANNER:1;
#MUSICLENGTH:69.198;
// end cache tags

//---------------dance-single - Blank----------------
#NOTES:
     dance-single:
     Blank:
     Challenge:
     11:
     1.000,1.000,1.000,0.535,1.000,489.000,155.000,37.000,0.000,25.000:

1111
0000
0100
0010
1001
0000
0010
0100
1001
0000
0010
1000
0011
0000
0100
0001
,
1010
0000
0001
1000
0110
0000
0001
0100
1010
0000
0100
0010
1001
0000
0100
1000
,
0101
0010
0100
0010
0001
0010
0100
0010
1100
0001
0010
0100
0001
0010
0100
1000
,
0101
0000
1100
0000
1001
0000
0110
0000
1010
0001
0010
0001
0220
0000
0000
0330
,
1111
0000
0001
1000
0011
0000
0100
1000
0110
0000
1000
0010
0101
0000
0010
0100
,
0011
0000
0100
1000
0110
0000
0001
0010
1100
0000
0001
0100
1010
0000
0100
0001
,
1100
0010
0100
0010
0001
0010
0100
1000
0110
1000
0100
0010
0100
0010
0001
0010
,
1100
0110
0000
0011
1100
0000
0110
0000
1001
0000
0110
0000
2002
0000
0000
3003
,
1010
0100
0010
0100
1000
0100
0010
0001
0010
0100
0010
0100
0020
0000
0000
0030
,
1000
1000
1000
0000
0011
0000
0110
0000
0001
0010
0100
1000
0001
0010
0100
1000
,
0010
0100
0010
0100
1000
0100
0010
0100
0010
0001
0010
0100
0001
0010
0001
0010
,
0100
1000
0100
0010
0100
1000
0100
0010
0100
0010
0100
0001
0010
0100
0010
0100
,
1001
0110
1001
0100
0010
0100
0010
1000
0100
0100
0100
0001
0010
0001
0010
0100
,
0001
0001
0001
0100
0011
0000
0110
0000
1001
0100
0010
0100
1000
0100
0010
0001
,
0010
0100
0001
0010
0100
1000
0100
0010
0100
0010
0100
1000
0100
0010
1000
0100
,
0011
1100
0000
0110
1001
0000
0110
0000
2100
0000
0000
0000
0000
0000
0000
3000
,
1111
0000
1100
0010
0101
0000
0110
0001
1100
0000
0101
1000
0011
0000
1010
0100
,
0011
0000
1100
0010
1001
0000
0110
1000
0101
0000
1010
0001
1100
0000
0011
0100
,
1001
0100
0010
0100
1000
0001
0010
0100
1010
0100
1000
0100
0010
0001
0010
0100
,
1001
0000
0100
0100
0100
0000
1001
0000
0100
0010
0100
0010
0200
0000
0000
0300
,
1111
0000
0011
0100
1001
0000
0110
1000
0011
0000
1010
0100
0011
0000
1010
0100
,
1001
0000
0110
0001
0110
0000
1100
0001
1100
0000
0101
0010
0101
0000
1010
0100
,
1010
0001
0010
0100
0001
0010
0001
0010
1100
0010
0100
1000
0100
0010
0100
0010
,
1100
1100
0000
0011
0011
0000
0110
0000
1001
0000
0110
0000
2002
0000
0000
3003
,
1111
0000
0001
0010
2200
0000
0000
0000
0000
0000
0001
0000
0001
0000
0010
0000
,
0022
0000
0000
0000
0000
0000
0000
0000
0000
0000
0000
0000
0000
0000
0000
3333
,
1111
0000
1000
0100
0022
0000
0000
0000
0000
0000
1000
0000
1000
0000
0100
0000
,
2200
0000
0000
0000
0000
0000
0000
0000
0000
0000
0000
0000
0000
0000
0000
3333
,
1111
0000
0010
0100
2002
0000
0000
0000
0000
0000
0100
0000
0100
0000
0010
0000
,
0220
0000
0000
0000
0000
0000
0000
0000
0000
0000
0000
0000
0000
0000
0000
3333
,
1111
0000
0010
0100
2020
0000
0000
0000
0000
0000
0101
3030
0101
0000
0101
0000
,
2020
0000
0000
0000
0000
0000
0000
0000
0000
0000
0000
0000
0000
0000
0000
3030
,
0101
1000
0010
0100
1001
0100
0010
1000
0101
0010
1000
0001
1100
0010
0100
0001
,
1010
0100
1000
0001
1010
0100
0001
1000
0011
0000
0110
0000
1100
0000
0110
0000
,
0011
0100
0001
1000
0101
0010
1000
0001
1010
0100
0001
0010
1001
0100
0001
1000
,
0110
0001
0100
0010
1100
0010
1000
0001
1100
0000
0110
0000
0011
0000
0110
0000
,
1100
0010
1000
0001
1010
0100
0001
1000
0011
0100
1000
0010
0101
0010
1000
0001
,
1100
0010
1000
0001
0110
1000
0010
0100
1001
0000
0110
0000
1001
0000
0110
0000
,
1001
0100
0001
0100
1010
0001
1000
0010
1001
0100
1000
0010
0101
0010
1000
0001
,
1100
0010
0100
0001
1010
0001
0100
1000
0101
0010
1100
0010
0101
0010
1100
0010
,
2202
0000
0000
0000
0000
0000
0000
3303
0222
0000
0000
0000
0000
0000
0000
0333
,
2220
0000
0000
0000
0000
0000
0000
0000
0000
0000
0000
3330
0000
0000
0000
0000
,
1001
0100
0010
0100
0010
0100
0010
0100
0010
0100
0010
0100
0010
0100
0010
0100
,
0010
0100
0010
0100
0010
0100
0010
0100
0010
0100
0010
0100
0010
0100
0010
0100
,
2022
0000
0000
3033
;
