#TITLE:Monolith;
#SUBTITLE:;
#ARTIST:Affinity;
#TITLETRANSLIT:;
#SUBTITLETRANSLIT:;
#ARTISTTRANSLIT:;
#CREDIT:;
#BANNER:;
#BACKGROUND:monolith-bg.png;
#LYRICSPATH:;
#CDTITLE:;
#MUSIC:Monolith.mp3;
#OFFSET:0.041;
#SAMPLESTART:86.119;
#SAMPLELENGTH:15.000;
#SELECTABLE:YES;
#BPMS:0.000=49.000,8.000=196.000,315.000=49.000;
#STOPS:173.500=0.600
,234.000=0.860
;
#BGCHANGES:;
// cache tags:
#FIRSTBEAT:4.000;
#LASTBEAT:317.000;
#SONGFILENAME:Songs/Essential Sim Collection/(ITG) Monolith/monolith.sm;
#HASMUSIC:1;
#HASBANNER:0;
#MUSICLENGTH:109.557;
// end cache tags

//---------------dance-single - ----------------
#NOTES:
     dance-single:
     :
     Hard:
     9:
     0.679,0.613,0.338,0.046,0.055,479.000,37.000,5.000,8.000,0.000:
0000
0000
0000
0000
,
0000
0000
0000
0000
,
1000
0001
0100
0000
0001
0010
0100
0000
,
1000
0010
1000
0100
0001
0000
0010
0000
,
0001
1000
0010
0000
1000
0100
0010
0000
,
0001
0100
0001
0010
1000
0000
0100
0000
,
1000
0001
0100
0000
0001
0010
0100
0000
,
1000
0010
1000
0100
0001
0000
0010
0000
,
0001
1000
0010
0000
1000
0100
0010
0000
,
0001
0100
0001
0011
0000
0000
1100
0000
,
0001
0010
0001
0010
0100
0010
0100
0010
,
0001
0100
0001
0100
1000
0100
1000
0100
,
0001
0100
1000
0100
0001
0010
0100
1000
,
0100
0010
0001
0100
1000
0000
0110
0000
,
0001
0100
1000
0100
0001
0010
0001
0100
,
1000
0100
0001
0010
0100
0010
0100
1000
,
0010
0001
0010
0100
0001
0010
0100
0010
,
0100
1000
0100
1000
0002
0000
0013
0000
,
1100
0000
0001
0110
0000
1001
0000
0000
,
1000
0000
0100
0011
0000
0110
0000
0000
,
1000
0100
1000
0000
0010
0000
0100
0000
0001
0000
0010
0000
0001
0000
1000
0000
,
0000
1000
0010
0001
0010
0000
0100
0000
,
0001
0010
0001
0000
0100
0000
0010
0000
1000
0000
0100
0000
1000
0000
0001
0000
,
0000
0001
0100
1000
0100
0000
0001
0000
,
0010
0100
0010
0000
0100
0000
1000
0000
0100
0000
0010
0000
0001
0000
0010
0000
,
0000
0010
0100
1000
0010
0000
0100
0000
,
0001
0010
0001
0000
0100
0000
1000
0000
0100
0000
0001
0000
0010
0000
0001
0000
,
0000
0001
0010
0100
1000
0000
0110
0000
,
MMMM
0001
1000
0000
0010
0100
0000
0001
,
0010
0000
0000
0000
0100
0000
1000
0000
0000
0000
0010
0000
0100
0010
0100
0000
,
0000
0001
0010
0001
0000
0100
0010
1000
,
0000
0000
1000
0000
0010
0000
0100
0000
0001
0000
0010
0000
0001
1000
0001
0000
,
0000
1000
0001
0000
0100
0010
0000
1000
,
0100
0000
0000
0000
0010
0000
0001
0000
0000
0000
0100
0000
0010
0100
0010
0000
,
0000
1000
0100
1000
0000
0010
0100
0001
,
0000
0001
0100
0010
1000
0100
0010
0100
,
1000
0100
0010
1000
,
0010
0001
0100
0001
,
0100
1000
0100
1000
0100
0001
0010
0001
,
0010
0001
0100
1000
0200
0000
0301
0000
,
1000
0010
0001
0000
1000
0010
0001
0000
,
1000
0010
1000
0100
0001
0000
0010
0000
,
0001
0100
0001
0010
1000
0010
1000
0100
,
0101
0000
0010
1100
0000
1000
0100
0001
,
0100
1000
0000
0001
0000
1000
0000
0001
,
0100
1000
0100
1000
0000
0100
0001
0010
,
0001
0010
0000
0100
1000
0100
0000
1000
,
0001
1000
0001
0010
0000
0100
0010
0100
,
1000
0100
0000
1000
0001
0100
0010
0100
,
0000
0001
0010
0011
0000
1000
0100
0010
,
0100
1000
0000
0010
0110
0000
0001
0000
,
0010
0100
0010
0000
1100
0000
0001
0110
,
0000
1001
0000
0010
1100
0000
0000
0000
,
0000
0000
0000
0000
1010
0000
0001
0110
,
0000
1001
0000
0010
0101
0000
0000
0000
,
0000
0000
0000
0000
0001
0000
0010
1010
,
0000
0101
0000
1100
0010
0000
0100
0011
,
0000
1010
0000
0001
0011
0000
0100
1010
,
0000
0010
0101
0000
0110
0000
1000
0000
,
0001
0000
0100
0010
0000
1000
0100
0000
,
0010
0000
0001
0000
0000
0000
0100
0000
0010
0100
0010
0000
0000
0000
1000
0000
,
0100
1000
0000
0010
0100
0001
0000
0001
,
0100
0000
0010
0000
1000
0000
0100
0000
1000
0001
1000
0000
0000
0000
0001
0000
,
1001
0000
0010
0110
0000
0001
0011
0000
,
0100
0000
1100
0000
0000
0000
0010
0000
0100
0010
0100
0000
0000
0000
0001
0000
,
0010
0000
0001
0000
0100
0000
0010
0000
0000
0000
0010
0000
1000
0100
1000
0000
,
0010
0100
0001
0010
0011
0000
MMMM
1000
,
0010
1000
0001
0010
0000
0010
0001
0100
,
0001
0100
0000
0100
1000
0100
0001
0010
,
0001
0100
0000
0100
1000
0100
0001
0010
,
0001
0010
0002
0000
0013
0000
0100
0001
,
0010
0001
0100
1000
0100
0001
1000
0100
,
0001
0100
1000
0001
0100
0010
1000
0100
,
1000
0100
0001
0100
0001
0100
1000
0010
,
1000
0010
0001
0010
0001
0010
0100
0000
,
0001
0100
1000
0010
,
0001
0000
0100
0001
1000
0000
1000
0010
,
0001
0000
1000
0010
0001
0000
0100
0001
,
0010
0000
0001
0000
0100
0000
0010
0000
0100
0000
0010
0000
1001
2200
0000
0000
,
0000
3300
0000
0000
0000
0000
0000
0000
0000
0000
0000
0000
0000
0000
0000
0000
;

//---------------dance-single - Plasmix edit----------------
#NOTES:
     dance-single:
     Plasmix edit:
     Edit:
     12:
     0.914,0.866,0.402,0.027,0.566,654.000,44.000,3.000,0.000,0.000:
0000
0000
0000
0000
,
0000
0000
0000
0000
,
1000
0000
0001
0000
0100
0010
0100
0000
0010
0000
1000
0000
0001
0100
0001
0000
,
1000
0000
0001
0000
0100
0001
0100
0000
0010
0000
1000
0000
0100
1000
0100
0000
,
1000
0000
0010
0000
0100
0001
0100
0000
0001
0000
1000
0000
0100
0010
0100
0000
,
1000
0000
0001
0000
0010
0100
0010
0000
0001
0000
0100
0000
0010
1000
0010
0000
,
1000
0000
0100
0000
0010
0001
0010
0000
0100
0000
0010
0000
0001
1000
0001
0000
,
0010
0000
0100
0000
1000
0001
1000
0000
0010
0000
0100
0000
0001
1000
0001
0000
,
1000
0000
0010
0000
0100
0010
0100
0000
0001
0000
0100
0000
0010
0100
0010
0000
,
0001
0000
0011
0000
0101
0000
1001
0000
0000
0000
0000
0000
0200
0000
0000
0300
,
1001
0000
0100
0000
0010
0001
0010
0000
0100
0000
1000
0000
1000
0001
1000
0000
,
0010
0000
0100
0000
0001
1000
0001
0000
1000
0000
0010
0000
0100
0001
0100
0000
,
0001
0000
0010
0000
0100
1000
0100
0000
1000
0000
0001
0000
0100
0010
0100
0000
,
0001
0000
1000
0000
0001
1000
0001
0000
1000
0000
0010
0000
0100
0010
0100
0000
,
1000
0000
0100
0000
0010
0100
0010
0000
0001
0000
0010
0000
0100
0010
0100
0000
,
0001
0000
0100
0000
1000
0100
1000
0000
0100
0000
0001
0000
0010
0100
0010
0000
,
0100
0000
1000
0000
0001
0010
0001
0000
0100
0000
0001
0000
1000
0010
1000
0000
,
1000
0000
0001
0000
0010
0100
0010
0000
0001
0000
0100
0000
0010
1000
0010
0000
,
1001
0000
0101
1001
0000
0100
0000
1010
,
1001
0000
0000
0000
0011
0000
0101
0000
0000
0000
0100
0010
1000
0001
0010
0100
,
1000
0000
0100
0000
0010
0001
1000
0000
0100
0000
0010
0000
0001
1000
0010
0000
,
0100
0000
0010
0000
0100
0001
1000
0000
0001
0000
0010
0000
0100
1000
0100
1000
,
0100
0000
0010
0000
0001
0100
0010
0000
1000
0000
0100
0000
0010
0001
1000
0000
,
0010
0000
0100
0000
1000
0100
0010
0000
1000
0000
0100
0000
0010
0001
0010
0001
,
0010
0000
0100
0000
1000
0001
0100
0000
0010
0000
0100
0000
0001
1000
0010
0000
,
1000
0000
0010
0000
0100
0010
1000
0000
0001
0000
0100
0000
0010
0100
0010
0100
,
0010
0000
0100
0000
0001
0010
0100
0000
0010
0000
0100
0000
1000
0100
0010
0001
,
1000
0100
0010
1001
0010
0100
1001
0100
,
1000
0000
0001
0000
0100
0010
1000
0000
0100
0000
0010
0000
0001
1000
0100
0000
,
0010
0000
0001
0000
1000
0100
0010
0000
0001
0000
1000
0000
0010
0100
0010
0100
,
0010
0000
1000
0000
0001
0100
0010
0000
1000
0000
0001
0000
0010
0100
1000
0000
,
0001
0000
0100
0000
0010
0100
0001
0000
1000
0000
0100
0000
0010
0001
0010
0001
,
0010
0000
0100
0000
1000
0001
0100
0000
0010
0000
1000
0000
0001
0010
0100
0000
,
1000
0000
0001
0000
0100
0001
1000
0000
0001
0000
1000
0000
0100
1000
0100
1000
,
0100
0000
0010
0000
0001
0100
0010
0000
1000
0000
0100
0000
0010
0100
1000
0000
,
0100
0000
0010
0000
0001
0010
0100
0000
1000
0001
0010
0100
1000
0001
0010
0100
,
1000
0100
0010
0001
,
1000
0010
0100
0001
,
1000
0100
0001
0010
,
0001
0100
0010
0100
,
1000
0100
1000
0000
0001
0010
0001
0000
,
0100
0010
0100
0000
0001
0100
0001
0000
,
1000
0010
1000
0000
0010
0100
0010
0000
,
1001
0000
0001
0010
0100
0000
1001
0000
0000
0000
1000
0000
0100
0000
0001
0000
,
0100
1000
0100
0000
0000
0001
0010
0100
,
0010
0001
0010
0000
0000
1000
0010
0001
,
0010
1000
0010
0000
0000
0100
0010
0001
,
0010
0100
0010
0000
0000
1000
0100
1000
,
0010
1000
0100
0000
0000
0001
0100
0010
,
0100
0001
0100
0000
0000
0001
1000
0010
,
1000
0001
1000
0000
0000
0001
1000
0100
,
0011
0000
0011
0000
1010
0000
1001
0011
,
0000
0100
0000
0101
1010
0000
0000
0000
,
0000
0000
0000
0000
1001
0000
0110
0101
,
0000
1000
0000
0110
1010
0000
0000
0000
,
0000
0000
0000
0000
1001
0000
1010
0110
,
0000
0001
0000
1100
0110
0000
0011
1100
,
0000
1010
0000
0100
1100
0000
1001
0011
,
0000
0100
0000
0110
1001
0000
1000
0100
,
0010
0001
0010
0000
0001
0000
0010
0000
0100
1000
0100
0000
1000
0000
0001
0000
,
0100
0010
0100
0000
0001
0000
1000
0000
0010
0100
0010
1000
0010
0000
1000
0000
,
0001
0100
0001
0000
0010
0000
0100
0000
1000
0001
1000
0000
0010
0000
1000
0000
,
0100
0010
0100
0000
0010
0000
0001
0000
1000
0100
1000
0100
1000
0000
0100
0000
,
0010
0100
1000
0000
0001
0000
0100
0000
0010
1000
0010
0000
0100
0000
0001
0000
,
0010
0001
0010
0000
0001
0000
0010
0000
0100
1000
0100
1000
0100
0000
0010
0000
,
0001
1000
0001
0000
0100
0000
0010
0000
1000
0001
1000
0100
1000
0000
0100
0000
,
0010
0101
0010
0100
1010
0100
0001
0010
,
0100
1000
0100
0000
1000
0000
0010
0000
0100
0001
0100
0000
0010
0000
0100
0000
,
0001
1000
0010
0000
1000
0000
0100
0000
0010
0001
0100
0001
0010
0000
0100
0000
,
1000
0001
0010
0000
0100
0000
1000
0000
0010
0100
0001
0000
1000
0000
0100
0000
,
0010
0001
0010
0000
0100
0000
1000
0000
0001
0100
0010
1000
0001
0000
0010
0000
,
0100
1000
0100
0000
1000
0000
0010
0000
0100
0001
0100
0000
0001
0000
0010
0000
,
0100
1000
0100
0000
1000
0000
0100
0000
0010
0001
1000
0100
0010
0000
0001
0000
,
1000
0100
0010
0000
0100
0000
1000
0000
0001
0010
0100
0000
1000
0000
0100
0000
,
0010
0001
1000
0100
0010
0001
0100
0001
1000
0100
0010
0100
1000
0000
0000
0000
,
0100
0001
0010
1000
,
0001
0000
0100
0000
0010
0000
1000
0100
,
1000
0000
0100
0000
0010
0000
0001
0000
0010
0000
0001
0000
1000
0100
0010
0001
,
1000
0001
0100
0010
1000
0001
0010
0100
0010
0001
1000
0010
0101
2002
0000
0000
,
0000
3003
0000
0000
0000
0000
0000
0000
0000
0000
0000
0000
0000
0000
0000
0000
;

//---------------dance-single - ----------------
#NOTES:
     dance-single:
     :
     Challenge:
     12:
     0.940,0.868,0.602,0.265,0.429,626.000,66.000,29.000,6.000,6.000:
0000
0000
0000
0000
,
0000
0000
0000
0000
,
1000
0100
1000
0000
0010
0000
0001
0000
0010
0000
1000
0000
0010
0000
0001
0000
,
0010
0100
0001
0000
0010
0000
0001
0000
0100
0000
1000
0000
0100
0000
0001
0000
,
0010
0001
0010
0000
0100
0000
1000
0000
0100
0010
0100
0000
0010
0000
0001
0000
,
1000
0100
1000
0000
0001
0010
0001
0000
0100
0010
0100
0000
0001
1000
0001
1000
,
0001
0010
0001
0010
1000
0010
1000
0010
,
0001
0100
0001
0100
1000
0100
1000
0100
,
0001
0100
1000
0001
0010
1000
0001
0100
,
0220
0000
0000
1001
0000
0330
1001
0000
,
0001
0100
0010
0000
0001
0000
0010
0000
0100
0010
1000
0000
0100
0000
0010
0000
,
0100
0010
0001
0000
1000
0000
0010
0000
0100
0010
1000
0000
0100
0000
0010
0000
,
0001
0100
0010
0000
1000
0000
0100
0000
0010
0001
0010
0000
0100
0000
1000
0000
,
0001
0010
0001
0000
0100
0000
0100
0000
0010
0000
0010
0000
0011
0000
0000
0000
,
0010
1000
0100
0000
0010
0000
0001
0000
0010
0100
0010
0000
0100
0000
1000
0000
,
0010
0100
0001
0000
0010
0000
0100
0000
1000
0100
1000
0000
0010
0000
0100
0000
,
0001
0010
0001
0000
0100
0000
0010
0000
1000
0100
1000
0000
0010
0000
0100
0000
,
0001
0010
0001
0000
0010
0000
0100
0000
1000
0100
1000
0100
0010
0100
0010
0100
,
0010
0000
0010
0011
0000
1100
0000
0010
,
0011
0000
0010
0101
0000
0010
2100
0000
,
3001
0010
0001
0000
0100
0000
0010
0000
0010
1000
0100
0000
0100
0000
0010
0000
,
0100
0010
0100
0000
0100
0000
1000
0000
0001
0010
0001
0000
0100
0010
0100
0000
,
0001
1000
0100
0000
0100
0000
0010
0000
0100
1000
0100
0000
0010
0000
0001
0000
,
0100
0010
0100
0000
0100
0000
0001
0000
0001
0010
0100
0000
0010
0001
0100
0000
,
0010
0100
0010
0000
0010
0000
0100
0000
0100
0001
0010
0000
0010
0000
0100
0000
,
0010
0100
1000
0000
1000
0000
0010
0000
0010
0100
0001
0000
0001
0010
0100
0000
,
1000
0100
1000
0000
1000
0000
0010
0000
0010
0100
0001
0000
0010
0000
0100
0000
,
2002
0000
0000
0110
0000
3003
1001
0000
,
0000
1000
2000
0010
0010
3020
0000
0001
,
0032
0000
0000
0000
0010
0000
0023
0000
0000
0000
1000
0000
1030
0100
1000
0000
,
0000
0110
0100
0001
0100
0010
0100
1000
,
0100
0001
0010
0001
0010
0100
1001
1000
,
0000
0010
0020
0000
0100
0230
0000
1000
,
2300
0000
0100
3200
0000
0010
0310
0110
,
0000
1000
1000
1000
0010
0001
0001
0010
,
1000
0000
1000
0000
0010
0000
0001
0000
0010
0100
0010
0100
0010
0000
1000
0000
,
1100
0000
0100
0000
0010
0000
0001
0000
1000
0100
1000
0000
0010
0000
0001
0000
,
0010
0100
0010
0000
1000
0000
0001
0000
0010
0000
0100
0000
1001
0000
0000
0000
,
0000
0000
1001
0000
0100
1000
0100
0000
0010
0000
0001
0000
0001
0000
0010
0001
,
0100
0000
1000
0000
0100
0000
0010
0100
0001
0000
1000
0000
1000
0000
0000
0000
,
0000
0000
0010
0000
1000
0000
0100
0000
0010
0001
0010
0000
0100
0000
1000
0000
,
0001
0100
0001
0100
0001
0000
0100
0000
1000
0000
0100
0000
1000
0000
0100
0000
,
0001
1000
0001
1000
0001
0000
0100
0010
0100
0000
0001
0010
0001
0000
0100
0000
,
2200
0000
0000
0011
3300
1100
0010
0001
,
1000
0011
0000
1100
0000
0110
0000
0011
,
0100
0000
0010
0100
0010
0000
0002
0000
0000
0000
0013
0000
0100
0000
0010
0000
,
0010
0100
0001
0100
1000
0100
0001
0001
,
1000
1010
0000
0012
0000
1003
0001
0100
,
0001
1000
0001
0100
1000
0100
0001
1000
,
0100
0010
0100
0000
0010
0000
0011
0000
0000
0000
0001
0000
0010
0000
0001
0000
,
1000
0000
0010
0000
0100
0010
1000
0000
0100
0000
1000
0000
0010
0100
0001
0000
,
0010
0010
0010
0000
0110
0000
1100
0101
,
0000
1100
0000
0011
0220
0000
0000
0000
,
1001
0000
0330
0MM0
1001
0000
0100
1010
,
0000
0110
0000
0011
2200
0000
0000
0000
,
0011
0000
3300
MM00
1001
0000
0010
0101
,
0000
0110
0000
1001
0110
0000
1010
0101
,
0000
0011
0000
1100
0110
0000
0101
1010
,
0000
0000
0010
0000
0100
0001
0010
0000
1002
0000
1003
0000
100M
0100
1000
0000
,
0010
0000
0100
0000
0100
0001
0010
0000
0010
0000
0100
0000
0010
0100
0010
0000
,
0010
0000
0100
0000
1000
0100
0010
0000
0010
0100
1000
0000
1000
0001
0010
0000
,
0010
0000
0100
0000
0010
0001
0010
0000
0100
0000
1000
0000
0010
0100
0010
0000
,
0010
0000
1000
0000
1000
0100
0010
0000
0100
1000
0010
0000
0100
0010
0100
0000
,
0100
0000
0010
0000
0010
1000
0100
0000
0100
0000
0010
0000
0100
0010
0001
0000
,
0001
0000
0100
0000
0100
0010
1000
0000
1000
0100
0010
0000
0001
0010
0001
0000
,
0001
0000
0100
0000
0100
0010
1000
0000
0100
0000
0010
0000
2002
0000
0000
0000
,
0000
0110
3003
0000
1001
0000
0000
0110
,
1001
0000
0000
0000
1000
0100
1000
0000
1000
0000
0001
0000
0100
0010
0100
0000
,
0100
0000
0001
0000
0010
0100
0010
0000
0001
0000
1000
0000
0010
0100
0010
0000
,
0100
0100
0010
0020
0000
0001
0032
0010
,
0013
0000
0100
0000
0001
0000
0010
0000
0100
1000
0100
0000
M000
0000
1100
0000
,
0100
0010
0001
0100
1000
0100
0020
0001
,
0031
0000
0010
0000
0000
0000
0100
0000
0001
0010
0001
0000
0001
0000
1000
0000
,
1000
0000
0001
0000
0010
0100
0010
0000
0001
0000
0001
0000
0100
0010
0100
0000
,
0100
0000
0010
0000
0100
1000
0100
0000
0001
0010
0001
0000
1001
0000
0000
0000
,
1000
0010
0001
0010
0110
0000
0010
0100
,
0001
0000
0010
0000
0110
0000
0000
0000
0010
0001
0010
0001
0010
0000
0100
0000
,
1000
0100
0010
0001
0011
0000
0100
1000
,
1000
0000
0100
0000
0001
0000
0001
0000
0100
0000
1000
0000
1100
0220
0000
0000
,
0000
0330
0000
0000
;

//---------------dance-single - Windeu's Edit----------------
#NOTES:
     dance-single:
     Windeu's Edit:
     Edit:
     14:
     1.000,1.000,0.420,0.064,1.000,1080.000,46.000,7.000,0.000,1.000:
0000
0000
0000
0000
,
1000
1000
1000
1000
1000
1000
1000
1000
0100
0100
0100
0100
0100
0100
0100
0100
,
0010
0001
0010
0000
0001
0100
0001
0100
0001
1000
0001
0000
1000
0100
1000
0100
,
0010
0100
0010
0000
0001
0010
0001
0010
0100
0010
0100
0000
1000
0001
1000
0001
,
0100
0010
0100
0000
0001
0010
0001
0010
0100
1000
0100
0000
1000
0010
1000
0010
,
0100
0010
0100
0000
0001
0010
0001
0010
0001
0100
0001
0000
1000
0100
1000
0100
,
0010
0100
1000
0000
0001
0100
0010
0100
0001
0100
0010
0000
1000
0100
0010
0100
,
1000
0100
0010
0000
0001
0010
0100
0010
0001
0010
0100
0000
1000
0010
0100
0001
,
0100
0010
1000
0000
0001
0010
0100
1000
0100
0010
0001
0000
1000
0010
1000
0001
,
0010
0000
0100
2200
0000
3300
0011
0000
,
1000
0010
0100
0000
0001
0010
0001
0010
0001
0010
0001
0000
0100
0010
0100
0010
,
0100
0010
0100
0000
0010
1000
0010
1000
0010
1000
0010
0000
1000
0100
1000
0100
,
1000
0100
1000
0000
0010
0100
0010
0100
0010
0100
0010
0000
1000
0001
1000
0001
,
1000
0001
1000
0000
0001
0100
0001
0100
0001
0100
0001
0000
1000
0100
1000
0100
,
1000
0100
1000
0000
0010
0100
0001
0100
0010
1000
0001
0000
1000
0100
0010
0100
,
1000
0001
0010
0000
0001
0100
0010
0100
0001
1000
0100
0000
1000
0010
0100
0010
,
1000
0001
0010
0000
0001
0010
0001
1000
0010
0100
0001
0000
1000
0100
0010
0100
,
1000
0001
0100
0000
0001
0010
0100
1000
0001
0100
0010
0000
1000
0100
1000
0100
,
0010
0000
0101
1001
0000
0110
0000
1100
,
0011
0000
0000
0000
0110
0000
0011
0000
0000
0000
1000
0000
0001
0100
0001
0000
,
1000
0100
1000
0100
1000
0100
1000
0100
1000
0001
1000
0001
1000
0001
1000
0001
,
0010
0001
0010
0001
0010
0001
0010
0001
0010
0100
0010
0100
0010
0100
0010
0100
,
1000
0001
1000
0001
1000
0001
1000
0001
0100
0001
0100
0001
0100
0001
0100
0001
,
1000
0010
1000
0010
1000
0010
1000
0010
0100
0010
0100
0010
0100
0010
0100
0010
,
0100
0001
0100
0001
0100
0001
0100
0001
1000
0100
1000
0100
1000
0100
1000
0100
,
0010
0001
0010
0001
0010
0001
0010
0001
1000
0010
1000
0010
1000
0010
1000
0010
,
0100
0010
0100
0010
0100
0010
0100
0010
1000
0100
1000
0100
1000
0100
1000
0100
,
1000
0010
0100
0101
0000
1001
1001
0000
,
0000
0000
0110
0000
1001
0000
0000
0000
1000
0100
1000
0100
1000
0001
1000
0001
,
0100
0001
0100
0001
0100
0010
0100
0010
1000
0010
1000
0010
1000
0001
1000
0001
,
1000
0100
1000
0100
0010
0100
0010
0100
0010
0001
0010
0001
0010
0100
0010
0100
,
1000
0001
1000
0001
0010
0100
0010
0100
1000
0100
1000
0100
0010
0001
0010
0001
,
0100
0001
0100
0001
1000
0001
1000
0001
1000
0100
1000
0100
0010
0100
0010
0100
,
1000
0001
1000
0001
0100
0010
0100
0010
1000
0010
1000
0010
0100
0001
0100
0001
,
1000
0100
1000
0100
0010
0001
0010
0001
0100
0001
0100
0001
1000
0010
1000
0010
,
0100
0001
0100
0001
1000
0100
1000
0100
1000
0001
1000
0001
0010
0001
0010
0000
,
0001
0100
0010
0100
0001
0100
0010
0100
0001
0100
0010
0100
0001
0100
0010
0000
,
1000
0100
0010
0100
1000
0100
0010
0100
1000
0100
0010
0100
1000
0100
0010
0000
,
0001
1000
0100
1000
0001
1000
0100
1000
0001
1000
0100
1000
0001
1000
0100
0000
,
1000
0001
0100
0001
1000
0001
0100
0001
1000
0001
0100
0001
1000
0001
0100
0000
,
1000
0100
1000
0001
0100
0001
1000
0100
1000
0001
0100
0001
1000
0100
1000
0000
,
0001
0010
0001
1000
0010
1000
0001
0010
0001
1000
0010
1000
0001
0010
0001
0000
,
1000
0100
1000
0100
0010
0001
0010
0001
0100
0010
0100
0010
0100
0010
0100
0010
,
1000
0000
0000
0000
0100
0000
0011
0000
0001
0100
0001
0100
0001
0100
0001
0100
,
0001
0100
0001
0100
0001
0100
0001
0100
0010
1000
0010
1000
0010
1000
0010
1000
,
0010
1000
0010
1000
0010
1000
0010
1000
0001
0010
0001
0010
0001
0010
0001
0010
,
0001
0010
0001
0010
0001
0010
0001
0010
0100
1000
0100
1000
0100
1000
0100
1000
,
0100
1000
0100
1000
0100
1000
0100
1000
0001
0100
0001
0100
0001
0100
0001
0100
,
0010
1000
0010
1000
0010
1000
0010
1000
0001
1000
0001
1000
0001
1000
0001
1000
,
0100
0010
0100
0010
0100
0010
0100
0010
0001
0010
0001
0010
0001
0010
0001
0010
,
0001
1000
0001
1000
0001
1000
0001
1000
0100
1000
0100
1000
0100
1000
0100
1000
,
0001
0100
0001
0100
0001
0100
0001
0000
1010
0000
0000
0000
0101
0000
0110
0000
,
0000
0000
1010
0000
0000
0000
1100
0000
1000
0100
1000
0100
1000
0100
1000
0100
,
1000
0100
1000
0100
1000
0100
1000
0000
1001
0000
0000
0000
0101
0000
1010
0000
,
0000
0000
0101
0000
0000
0000
1001
0000
0001
0100
0001
0100
0001
0100
0001
0100
,
0001
0100
0001
0100
0001
0100
0001
0000
1001
0000
0000
0000
0101
0000
0110
0000
,
0000
1010
0000
1001
1100
0000
0110
0011
,
0000
0101
0000
1001
1010
0000
0110
1001
,
0000
0000
1000
0000
0001
0100
0001
0000
1010
0000
0101
0000
0100
0001
0100
0001
,
1000
0010
1000
0010
1000
0001
1000
0001
0100
0010
0100
0010
1000
0001
1000
0001
,
1000
0100
1000
0100
0010
0001
0010
0001
0100
0001
0100
0001
1000
0010
1000
0010
,
0100
0010
0100
0010
1000
0001
1000
0001
1000
0100
1000
0100
0010
0001
0010
0001
,
1000
0010
1000
0010
0100
0001
0100
0001
1000
0100
1000
0100
0010
0001
0010
0001
,
1000
0001
1000
0001
0100
0001
0100
0001
1000
0001
1000
0001
0100
0010
0100
0010
,
1000
0010
1000
0010
0100
0010
0100
0010
1000
0010
1000
0010
0100
0001
0100
0001
,
1000
0100
1000
0100
1000
0010
1000
0010
0100
0001
0100
0001
1000
0001
1000
0000
,
0100
0110
0000
0001
1001
0000
0000
1001
,
0110
0000
0000
0000
1000
0100
1000
0100
1000
0001
1000
0001
0010
0001
0010
0001
,
0100
0010
0100
0010
1000
0010
1000
0010
0100
0010
0100
0010
0100
0001
0100
0001
,
1000
0100
1000
0100
0010
0001
0010
0001
1000
0100
1000
0100
1000
0001
1000
0001
,
0010
0001
0010
0001
1000
0010
1000
0010
0100
0001
0100
0001
1000
0100
1000
0100
,
1000
0001
1000
0001
0010
0100
0010
0100
1000
0001
1000
0001
0100
0010
0100
0010
,
1000
0001
1000
0001
0100
0001
0100
0001
1000
0010
1000
0010
0100
0001
0100
0001
,
1000
0100
1000
0100
0010
0001
0010
0001
1000
0100
1000
0100
0010
0100
0010
0100
,
0010
0001
0010
0001
1000
0010
1000
0010
0200
0000
0301
0000
1000
0100
1000
0100
,
1000
0100
1000
0100
0010
0001
0010
0001
0010
0001
0010
0001
0100
0001
0100
0001
,
0100
0001
0100
0001
1000
0100
1000
0100
1000
0100
1000
0100
0010
0001
0010
0100
,
1000
0001
0100
0010
0100
0001
1000
0100
0010
0100
1000
0001
0100
0001
1000
0010
,
0100
0010
1000
0001
0100
0001
1000
0100
0010
0100
1000
0000
2200
0022
0000
0000
,
3333
0000
0000
0000
;
