#TITLE:Spiral Galaxy;
#SUBTITLE:;
#ARTIST:DJ Setup;
#TITLETRANSLIT:;
#SUBTITLETRANSLIT:;
#ARTISTTRANSLIT:;
#CREDIT:;
#BANNER:spiralgalaxy5vi.png;
#BACKGROUND:spiralgalaxybg8zv.png;
#LYRICSPATH:;
#CDTITLE:!cdtitle.png;
#MUSIC:spiral galaxy.mp3;
#OFFSET:0.520;
#SAMPLESTART:13.520;
#SAMPLELENGTH:12.000;
#SELECTABLE:YES;
#BPMS:0.000=154.000;
#STOPS:;
#BGCHANGES:;
// cache tags:
#FIRSTBEAT:4.000;
#LASTBEAT:324.000;
#SONGFILENAME:Songs/Fabulously Fresh Flock of Fantastic Files F5/(Gamepro) Spiral Galaxy/Spiral Galaxy.sm;
#HASMUSIC:1;
#HASBANNER:1;
#MUSICLENGTH:131.999;
// end cache tags

//---------------dance-single - ----------------
#NOTES:
     dance-single:
     :
     Hard:
     12:
     1.000,1.000,1.000,0.008,1.000,1062.000,164.000,1.000,0.000,0.000:  // measure 1
0000
0000
0000
0000
,  // measure 2
1000
0100
0010
0100
1000
0001
0100
0010
1000
0100
1000
0001
0100
0010
0100
0001
,  // measure 3
1000
0100
0010
0001
0100
0010
1000
0001
0010
0001
0100
0010
1000
0001
0010
0100
,  // measure 4
0010
0001
0100
0010
1000
0100
1000
0001
0010
0100
0010
0001
1000
0010
0100
0010
,  // measure 5
1000
0001
0100
0010
1000
0100
0010
0001
0100
0010
0100
0001
0010
0100
1000
0100
,  // measure 6
1100
0000
0011
0000
0010
0100
1000
0010
0000
0101
0000
1000
0100
0010
0100
1000
,  // measure 7
0110
0000
0101
0000
1000
0010
0100
0010
0000
1100
0000
0001
0100
0010
1000
0100
,  // measure 8
0011
0000
1010
0000
0100
0001
1000
0100
0000
1100
0000
0010
0100
0001
1000
0100
,  // measure 9
0101
0000
1010
0000
0010
0100
0001
0010
0000
0011
0000
0001
0010
0100
1000
0010
,  // measure 10
1010
0000
0100
0000
0011
0000
0100
1000
0000
0010
0100
0000
0001
0100
0010
1000
,  // measure 11
0101
0000
1000
0000
0110
0000
0100
1000
0000
0010
0100
0000
0001
1000
0100
0010
,  // measure 12
1100
0000
0010
0000
0101
0000
1000
0100
0000
0010
0001
0000
1000
0010
0100
0001
,  // measure 13
1100
0000
0010
0000
0110
0000
0001
1000
0000
0100
0010
0000
0001
1000
0010
0100
,  // measure 14
0101
0000
0001
0000
1100
0000
0010
0100
0000
0001
0010
0000
0100
1000
0010
0100
,  // measure 15
0011
0000
1000
0000
0110
0000
0001
1000
0000
0100
0010
0000
0100
1000
0010
0100
,  // measure 16
0110
0000
0010
0000
1100
0000
0010
0100
0000
0001
1000
0000
0100
0010
0001
1000
,  // measure 17
0120
0000
0000
0000
0000
0000
0000
0000
0000
0000
0000
0000
0000
0000
0000
0030
,  // measure 18
1001
0100
0010
0000
0011
0100
0000
1000
0110
0001
1000
0010
0101
1000
0100
1000
,  // measure 19
0011
1000
0010
0000
1010
0100
0000
0001
1100
0010
0001
1000
0110
0001
1000
0100
,  // measure 20
0011
0100
1000
0000
0110
0001
0000
1000
0110
0001
1000
0100
0011
1000
0010
0100
,  // measure 21
1001
0100
0010
0000
0011
0100
0000
1000
0110
0001
1000
0100
1001
0010
0100
0001
,  // measure 22
1100
0010
0001
0000
1010
0100
0000
0001
1100
0010
0001
1000
0110
0001
1000
0100
,  // measure 23
0011
1000
0010
0000
0101
1000
0000
0010
0101
1000
0100
0010
1001
0100
0010
0001
,  // measure 24
1100
0010
0001
0000
0101
0010
0000
1000
0101
0010
1000
0100
0011
1000
0001
0100
,  // measure 25
1001
0010
0100
0000
1100
0010
0000
0001
1010
0100
0001
0010
1001
0010
0100
0010
,  // measure 26
1001
0000
1100
0000
0010
0100
0001
0000
1000
0000
0101
0000
0010
1000
0001
0000
,  // measure 27
1000
0000
0110
0000
0001
0100
0000
0010
0000
1000
0100
1000
0001
0100
0010
1000
,  // measure 28
1100
0000
0010
0000
0100
0001
0010
0000
0100
0000
1010
0000
0100
0001
1000
0000
,  // measure 29
0100
0000
0011
0000
1000
0010
0000
0100
0000
0001
1000
0100
1000
0010
0100
0001
,  // measure 30
0110
0000
1000
0000
0100
0010
0001
0000
1000
0000
0110
0000
0001
1000
0100
0000
,  // measure 31
0010
0000
1100
0000
1000
0010
0000
0100
0000
0001
0100
0010
1000
0100
1000
0010
,  // measure 32
0101
1000
0100
0000
1000
0010
0000
0100
0001
1000
0100
1000
0010
0100
0001
1000
,  // measure 33
0011
1000
0010
1000
0100
1000
0010
1000
0001
1000
0010
1000
0001
1000
0100
1000
,  // measure 34
0101
1000
0100
1000
0010
0100
0001
0100
0010
1000
0001
0010
0100
1000
0010
0100
,  // measure 35
0001
1000
0100
1000
0010
0100
0001
0010
0001
0100
0010
1000
0010
0100
0001
0010
,  // measure 36
0100
0010
0001
1000
0010
0100
0010
1000
0001
0100
0010
1000
0100
1000
0010
0100
,  // measure 37
0001
0010
0100
1000
0001
0100
0010
1000
0010
0100
0001
1000
0100
1000
0010
0100
,  // measure 38
1001
0100
0010
0100
1000
0001
0100
0010
0100
0001
1000
0100
0010
0001
0100
0010
,  // measure 39
1000
0100
1000
0010
0100
0001
0010
0100
1000
0001
0100
0010
1000
0010
0100
0010
,  // measure 40
1000
0100
1000
0010
0100
0001
0010
0100
1000
0010
0100
0001
1000
0100
0010
0100
,  // measure 41
1000
0001
0100
0010
1000
0010
0100
0001
1000
0100
0010
0001
0100
0010
0100
0001
,  // measure 42
0110
1000
0100
0010
0001
1000
0010
0100
0001
0100
0010
1000
0001
1000
0100
1000
,  // measure 43
0010
0100
0001
1000
0001
0100
0010
1000
0100
1000
0010
0100
0001
1000
0100
0010
,  // measure 44
0100
1000
0001
0010
0100
1000
0010
0100
0001
1000
0100
1000
0010
0100
0001
0010
,  // measure 45
0100
1000
0010
0100
0001
0010
0100
1000
0100
0010
0001
1000
0010
0100
0001
1000
,  // measure 46
0101
1000
0000
0000
0110
0000
0001
0000
1100
0000
0000
0010
0100
0000
0000
0000
,  // measure 47
0101
1000
0100
1000
0010
0100
0001
0010
0100
0010
0001
1000
0010
0100
0001
1000
,  // measure 48
0110
0001
0000
0000
1100
0000
0010
0000
0101
0000
0000
1000
0100
0000
0000
0000
,  // measure 49
1010
0100
0001
1000
0100
0010
0100
1000
0001
0100
0010
1000
0001
0010
0100
1000
,  // measure 50
0011
0000
0100
0000
0010
1000
0001
0100
0010
1000
0100
0000
1000
0010
0100
0001
,  // measure 51
1000
0000
0100
0000
1000
0010
0100
0001
1000
0100
1000
0000
0010
0100
0001
1000
,  // measure 52
0100
0000
1000
0000
0010
0100
0001
1000
0100
0010
0001
0000
1000
0010
0100
0001
,  // measure 53
1000
0000
0100
0000
0010
0100
1000
0010
0100
0001
1000
0000
0001
0100
0010
1000
,  // measure 54
0001
0000
1000
0000
0100
0010
0100
1000
0010
0100
0001
0000
1000
0100
0010
0001
,  // measure 55
1000
0000
0010
0000
0100
0001
1000
0100
0010
0001
0100
0000
0010
1000
0001
0100
,  // measure 56
0010
0000
1000
0000
0001
0010
0100
1000
0100
0010
0001
0000
1000
0010
0100
0010
,  // measure 57
1000
0000
0001
0000
1000
0100
1000
0010
0100
0001
0010
0000
0100
1000
0010
0100
,  // measure 58
1001
0000
0100
0000
0010
0100
1000
0010
0100
0001
1000
0000
0100
1000
0010
0100
,  // measure 59
0010
0000
0100
0000
0001
1000
0100
1000
0010
0100
0001
0000
1000
0100
0010
0100
,  // measure 60
1000
0000
0010
0000
0100
0001
1000
0100
1000
0010
0100
0000
0010
0100
0001
1000
,  // measure 61
0110
0001
1000
0100
0011
1000
0010
0100
1001
0100
0010
0001
1100
0010
0100
0001
,  // measure 62
1010
0000
0100
0000
0011
1000
0010
0100
1001
0100
0010
0000
0011
0100
1000
0010
,  // measure 63
0101
0000
1000
0000
0110
0001
1000
0010
0101
1000
0100
0000
0011
1000
0100
0010
,  // measure 64
1001
0000
0010
0000
0101
1000
0010
0100
1001
0100
0001
0000
1100
0010
0001
1000
,  // measure 65
0110
1000
0010
1000
0010
1000
0010
1000
0010
0000
0010
0000
0010
0100
0000
0100
,  // measure 66
1001
0100
0010
0001
1010
0100
0001
1000
0110
0000
0001
0000
1010
0100
0000
0001
,  // measure 67
1100
0010
0001
1000
0110
0001
1000
0100
0011
0000
1000
0000
0110
0001
0000
1000
,  // measure 68
0110
0001
1000
0010
0101
1000
0100
0010
1001
0000
0100
0000
0011
0100
0000
1000
,  // measure 69
0011
0100
1000
0010
0101
1000
0010
0100
1001
0000
0010
0000
0101
1000
0000
0100
,  // measure 70
0011
1000
0010
0100
1001
0100
0010
0001
1100
0000
0010
0000
0101
0010
0000
1000
,  // measure 71
0110
0001
1000
0010
0101
1000
0010
0100
1001
0000
0010
0000
1100
0001
0000
0010
,  // measure 72
1100
0001
0100
0010
1001
0010
0100
0001
1100
0000
0010
0000
0101
1000
0000
0100
,  // measure 73
0011
1000
0010
0100
1001
0100
0010
0001
1100
0000
0010
0000
0101
0010
0000
1000
,  // measure 74
0011
0100
0010
0001
1100
0010
0001
1000
0110
0000
0001
0000
1010
0100
0000
0010
,  // measure 75
0101
1000
0010
0100
1001
0100
0010
0001
1100
0000
0010
0000
0101
1000
0000
0010
,  // measure 76
1001
0100
0010
0001
1100
0010
0100
1000
0110
0000
0001
0000
1100
0010
0000
0001
,  // measure 77
1100
0010
0100
0001
0110
1000
0100
0010
1001
0000
0010
0000
1100
0001
0000
0100
,  // measure 78
1010
0100
0001
1000
0110
0001
1000
0100
0011
0000
1000
0000
0110
0001
0000
1000
,  // measure 79
0011
0100
0010
0001
1100
0010
0001
1000
0110
0000
0001
0000
1100
0010
0000
0010
,  // measure 80
1001
0100
0010
0001
1000
0010
0100
0001
1100
0010
0001
1000
0010
0100
0001
1000
,  // measure 81
0010
0100
1001
0100
0010
0100
1001
0010
0100
0010
1001
0100
0010
0100
1001
0010
,  // measure 82
1001
0000
0000
0000
;
