#TITLE:Discode(alternative ver.);
#SUBTITLE:;
#ARTIST:Xaki;
#TITLETRANSLIT:;
#SUBTITLETRANSLIT:;
#ARTISTTRANSLIT:;
#CREDIT:;
#BANNER:;
#BACKGROUND:;
#LYRICSPATH:;
#CDTITLE:;
#MUSIC:Discode (Alternative ver.).ogg;
#OFFSET:-0.260;
#SAMPLESTART:268.032;
#SAMPLELENGTH:12.000;
#SELECTABLE:YES;
#BPMS:0.000=66.745,23.000=64.996,33.000=129.997,473.000=66.600,487.000=130.020,619.000=130.100;
#STOPS:;
#BGCHANGES:;
// cache tags:
#FIRSTBEAT:1.000;
#LASTBEAT:660.000;
#SONGFILENAME:Songs/SSSC Pack 2/Discode (alternative ver.) - [NIQ9]/Discode.sm;
#HASMUSIC:1;
#HASBANNER:0;
#MUSICLENGTH:331.842;
// end cache tags

//---------------dance-single - NIQ9----------------
#NOTES:
     dance-single:
     NIQ9:
     Challenge:
     11:
     0.861,0.820,0.274,0.353,1.000,1792.000,91.000,117.000,0.000,0.000:
0000
0000
0000
1001
0100
0100
1010
0001
0000
1100
0010
0010
,
1001
0200
0300
1010
0100
0100
1001
0002
0003
1100
0000
0000
,
1001
0000
0202
0000
0303
0000
0001
0000
1000
0100
0010
0000
0001
0000
0010
0000
0100
0000
1000
0000
0010
0000
0100
0000
,
1000
0001
0010
2000
0000
0000
3000
0001
0010
0100
0100
0100
,
1000
0100
0001
0000
0100
1000
0020
0000
0130
0001
0010
0000
0100
0000
1000
0000
0001
0000
0100
0000
1000
0000
0001
0000
,
0010
0000
1000
0000
0100
0000
0020
0000
0001
0000
0001
0000
0031
0000
1000
0010
0100
0001
0020
0000
0000
0000
0000
0000
,
1000
0000
0000
0000
0000
0000
0100
0000
0000
0000
0000
0000
0031
0000
0020
0000
0230
0000
1300
0001
0010
0100
0100
0010
,
0010
0000
0000
0000
0000
0000
0000
0000
0001
0000
0000
0000
0000
0000
0000
0000
0001
0000
0000
0000
0000
0000
0000
0000
1000
0000
0000
0000
0000
0000
0000
0000
1000
0000
0000
0000
0000
0000
0000
0000
0010
0000
0000
0000
0000
0000
0000
0000
0200
0000
0000
0000
0000
0000
0000
0000
0000
0000
0000
0000
0000
0000
0000
0000
0000
0000
0000
0000
0000
0000
0000
0000
0000
0000
0000
0000
0000
0000
0000
0000
0000
0000
0000
0000
0000
0000
0000
0000
0000
0000
0000
0000
0000
0000
0000
0000
0000
0000
0000
0000
0000
0000
0000
0000
0000
0000
0000
0000
0000
0000
0000
0000
0000
0000
0000
0000
0000
0000
0000
0000
0000
0000
0000
0000
0000
0000
0000
0000
0000
0000
0000
0000
0301
0000
0000
0000
0000
0000
1000
0000
0000
0000
0000
0000
0002
0000
0000
0000
0000
0000
0000
0000
0000
0000
0000
0000
0000
0000
0000
0000
0000
0000
0000
0000
0000
0000
0000
0000
0000
0000
0000
0000
0000
0000
0000
0000
0000
0000
0000
0000
0000
0000
0000
0000
0000
0000
0000
0000
0000
0000
0000
0000
,
0000
0000
0000
0000
1003
0100
0010
0001
0010
0001
1000
0000
0010
1000
0001
0000
,
0010
0000
0100
1000
0010
0000
0100
0000
0010
1000
0001
0000
0010
0000
0001
0000
,
1000
0100
1000
0000
0010
0000
0100
0000
0001
1000
0001
0000
1000
0000
0100
0000
,
0010
0001
0010
0000
0001
1000
0100
1000
0020
0000
0000
0000
0100
0000
0100
0000
,
0000
0000
0000
0000
2030
0000
0000
0002
3000
0000
0020
0003
0200
0030
1300
0001
,
0100
0000
0001
1000
0100
0000
0010
0000
0001
0000
0010
0000
0100
0000
1000
0000
,
0001
0100
0010
0100
0001
1000
0010
0100
,
0001
0000
0010
0000
0200
0000
0000
0000
0300
0000
0000
0000
1000
0100
0010
0100
,
1000
0010
0100
0001
0010
0100
1000
0100
1000
0100
0010
0001
1000
0000
0000
1001
,
0000
0000
0001
0000
0100
0010
1000
0001
0000
0000
0010
0100
1000
0000
0000
0000
,
0001
0000
0000
0000
1000
0010
1000
0001
0000
1000
0010
0100
0001
1000
0100
0010
,
0100
1000
0001
0010
0100
1000
0100
0010
0000
0000
0001
1000
0000
0000
0000
0000
,
0010
0000
0000
0000
0100
0010
0100
0001
0000
0000
1000
0100
0010
0001
0000
1000
,
0100
0000
1000
0000
0010
0100
0010
1000
0000
0000
0001
0010
0001
0000
0000
0000
,
1000
0000
0100
1000
0100
0010
0001
1000
0000
0000
0001
0100
0001
1000
0100
0010
,
0001
0000
0000
0000
1000
0010
0100
0001
0000
0000
1000
0001
0000
0000
0000
1000
,
0100
0000
0000
0000
0000
0000
1000
0000
0001
0000
1000
0000
0001
0000
0000
0000
0000
0000
0000
0000
0000
0202
0000
0000
0000
0000
0000
0303
0000
0000
0010
0000
0000
0000
0000
0000
1000
0000
0000
0000
0000
0000
0001
0000
0000
2000
0000
0000
,
0100
0000
3001
1000
0001
1000
0010
1000
0001
0100
0010
0100
0001
0100
0010
1000
,
0001
1000
0010
1000
0001
0100
0010
0100
0001
1000
0010
1000
0001
0100
0010
1000
,
0001
1000
0010
0100
0001
1000
0100
0010
0100
1000
0001
0010
0100
0010
0001
0010
,
0100
1000
0100
0010
0100
1000
0001
0010
0100
1000
0100
0010
0001
0010
0100
0010
,
0001
0010
0100
1000
0001
1000
0010
1000
0001
0100
0010
0100
0001
1000
0001
0010
,
0100
1000
0100
0010
0001
1000
0010
1000
0001
0100
0010
0100
0001
1000
0100
0010
,
0001
0010
0100
1000
0001
0000
0000
2020
0000
3030
0010
0000
0100
0000
0000
0202
,
0000
0000
0000
0303
0000
0000
1000
0000
0000
0000
0000
0000
0100
0000
0000
0000
0000
0000
0000
0000
0000
2200
0000
0000
0000
0000
0000
3300
0000
0000
1000
0000
0000
0000
0000
0000
0001
0000
0000
0000
0010
0000
0000
0000
0100
0000
0000
0000
,
1000
0000
0000
0000
0002
0000
0000
0000
1000
0000
1000
0000
0000
0010
0000
0000
,
0010
0000
0100
0000
1000
1000
0000
0000
,
0013
0000
0000
0000
0100
1000
0100
0010
0001
0010
0100
1000
0100
0010
0001
0010
,
0100
1000
0100
0010
0001
1000
0001
1000
0010
1000
0001
0100
0010
1000
0100
0010
,
0001
0100
0010
1000
0100
1000
0100
0000
1000
0001
1000
0000
0001
0100
0001
0000
,
0100
0010
0100
0000
0010
1000
0010
0000
1000
0001
1000
0000
0010
0100
0010
0000
,
1000
0001
1000
0000
0002
0000
0000
0000
0000
0000
0000
0000
0000
0000
1003
0000
,
0010
0000
0100
0000
0001
0000
1000
0001
1000
0000
0001
0010
0100
0000
1000
0001
,
1000
0000
0010
0000
0100
0001
0010
0100
0010
0100
1000
0010
0100
0001
0010
0100
,
1000
0100
0010
0001
1000
0010
1000
0001
0100
0010
0100
0001
1000
0010
1000
0001
,
0100
0010
0100
0001
1000
0001
0010
0100
1000
0100
0010
0001
1000
0010
1000
0001
,
0100
0010
0100
0001
1000
0100
0010
0100
0010
0001
0010
0100
1000
0100
0010
0100
,
1000
0100
0010
0001
1000
0010
1000
0001
0100
0010
0100
0001
1000
0100
0010
0001
,
1000
0001
1000
0001
1000
0010
0100
0001
0100
0010
0100
0001
1000
0100
0010
0001
,
0010
0100
0010
0001
1000
0100
0010
0001
0010
0100
1000
0100
0010
0100
1000
0001
,
1000
0010
0100
0001
0101
0000
0101
0000
0000
0000
0000
0000
1001
0000
1001
0000
,
0000
0000
1000
0100
0010
0001
0010
0001
1000
0010
1000
0010
0100
0000
0100
0000
,
0100
0010
1000
0100
0010
0001
0010
0100
1000
0100
0010
0100
1000
0010
1000
0001
,
0100
0010
0100
0001
1000
0010
1000
0001
0100
0010
0100
0001
1000
0100
0010
0100
,
1000
0001
0010
0100
1000
0100
0010
0001
0010
0100
0010
0001
0010
0100
1000
0100
,
0010
0001
0100
0010
1000
0001
1000
0010
1000
0001
1000
0100
0010
0001
1000
0001
,
1000
0010
1010
0100
1001
0010
1001
1000
,
1100
0000
0001
0000
0012
0000
1000
0003
1020
0000
0100
0030
2001
0000
3001
1000
,
0100
0000
0010
0000
1001
0000
0000
0101
0000
0000
0001
0100
0010
0000
0000
1010
,
0000
0000
0000
0000
0000
0000
1000
0000
0000
0100
0000
0000
0010
0000
0000
0001
0000
0000
1000
0000
0000
0010
0000
0000
0100
0000
0000
0001
0000
0000
0010
0000
0000
0100
0000
0000
1000
0000
0000
0100
0000
0000
1000
0000
0100
0000
1000
0000
,
0100
1000
0100
0010
0001
0000
1000
0010
0000
0000
1000
0010
1000
0000
0010
1000
,
0000
0000
0010
1000
0010
0000
1000
0010
0000
0000
1000
0010
1000
0000
0010
0000
,
1000
0000
0001
0000
0010
0000
0001
0010
0000
0000
0001
0010
0001
0000
0010
0001
,
0000
0000
0001
0010
0001
0000
0010
0001
0000
0000
0010
0001
2000
0000
0000
0000
,
3020
0000
0000
0000
0230
0000
0000
0300
1001
0000
0000
0000
0001
0000
0000
0000
1000
0000
0000
0000
0100
0000
0000
0000
0010
0000
0000
0000
0001
0000
0000
0000
,
1000
0000
1001
0000
0002
0000
0000
0000
0000
0000
1003
0100
0010
0001
0010
0000
,
0001
0000
1000
0010
1000
0000
0010
0000
0100
0000
0001
0000
0020
0000
0000
0000
,
0230
0000
0320
0000
0031
1000
0010
0100
,
0001
0000
1000
0000
0100
0010
0001
1000
0020
0000
0000
0000
0100
0000
0100
0000
,
0000
0000
0030
1000
0002
0000
0000
0023
0000
0000
0200
0030
0320
0000
0031
1000
,
0010
0000
0100
0001
1000
0100
1000
0000
0001
1000
0001
0000
0100
0010
0100
0000
,
0001
0100
0001
0000
1000
0100
1000
0000
0001
0010
0001
0000
0010
0100
0010
0000
,
0100
1000
0100
0000
1000
0100
0010
0001
0010
0100
1000
0010
0100
0001
0100
0010
,
0100
0000
0010
0000
1000
0000
0010
0000
0100
0000
0001
0000
0200
0000
0000
0000
0000
0000
0000
0000
0000
0000
0000
0000
0000
0000
0000
0300
0000
0000
1001
0000
0000
0000
0000
0000
0002
0000
0000
0000
0000
0000
0000
0000
0000
0000
0000
0000
,
0003
1001
1000
0100
0010
0100
2000
0000
,
3020
0000
0000
0000
0230
0000
0000
0000
0301
0000
1000
0001
1000
0010
0100
0001
,
1000
0100
0010
0001
0010
0000
0001
0000
0100
0000
0020
0000
0000
0000
1030
0000
,
0100
0000
0020
0000
0000
0000
0130
0000
0010
0000
0001
0000
1000
0000
0001
1000
,
0010
2000
3000
0001
0010
0100
0000
2000
,
0000
3020
0000
0000
0130
0000
0001
0000
0010
0000
0100
0000
1000
0000
0001
1000
,
0010
0000
1000
0000
0002
0000
0000
0000
0000
0000
1003
0010
2000
0000
0000
3000
,
0001
0000
0000
0000
0001
0000
0000
2020
0000
3030
1000
0000
0001
0000
0000
2002
,
0000
3003
1000
0000
0100
0010
0100
1000
0001
0010
0001
0010
0100
0010
0001
1000
,
0100
0010
0100
1000
0100
0010
0001
1000
0010
1000
0001
0100
0001
0100
0100
0010
,
1000
1000
0001
0010
0001
1000
0100
0010
0100
1000
0001
0010
0100
1000
0001
1000
,
0010
0100
0001
0100
0010
0100
0001
1000
0100
0010
0100
1000
0001
0010
0100
1000
,
0100
0010
0001
1000
0001
1000
0001
1000
0010
0100
0010
1000
0100
0010
0001
1000
,
0001
0100
0001
0010
0100
1000
0100
0010
0001
1000
0100
1000
0001
1000
0010
0100
,
0001
1000
0100
0010
0001
0000
0000
2002
0000
3003
1000
0000
0010
0000
0000
2002
,
0000
0000
0000
3003
0000
0000
0001
0000
0000
0000
0000
0000
0100
0000
0000
0000
0000
0000
0000
0000
0000
0202
0000
0000
0000
0000
0000
0303
0000
0000
0001
0000
0000
0000
0000
0000
1000
0000
0000
0000
0100
0000
0000
0000
0010
0000
0000
0000
,
0002
0000
0000
0000
1003
0000
0001
0010
0001
0000
1000
0010
1000
0000
0010
0100
,
0010
0000
0100
0000
0002
0000
0000
0000
1003
0000
0100
0010
0002
0000
0000
0000
,
0003
0000
1000
0010
0100
0001
0100
0001
1000
0001
1000
0001
1000
0100
1000
0100
,
0010
0100
0010
0100
1000
0001
1000
0001
0100
0010
0100
0010
1000
0010
1000
0010
,
0100
0001
1000
0001
0011
0000
0010
0000
1001
0000
1000
0000
1010
0000
0100
0000
,
1001
0000
0010
0000
0201
0000
0010
0300
2010
0000
0010
3000
1020
0000
0130
0001
,
2000
0000
0001
3000
1001
0000
0000
0011
0000
0000
0010
0000
0100
0000
1000
0000
,
0100
0000
0010
0000
0100
0000
0010
0001
1000
0000
1000
0001
0100
0000
0100
0000
,
0001
0000
1000
0000
0100
1000
0100
1000
0001
0010
0001
0010
0100
1000
0100
1000
,
0010
1000
0001
0100
0010
1000
0001
0100
0010
1000
0001
0010
0100
1000
0100
0010
,
0001
1000
0100
1000
0010
1000
0001
1000
0010
0100
0010
1000
0001
0010
0100
1000
,
0100
0010
0001
1000
0010
1000
0001
0100
0010
0100
0001
1000
0010
0100
0001
1000
,
0100
0010
0100
1000
0001
0000
0000
1001
0000
0000
1000
0000
0010
0000
0100
0001
,
0010
0000
0001
1000
0001
0010
0001
1000
0100
1000
0001
1000
0010
0100
0010
1000
,
0001
1000
0010
1000
0001
0100
0001
1000
0100
1000
0001
0010
0001
1000
0100
1000
,
0001
0100
0001
1000
1001
0000
1001
0000
0000
0000
0000
0000
1010
0000
1010
0000
,
1000
0010
1000
0010
0100
0001
0010
0100
1000
0100
0010
0001
1000
0000
0010
0000
,
0100
0001
0100
0001
1000
0100
0010
0100
1000
0001
0010
0100
1000
0100
0010
0001
,
1000
0010
1000
0001
0100
0010
0100
0001
0100
0010
1000
0010
1000
0001
1000
0100
,
0010
0001
0010
0100
1000
0010
1000
0001
0100
0010
0100
0001
1000
0100
0010
0001
,
0010
0100
1000
0001
0100
0010
0100
0010
0100
0010
0100
0010
0100
0010
0100
0000
,
0001
0010
1001
0100
1010
0100
1001
0100
,
1001
0000
0010
0000
0210
0000
0001
0300
1002
0000
1000
0003
2100
0000
0100
3000
,
0110
0000
0001
0000
1000
0000
0000
2020
0000
3030
0010
0100
0001
0000
0000
2002
,
0000
0000
0000
3003
0000
0000
0100
0000
0000
0000
0000
0000
0010
0000
1000
0000
0010
0000
0100
0000
0001
0000
0100
0000
0010
0000
1000
0000
0010
0000
0100
0000
0001
0000
0100
0000
0010
0000
0000
1000
0000
0000
0010
0000
0000
0100
0000
0000
,
0001
1000
0100
0010
0001
0000
1000
0000
0001
0000
0000
1000
0100
0000
0010
0000
,
0100
1000
0002
0000
0103
0010
0200
0000
,
0300
0000
0001
0000
1000
0000
0100
0000
0010
0000
0001
1000
0001
0000
1000
0000
,
0010
0100
0002
0000
2003
0000
3200
0000
,
0310
0010
0021
0032
2003
3020
0230
0000
,
0302
0000
0000
2003
0000
0000
3100
0000
0000
0000
0000
0000
1000
0000
0001
0100
0001
0000
1000
0000
0010
0100
0010
0000
,
1000
0000
0001
1000
0001
0010
0100
0000
0010
0100
0010
0000
0001
0000
1000
0010
1000
0000
0001
0000
0100
0001
0100
0000
,
0010
0000
1000
0000
0001
0000
0000
0000
1000
0000
0100
0000
0020
0000
0000
0000
0000
0000
0000
0000
0000
0000
0000
0000
0031
0000
1000
0000
0100
0010
0001
1000
0100
1000
0001
0010
0200
0000
0000
0000
0000
0000
0000
0000
0000
0000
0000
0000
,
1300
0000
0000
0000
0001
0000
0000
0000
0100
0000
0000
0000
0001
0000
0000
0000
0000
0000
0100
0000
0010
0000
0000
0000
1000
0000
0000
0000
0001
0000
1000
0000
0010
0000
1000
0000
0100
0000
0000
0000
0000
0000
0000
0000
0000
2200
0000
0000
,
0000
3300
1000
0000
0001
0000
0000
0202
0000
0303
1000
0000
0010
0000
0000
0220
,
0000
0000
0000
0330
0000
0000
0100
0000
0000
0000
0000
0000
0001
0000
0000
0000
0100
0000
0000
0000
0010
0000
0000
0000
2000
0000
0000
0000
0000
0000
0000
0000
0000
0000
0000
0000
3001
0000
0000
0000
0000
0000
0010
0000
0000
0000
0000
0000
,
0100
1000
0100
0010
0001
1000
0020
0000
,
1030
0000
0001
0010
0002
0000
0000
0000
1003
0000
0000
0000
0010
1000
0010
1000
,
0010
1000
0010
1000
0010
1000
0010
1000
0010
1000
0010
1000
0001
0000
0010
0000
,
0100
0000
1000
0000
0002
0000
0100
0000
2003
0000
0100
0000
3001
0000
1000
0010
,
1000
0000
0001
0100
0001
0000
1000
0100
1000
0000
0001
0010
0001
0000
0010
0100
,
0010
0000
0100
1000
0100
0000
1000
0001
1000
0000
0001
0100
0001
1000
0100
1000
,
0001
0010
0001
1000
0010
1000
0001
0100
0001
1000
0100
0010
0001
0000
0000
0000
,
0011
0000
0000
0000
1001
0000
0000
0000
1100
0000
1000
0000
0001
0100
0001
1000
,
0100
0000
0000
1000
0000
0000
0100
0000
0000
0010
0000
0000
0001
0000
0000
0010
0000
0000
0001
0000
0000
1000
0000
0000
0010
0000
0000
1000
0000
0000
0010
0000
0000
0100
0000
0000
0001
0000
1000
0000
0010
0000
1000
0000
0001
0000
0100
0000
,
0001
1000
0100
0010
0001
1000
0001
0000
1000
0000
0010
0100
0001
1000
0001
0010
,
0100
0010
0001
1000
0100
0010
0100
1000
0001
0010
0100
1000
0100
0010
0100
1000
,
0001
1000
0010
1000
0001
0100
0010
0100
0001
1000
0010
1000
0010
0100
0001
0100
,
0010
1000
0001
1000
0100
0010
0100
1000
0001
0010
0100
0010
0001
1000
0100
0010
,
0100
1000
0001
1000
0010
0100
0001
0100
0010
1000
0010
1000
0001
0010
0100
0010
,
0001
1000
0100
0010
0100
1000
0001
0010
0100
1000
0001
1000
0010
0100
0001
0100
,
0010
0100
0001
1000
0100
0010
0100
1000
0001
0010
0100
1000
0100
0000
1100
0000
,
0000
0000
0000
0000
1000
0000
1001
0000
0001
0000
0100
0001
0100
0010
0100
0001
,
1000
0100
0010
0100
1000
0000
1001
0000
0001
0100
0001
0100
0010
1000
0001
0010
,
0100
1000
0100
0010
0001
1000
0010
1000
0001
0100
0010
0100
0001
1000
0100
0010
,
0100
1000
0001
0010
0100
1000
0100
0010
0001
1000
0010
1000
0001
0100
0010
0100
,
0001
1000
0100
0010
0100
1000
0001
0010
0100
1000
0100
0010
0001
1000
0010
1000
,
0001
0100
0010
0100
0001
1000
0001
1000
0010
0100
0001
1000
1001
0000
0010
0000
,
1001
0000
0100
0000
1001
0000
1000
0000
1001
0000
0001
0000
0201
0000
0010
0300
,
2010
0000
0001
3000
0012
0000
0010
0203
1000
0000
1300
0000
0001
0000
0000
1001
,
0000
0000
0000
0000
0000
0000
1000
0000
0000
0010
0000
0000
1000
0000
0000
0000
0000
0000
0000
0000
0000
0101
0000
0000
0000
0000
0000
0000
0000
0000
1000
0000
0000
0100
0000
0000
0010
0000
0001
0000
0010
0000
0100
0000
1000
0000
0100
0000
,
0010
0001
1000
0010
1000
0010
0100
0001
0010
0100
1000
0100
0010
0000
0001
0000
,
1000
0000
0010
0000
0100
0000
0001
0000
1000
0000
0001
0010
0002
0000
0000
0000
,
1003
0100
0020
0000
0130
1000
1001
1000
,
0001
0000
1000
0100
1000
0000
0100
0000
0020
0000
0000
0000
0032
0000
0000
0000
,
2003
0000
3200
0000
1300
1000
1001
0001
,
0100
1000
0100
0001
1000
1001
0002
0000
,
0000
0000
0000
0000
0000
0003
0000
0000
,
0000
0000
0000
0000
0000
0000
1000
0100
,
1001
0000
0001
0000
0100
0000
0000
0000
0010
0000
0000
1010
0000
0000
0000
1000
,
0000
0000
0000
0000
0000
0100
0000
0000
0000
0000
0000
0000
0000
0010
0000
0000
0000
0000
0000
0000
0011
0000
0000
0000
0000
0000
0000
0000
0001
0000
0000
0000
,
0000
0000
0000
0000
0000
0000
0000
0000
0000
0000
0000
0000
0000
0000
0000
0000
0000
0000
1001
0000
0000
0000
0000
0000
0000
0000
0000
0000
0000
0000
0000
0000
0000
0000
0000
0000
0000
0000
0000
0000
0000
0000
0000
0000
0000
0000
0000
0000
0000
0000
0000
0000
0000
0000
0000
0000
0000
0000
0000
0000
0000
0000
0000
0000
0000
0000
1000
0000
0000
0000
0000
0000
0000
0000
0000
0000
0000
0000
0000
0000
0000
0000
0000
0000
0000
0000
0000
0000
0000
0000
0000
0000
0000
0000
0000
0000
0000
0000
0000
0000
0000
0000
0000
0000
0000
0000
0000
0000
1010
0000
0000
0000
0000
0000
0000
0000
0000
0000
0000
0000
0000
0000
0000
0000
0000
0000
0000
0000
0000
0000
0000
0000
0000
0000
0000
0000
0000
0000
0000
0000
0000
0000
0000
0000
0000
0000
0000
0000
0000
0000
0000
0000
0000
0000
0000
0000
1000
0000
0000
0000
0000
0000
0000
0000
0000
0000
0000
0000
0000
0000
0000
0000
0000
0000
0000
0000
0000
0000
0000
0000
0000
0000
0000
0000
0000
0000
0000
0000
0001
0000
0000
0000
,
0000
0100
0000
0000
0000
0010
0000
0000
0000
0000
1001
0000
0000
0000
0000
0000
,
0000
0000
0000
1100
,
0000
0000
0000
1001
0000
0000
0000
0000
,
0000
0000
0000
0000
0000
0000
0000
0000
0000
0000
0000
0000
0000
1000
0100
0010
,
0002
0000
0000
0000
,
0003
0000
0000
0000
;
