#TITLE:Snow Goose;
#SUBTITLE:jubeat O.S.T;
#ARTIST:Mutsuhiko Izumi;
#TITLETRANSLIT:;
#SUBTITLETRANSLIT:;
#ARTISTTRANSLIT:;
#CREDIT:ALICE_;
#BANNER:Snow Goose.png;
#BACKGROUND:Snow Goose.jpg;
#LYRICSPATH:;
#CDTITLE:cdtitle.png;
#MUSIC:Snow Goose.mp3;
#OFFSET:0.785;
#SAMPLESTART:22.014;
#SAMPLELENGTH:20.180;
#SELECTABLE:YES;
#BPMS:0.000=200.000;
#STOPS:;
#BGCHANGES:0.000=Snow Goose.jpg=1.000=0=0=1,
267.750=Snow Goose b.jpg=1.000=1=0=1,
276.000=Snow Goose.jpg=1.000=0=0=1,
315.750=Snow Goose b.jpg=1.000=1=0=1,
321.000=Snow Goose.jpg=1.400=0=0=1,
99999=-nosongbg-=1.000=0=0=0 // don't automatically add -songbackground-
;
// cache tags:
#FIRSTBEAT:4.000;
#LASTBEAT:321.000;
#SONGFILENAME:Songs/alice 4th complete step/Snow Goose/Snow Goose.sm;
#HASMUSIC:1;
#HASBANNER:1;
#MUSICLENGTH:100.971;
// end cache tags

//---------------dance-single - ----------------
#NOTES:
     dance-single:
     :
     Challenge:
     15:
     1.000,1.000,0.901,0.634,1.000,747.000,91.000,64.000,0.000,22.000:
0000
0000
0000
0000
,
1000
0010
0100
0000
0001
0000
1000
0000
0001
0000
0100
0010
1000
0100
0010
0001
,
0100
1000
0010
0000
0100
0000
0001
0000
1000
0000
0100
0010
1000
0100
0010
0001
,
1000
0100
1000
0010
0100
0000
0001
0000
0010
0000
0001
0100
1000
0010
0100
0001
,
1000
0100
1000
0010
0100
0010
1000
0100
1000
0001
0010
0001
0100
0010
1000
0100
,
0001
0010
0001
0100
0010
0100
0001
0010
0001
1000
0100
1000
0001
0010
0100
1000
,
0001
0010
0001
0110
1000
0010
1000
0101
,
1000
0010
1000
0110
0001
0100
0001
1010
,
0100
0000
0001
0000
0100
0000
0011
0000
1000
0000
0010
0000
0100
1000
0100
0000
,
0001
0010
0001
1000
0100
1000
0001
0010
0001
1000
0100
1000
0001
0010
0100
1000
,
0010
0001
0010
0100
1000
0100
0010
0001
0010
0100
1000
0100
1000
0010
0100
0001
,
1010
0100
1000
0100
1000
0100
2002
0000
0000
0000
0000
0000
0000
0000
3003
0000
,
0101
0010
0001
0010
0001
0010
2002
0000
0000
0000
0000
0000
0000
0000
3003
0000
,
1010
0100
1000
0100
1000
0100
2002
0000
0000
0000
0000
0000
0000
0000
3003
0000
,
0101
0010
0001
0010
0001
0010
0001
0010
1100
0011
1100
0011
1000
0010
0100
0000
,
1010
0100
0010
0100
0010
0100
2002
0000
0000
0000
0000
0000
0000
0000
3003
0000
,
0101
0010
0100
0010
0100
0010
2002
0000
0000
0000
0000
0000
0000
0000
3003
0000
,
1010
0100
0010
0100
0010
0100
2002
0000
0000
0000
0000
0000
0000
0000
3003
0000
,
1000
0100
0010
0001
1000
0100
0010
0001
1000
0100
0010
0001
1000
0100
0010
0001
,
1200
0000
0010
0000
0001
0300
1020
0000
0100
0000
0001
0030
2100
0000
0010
3000
,
0102
0000
0010
0000
1000
0000
0010
0000
0100
0000
0010
0003
1100
0000
0001
0000
,
0021
0000
0100
0000
1000
0030
0201
0000
0010
0000
1000
0300
0012
0000
0100
0003
,
2010
0000
0000
0000
0110
0000
0000
0000
0010
0000
0000
3000
0220
0000
0330
0000
,
2002
0000
0000
0200
0003
0000
0020
3000
,
0002
0000
0300
0000
0000
0000
0230
0000
0003
0000
0000
0000
0020
0000
0000
0330
,
2002
0000
0000
0000
0000
0000
0000
0000
0000
0000
0000
0000
0000
3000
0013
0100
,
2001
0000
0000
3000
0120
0000
0000
0030
0001
1000
0001
1000
0001
1000
0001
0000
,
2010
0100
0001
3210
1000
0001
1320
0100
,
1032
0100
0010
0100
1000
0103
1020
0230
,
1302
0010
0100
1023
0001
0100
2031
0010
,
3201
0000
0000
0000
1001
0000
0000
0000
0301
0000
0000
0000
0100
0010
1000
0001
,
1002
0000
0000
2023
0000
0000
0101
0000
,
3230
0000
0000
0322
0000
0000
1100
0030
,
2203
0000
0011
0000
0010
0000
0011
3300
,
0001
1000
0010
0100
0001
1000
0010
0100
0001
0010
0001
1000
0100
1000
0010
0000
,
0001
0100
0000
0010
0000
1000
0100
0010
,
0002
0000
0000
0000
1000
0100
0010
0200
0000
0000
0000
0000
0000
0000
0303
0000
,
1000
0010
0000
0100
0000
0001
0010
0100
,
2000
0000
0000
0000
0001
0010
0100
0020
0000
0000
0000
0000
0000
0000
3030
0000
,
0001
0100
0000
0010
0000
1000
0100
0010
,
0002
0000
0000
0000
1000
0100
0010
0200
0000
0000
0000
0000
0000
0000
0303
0000
,
0001
0010
0100
1000
0001
0010
0100
1000
0001
0010
0100
1000
0001
0010
0100
1000
,
0001
0100
0010
1000
0001
0100
0010
1000
0001
0010
0001
0100
0010
1000
0100
0010
,
1001
0001
1010
0010
1100
0100
1010
0010
,
1001
1000
0011
0010
0101
0100
0011
0010
,
1100
1000
0101
0001
1010
1000
0011
0100
,
0001
0010
0001
0010
1000
0100
1000
0100
0001
0010
0001
0010
1000
0100
1000
0100
,
0011
0010
1001
1000
0101
0100
1010
0010
,
1100
1000
0110
0010
0101
0001
1010
1000
,
0001
0110
0001
1100
0001
0110
0001
1100
,
0001
0010
0001
0010
0100
0010
0100
0010
1000
0100
1000
0100
0010
0100
0010
0100
,
0001
1000
0010
1000
0100
1000
0010
0100
0001
0010
1000
0100
0010
0100
0001
0010
,
1000
0001
0100
0001
0010
0001
0100
0010
1000
0100
0001
0010
0100
0010
1000
0100
,
0001
0010
1000
0010
0001
0100
1000
0010
1000
0100
0010
0001
0100
1000
0010
0001
,
1000
0100
1000
0010
0100
0001
0010
0001
1000
0100
0010
0001
1000
0010
0100
0001
,
1000
0100
1000
0010
0100
0010
0001
0010
1000
0100
0001
0010
1000
0001
0100
0010
,
0001
0100
0010
0100
1000
0010
0100
0001
1000
0100
1000
0010
0100
0001
1000
0010
,
0100
0001
0100
1000
0100
0001
0100
1000
0010
0001
0010
0100
0010
0001
0100
0010
,
1000
0100
1000
0100
0001
0100
0001
0100
1000
0100
0010
0001
1000
0100
0010
0000
,
1001
0100
0000
1010
0000
1000
0100
0010
,
0002
0000
0000
0000
1000
0100
0010
0200
0000
0000
0000
0000
0000
0000
0303
0000
,
1001
0010
0000
0101
0000
0001
0010
0100
,
2000
0000
0000
0000
0001
0010
0100
0020
0000
0000
0000
0000
0000
0000
3030
0000
,
1001
0100
0000
1010
0000
1000
0100
0010
,
0002
0000
0000
0000
1000
0100
0010
0200
0000
0000
0000
0000
0000
0000
0303
0000
,
1000
0100
0010
0001
1000
0100
0010
0001
1000
0100
0010
0001
1000
0100
0010
0001
,
1000
0100
0010
0001
1000
0100
0010
0001
1000
0010
0100
0001
1000
0001
0100
0010
,
0000
0000
0000
0000
,
0000
0000
0000
0000
,
1000
0000
0000
0000
,
0001
0000
0000
0000
,
0100
0000
0000
0000
,
0010
0100
0010
0100
0010
0100
0010
0100
0010
0100
0010
0100
0010
0100
0010
0100
,
0001
0010
0100
1000
0001
0010
0100
1000
0100
0010
1000
0001
1000
0100
0010
0001
,
1000
0100
2000
0000
0010
0000
3100
0000
0001
0000
1000
0000
0110
0000
1000
0000
,
0001
0010
0001
0000
0100
0000
0010
0000
1000
0000
0001
0000
1000
0100
0010
0001
,
1000
0100
1000
0010
0100
0001
0100
0000
0001
0010
0001
0100
0010
1000
0100
0000
,
0001
0010
0001
1000
0100
1000
0001
0010
0001
1000
0100
1000
0010
0100
0001
0010
,
1000
0100
1000
0001
0010
0001
1000
0100
1000
0001
0010
0001
1000
0010
0100
0001
,
0000
0000
0000
0000
0000
0000
0000
0000
1001
0100
0001
0010
1001
0000
0110
1001
,
0000
1001
0000
0000
;
