#TITLE:Aurora;
#SUBTITLE:;
#ARTIST:KaW;
#TITLETRANSLIT:;
#SUBTITLETRANSLIT:;
#ARTISTTRANSLIT:;
#CREDIT:;
#BANNER:Aurora-banner.png;
#BACKGROUND:aurora-bg.png;
#LYRICSPATH:;
#CDTITLE:!kommi-cdtitle.png;
#MUSIC:aurora.mp3;
#OFFSET:-0.015;
#SAMPLESTART:33.044;
#SAMPLELENGTH:13.242;
#SELECTABLE:YES;
#BPMS:0.000=145.000,203.000=120.000,204.000=100.000,205.500=91.000,241.000=98.000,243.500=105.000,246.000=110.000,248.000=120.000,251.000=132.000,253.000=138.000,254.500=145.000;
#STOPS:255.938=0.020
;
#BGCHANGES:;
// cache tags:
#FIRSTBEAT:0.000;
#LASTBEAT:319.500;
#SONGFILENAME:Songs/KBU/Aurora (Kommisar)/aurora.sm;
#HASMUSIC:1;
#HASBANNER:1;
#MUSICLENGTH:143.098;
// end cache tags

//---------------dance-single - ----------------
#NOTES:
     dance-single:
     :
     Challenge:
     13:
     1.000,1.000,1.000,0.000,1.000,957.000,273.000,0.000,0.000,22.000:
1000
1001
1000
1001
,
1000
1001
1000
1001
,
1000
1001
1000
1001
,
1000
0000
0000
0000
1001
0000
0000
0000
1000
0000
1000
0010
1001
0000
1000
0000
,
1000
1001
1000
1001
,
1000
1001
1000
1001
,
1000
1001
1000
1001
,
1000
0010
1000
0000
1001
0000
0000
0000
0000
0010
1000
0000
1001
0000
1000
0000
,
1011
0100
1001
0010
1100
0001
0110
1000
,
0101
0010
1100
0010
0101
1000
0110
0101
,
1100
0010
0101
1000
0110
0001
1100
0010
,
1001
0100
0011
1000
0101
0010
1100
0011
,
1001
0100
0011
1000
0110
0001
1010
0100
,
1001
0100
1010
0001
1100
0010
1001
1100
,
0011
0100
1010
0001
1100
0010
1001
0100
,
0010
0000
0001
0000
0010
0000
0100
0000
0000
0011
1100
0000
0101
0000
1100
0000
,
0001
0010
0100
0001
0010
0100
0001
0010
0100
0001
0010
0100
0001
0010
0100
0001
,
0010
0100
1000
0001
0010
0100
0001
0010
0100
0001
0010
0100
0001
0010
0100
0001
,
0010
0100
1000
0001
0010
0100
0001
0010
0100
0001
0010
0100
0001
0010
0100
0010
,
1101
0010
1001
0000
1101
0000
0010
0100
1001
0110
1001
0000
1011
0000
0110
0000
,
1101
0010
0100
0001
1010
0100
0001
0010
1100
0001
0010
0100
1001
0010
0100
0001
,
1010
0100
1000
0010
0101
1000
0001
0010
1100
0001
0010
1000
0101
0010
1100
0010
,
1001
0010
0100
0001
1010
0100
0001
0010
1100
0001
0010
0100
1001
0010
0100
0001
,
1010
0100
1000
0010
0101
1000
0001
0010
1100
0001
0010
1000
0011
0100
1001
0010
,
1001
0010
0100
0001
1010
0100
0001
0010
1100
0001
0010
0100
1001
0010
0100
0001
,
1010
0100
1000
0010
0101
1000
0001
0010
1100
0001
0010
1000
0101
0010
1100
0010
,
1001
0010
0100
0001
1010
0100
0001
0010
1100
0001
0010
0100
1001
0010
0100
0001
,
1110
0001
0010
0000
1101
0000
0010
0100
1011
0100
0011
1100
0011
0100
1001
0010
,
1101
0010
0100
0001
1010
0100
0001
0010
1100
0001
0010
0100
1001
0010
0100
0001
,
1010
0100
1000
0010
0101
1000
0001
0010
1100
0001
0010
1000
0101
0010
1000
0010
,
1001
0010
0100
0001
1010
0100
0001
0010
1100
0001
0010
0100
1001
0010
0100
0001
,
1010
0100
1000
0010
0101
1000
0001
0010
1100
0001
0010
1000
0101
0010
1100
0010
,
1001
0010
0100
0001
1010
0100
0001
0010
1100
0001
0010
0100
1001
0010
0100
0001
,
1010
0100
1000
0010
0101
1000
0001
0010
1100
0001
0010
1000
0101
0010
1000
0010
,
1001
0010
0100
0001
1010
0100
0001
0010
1100
0001
0010
0100
1001
0010
0100
0001
,
1010
0100
0010
0000
0101
0000
0010
0100
1001
0010
0101
1010
0101
0000
0110
0000
,
1001
0100
0010
0000
1100
0000
0010
0000
1001
0000
0010
0100
0011
0000
1000
0000
,
0110
0001
1000
0000
0101
0000
1000
0000
0110
0000
0001
0010
1100
0000
0010
0000
,
1001
0100
0010
0000
0101
0000
1000
0000
0110
0000
1000
0100
0011
0000
0100
0000
,
1001
0010
1100
0000
0011
0000
1000
0011
0000
1100
0010
0101
1010
0000
0110
0000
,
1011
1000
1000
1000
,
1000
1000
1000
1000
,
1000
1000
1000
1000
,
1000
1000
1000
1000
,
1011
0100
0010
0000
1001
0000
0100
0000
0011
0000
1000
0100
1001
0000
0100
0000
,
1001
0010
0100
0000
1010
0000
0001
0000
0110
0000
1000
0001
1100
0000
0010
0000
,
1100
0001
1000
0000
0110
0000
0001
0000
1010
0000
0100
0010
1001
0000
0100
0000
,
0011
1000
0100
0000
1010
0000
0001
0000
0110
0000
1000
0100
0011
0000
0100
0000
,
1011
0000
0010
0010
1000
0000
0010
1000
0000
1000
0010
1000
0010
1000
0010
0010
,
1000
0000
0010
0010
1000
0000
0010
1000
0000
1000
0010
1000
0010
1000
0010
0010
,
1000
0000
0000
0000
0000
0000
0000
0000
0010
0000
0000
0000
0010
0000
0000
0000
1000
0000
0000
0000
0000
0000
0000
0000
0010
0000
0000
0000
1000
0000
0000
0000
0000
0000
0000
0000
0000
0000
1000
0000
0000
0000
0010
0000
0000
0000
1000
0000
0000
0000
0000
0010
0000
0000
0000
1000
0000
0000
0000
0010
0000
0000
0000
0010
,
0000
0000
1000
0000
0000
0000
0000
0000
0000
0010
0000
0000
0000
0010
0000
0000
0000
1000
0000
0000
0000
0000
0000
0000
0010
0000
0000
0000
1000
0000
0000
0000
0000
0000
0000
0000
1000
0000
0000
0000
0010
0000
0000
0000
1000
0000
0000
0000
0010
0000
0000
0000
1000
0000
0000
0000
0010
0000
0000
0000
0010
0000
0000
0000
,
1101
0010
1001
0100
0011
1000
0100
1001
0010
0100
1000
0110
0001
0010
1100
0001
,
0110
1000
0101
0010
1001
0010
0100
1010
0001
0010
0100
1001
0010
0100
0011
1000
,
0101
0010
1001
0100
0011
1000
0100
0011
1000
0001
1000
0110
0001
0010
1100
0001
,
0110
1000
0101
0010
1001
0100
0010
0101
1000
0011
1000
0110
1001
0010
1001
0100
,
1011
0000
0100
0000
0011
0100
1000
0000
0110
0000
0001
0000
0010
0100
1001
0010
0100
1000
0001
0000
0010
0000
1100
0000
0001
0000
0010
0000
1100
0000
0001
0000
,
0110
0000
0001
0010
1100
0001
0010
0100
1001
0000
0100
0000
0010
0000
0101
0000
1000
0100
0010
0001
1000
0000
0110
0000
0001
0000
1000
0000
0101
0000
0010
0000
,
1001
0100
0010
0001
1100
0000
0010
0000
1001
0000
0010
0000
0100
0000
0011
0000
1000
0100
0010
0001
1000
0100
0011
1000
0100
0010
0001
0000
1100
0000
0001
0000
,
1110
0000
0011
0000
1101
0000
0000
0110
1001
0110
0000
0011
1110
0000
0101
0000
,
1101
0010
0100
0001
0010
0100
0001
0010
0100
0001
0010
0100
0001
0010
0100
0001
,
0001
0010
0100
0001
0010
0100
0001
0010
0100
0001
0010
0100
0001
0010
0100
0001
,
0001
0010
0100
0001
0010
0100
0001
0010
0100
0001
0010
0100
0001
0010
0100
0001
,
1110
0000
0110
0000
1011
0000
0000
0110
1001
0110
0000
0011
1110
0000
0110
0000
,
1001
0010
0100
0001
1010
0100
0001
0010
1100
0001
0010
0100
1001
0010
0100
0001
,
1010
0100
1000
0010
0101
1000
0001
0010
1100
0001
0010
1000
0101
0010
1100
0010
,
1001
0010
0100
0001
1010
0100
0001
0010
1100
0001
0010
0100
1001
0010
0100
0001
,
1010
0100
1000
0010
0101
1000
0001
0010
1100
0001
0010
1000
0101
0010
1100
0010
,
1001
0010
0100
0001
1010
0100
0001
0010
1100
0001
0010
0100
1001
0010
0100
0001
,
1010
0100
1000
0010
0101
1000
0001
0010
1100
0001
0010
1000
0101
0010
1100
0010
,
1001
0010
0100
0001
1010
0100
0001
0010
1100
0001
0010
0100
0001
0010
0100
0001
,
1100
0010
0101
0010
1100
0000
0010
0101
0010
1001
0100
0011
1100
0010
0101
0010
,
1101
0010
0000
0000
0000
0010
0001
0000
0100
0000
0010
0000
0001
0000
0100
0000
,
0010
0100
0000
0000
0000
0100
0001
0000
1000
0000
0100
0000
0001
0000
0100
0000
,
0001
0010
0000
0000
0000
0010
0001
0000
0100
0000
0010
0000
0001
0000
0010
0000
,
0010
0100
1000
0010
0100
0000
0001
0010
1000
0000
0100
0010
0001
0010
0100
0010
,
0001
0010
0000
0000
0000
0010
0001
0000
0100
0000
0010
0000
0001
0000
0100
0000
,
0010
0100
0000
0000
0000
0100
0001
0000
1000
0000
0010
0000
0001
0000
1000
0000
,
0001
0010
0000
0000
0000
0010
0001
0000
0100
0000
0010
0000
0001
0000
0100
0000
,
0001
0010
0100
0001
0010
0000
0001
0010
0100
0000
0100
0010
0001
0100
0001
0000
;
