#TITLE:PRETTY GREEN ONIONS;
#SUBTITLE:;
#ARTIST:DJ Sharpnel;
#TITLETRANSLIT:;
#SUBTITLETRANSLIT:;
#ARTISTTRANSLIT:;
#CREDIT:;
#BANNER:lawl-bn.JPG;
#BACKGROUND:lawl-bg.PNG;
#LYRICSPATH:;
#CDTITLE:cdtitle.PNG;
#MUSIC:08. PRETTY GREEN ONIONS.ogg;
#OFFSET:-0.446;
#SAMPLESTART:124.430;
#SAMPLELENGTH:10.000;
#SELECTABLE:YES;
#DISPLAYBPM:185.000;
#BPMS:0.000=193.521;
#STOPS:;
#BGCHANGES:;
// cache tags:
#FIRSTBEAT:12.000;
#LASTBEAT:656.000;
#SONGFILENAME:Songs/toune 2/PRETTY GREEN ONIONS/lawl.sm;
#HASMUSIC:1;
#HASBANNER:1;
#MUSICLENGTH:208.241;
// end cache tags

//---------------dance-single - ----------------
#NOTES:
     dance-single:
     :
     Hard:
     12:
     1.000,1.000,1.000,0.389,0.756,1407.000,469.000,81.000,0.000,8.000:
0000
0000
0000
0000
,
0000
0000
0000
0000
,
0000
0000
0000
0000
,
0001
0000
0000
0000
0000
0000
0100
0000
0000
0000
0000
0000
0001
0000
0000
1000
0000
0000
0001
0000
0000
0000
0000
0000
1000
0000
0100
0000
0010
0000
0001
0000
0000
0000
0000
0000
0220
0000
0000
0000
0000
0000
0000
0000
0000
0000
0330
0000
,
1001
0000
0010
0100
0010
0000
0001
0000
0000
0000
1000
0100
0000
0001
0010
0100
,
0001
0000
0010
1000
0010
0000
1000
0000
0000
0000
0010
0100
0000
0010
1000
0100
,
0001
0000
1000
0001
1000
0000
0010
0000
0000
0000
1000
0100
0000
0001
0100
0010
,
1000
0000
0001
0100
0001
0000
0010
0000
0000
0000
0100
0010
0000
0100
0010
0100
,
0001
0000
1000
0100
1000
0000
0010
0000
0000
0000
0100
1000
0000
0010
0100
0001
,
1000
0000
0100
0001
0100
0000
1000
0000
0000
0000
0010
0100
0000
0001
0100
0010
,
0100
0000
0001
0010
0001
0000
0100
0000
0000
0000
0001
1000
0000
0001
0100
0010
,
1000
0000
0000
0000
0000
0000
1000
0000
0000
0000
0000
0000
1000
0000
0000
0001
0000
0000
1000
0000
0000
0000
0000
0000
0001
0000
0010
0000
0200
0000
1300
0000
0000
0000
0000
0000
2002
0000
0000
0000
0000
0000
0000
0000
3003
0000
0000
0000
,
0110
0000
0001
0100
0001
0000
1000
0000
0000
0000
0010
1000
0000
0010
1000
0100
,
0001
0000
0100
0010
0100
0000
0001
0000
0000
0000
1000
0001
0000
0100
0001
1000
,
0010
0000
1000
0100
0010
0000
1000
0000
0000
0000
0001
0100
0000
0001
1000
0100
,
0010
0000
0100
0001
0100
0000
0010
0000
0000
0000
1000
0010
0000
0100
0001
0010
,
1000
0000
0010
0100
0001
0000
0100
0000
0000
0000
0010
0100
0000
0010
0001
1000
,
0010
0000
0100
0001
0010
0000
0100
0000
0000
0000
0001
0100
0000
0010
1000
0010
,
0100
0000
0001
0100
0010
0000
0100
0000
0000
0000
1000
0100
0000
0010
0100
0001
,
1000
0000
0000
0000
0000
0000
1000
0000
0000
0000
0000
0000
1000
0000
0000
0010
0000
0000
1000
0000
0000
0000
0000
0000
0001
0000
0010
0000
0100
0000
1000
0000
0000
0000
0000
0000
2002
0000
0000
0000
0000
0000
0000
0000
3003
0000
0000
0000
,
1100
0010
0001
0000
1100
0010
0001
0000
0220
0330
0022
0033
2200
3300
0022
0033
,
1001
0010
0100
0000
1001
0010
0100
0000
2020
3030
0202
0303
0220
0330
2002
3003
,
0110
1000
0100
0000
0110
1000
0100
0000
0022
0033
0220
0330
2200
3300
0022
0033
,
1010
0100
0001
0000
1010
0100
0001
0000
0220
0330
0022
0033
2200
3300
0220
0330
,
0101
1000
0010
0000
0101
1000
0010
0000
2200
3300
0220
0330
2002
3003
2200
3300
,
0110
0001
0100
0000
0110
0001
0100
0000
0202
0303
2020
3030
2200
3300
0022
0033
,
1001
0010
0100
0000
1001
0010
0100
0000
0202
0303
2020
3030
0022
0033
2200
3300
,
0001
0000
0000
0000
0000
0000
0001
0000
0000
0000
0000
0000
0001
0000
0000
1000
0000
0000
0001
0000
0000
0000
0000
0000
1000
0000
0100
0000
0010
0000
0001
0000
0000
0000
0000
0000
2200
0000
0000
0000
0000
0000
0000
0000
0000
0000
3300
0000
,
0011
0000
1000
0100
0011
0000
0100
0000
1010
0000
0001
0100
0011
1000
0001
0100
,
0011
0000
0100
1000
0101
0000
0100
0000
1001
0000
0001
0100
1001
0010
1000
0001
,
0110
0000
1000
0010
0101
0000
1000
0000
0011
0000
0100
0010
1100
0010
0001
0100
,
1001
0000
0010
0100
0011
0000
0100
0000
1010
0000
0001
1000
0110
0001
0100
0010
,
1001
1001
1001
1001
1001
1001
1001
1001
,
0100
0010
0100
0010
1000
0001
1000
0001
0100
0001
0100
0001
1000
0010
1000
0010
,
1000
0100
0010
0000
0001
0010
0100
0000
1000
0100
0010
0000
0001
0010
0100
0000
1000
0100
0010
0000
0001
0010
0100
0000
1000
0100
0010
0000
0001
0010
0100
0000
,
1001
0000
0000
0000
0000
0000
0110
0000
0000
0000
0000
0000
1001
0100
0010
0001
0000
0000
2002
0000
0000
0000
3003
0000
,
0011
0000
1000
0001
0000
1000
0001
0000
1100
0000
1100
0000
0011
0000
0011
0000
,
0100
0000
0010
0100
0000
0010
0100
0000
1010
0000
1010
0000
0101
0000
0101
0000
,
0010
0000
0001
0100
0000
0001
0100
0000
0110
0000
0110
0000
1100
0000
1100
0000
,
0001
0000
0010
1000
0000
0010
1000
0000
0011
0000
0011
0000
1010
0000
1010
0000
,
0001
0000
0100
0010
0000
0010
0100
0000
0011
0000
1100
0000
0110
0000
1100
0000
,
0001
0000
1000
0010
0000
0010
1000
0000
1010
0000
0011
0000
0110
0000
1010
0000
,
0001
0000
0100
0001
0000
0001
0100
0000
0011
0000
0110
0000
1010
0000
0110
0000
,
1000
0000
0100
0010
0000
0010
0100
0000
0011
0000
0110
0000
1001
0000
0110
0000
,
1001
0000
0010
0001
0000
0001
0010
0000
1010
0000
0011
0000
0110
0000
1010
0000
,
0001
0000
0100
0001
0000
0001
0100
0000
0011
0000
0110
0000
0011
0000
1010
0000
,
0100
0000
0001
1000
0000
1000
0001
0000
0011
0000
1100
0000
0011
0000
1100
0000
,
0010
0000
0100
0001
0000
0001
0100
0000
1010
0000
0101
0000
0011
0000
1100
0000
,
0010
0000
1000
0010
0000
0010
1000
0000
0110
0000
0011
0000
1100
0000
0110
0000
,
0001
0000
1000
0100
0000
0100
0010
0000
0011
0000
0110
0000
1001
0000
1010
0000
,
0001
0000
0100
0010
0000
1000
0010
0000
0011
0000
0110
0000
1100
0000
0110
0000
,
1001
0000
0000
0000
0000
0000
0000
0000
0000
0000
0000
0000
0001
0010
0100
1000
0000
0000
0022
0000
0000
0000
0033
0000
,
1100
0000
0001
1100
0000
0001
1100
0000
0011
0000
0100
0000
1010
0000
0100
0000
,
1010
0000
0100
0011
0000
0100
0011
0000
1010
0000
0100
0000
0011
0000
0100
0000
,
1001
0000
0100
1001
0000
0100
1001
0000
0110
0000
0001
0000
1010
0000
0001
0000
,
1100
0000
0001
0110
0000
0001
0110
0000
0011
0000
0100
0000
1100
0000
0010
0000
,
1100
0000
0010
0101
0000
0010
0101
0000
0110
0000
1000
0000
0101
0000
0010
0000
,
0011
0000
1000
0110
0000
1000
0110
0000
0011
0000
1000
0000
0110
0000
1000
0000
,
0101
0000
0010
1100
0000
0010
1100
0000
1010
0000
0100
0000
0011
0000
1000
0000
,
0101
0000
1000
0011
0000
1000
0011
0000
0110
0000
0100
0000
0011
0000
0100
0000
,
1001
0000
0010
1100
0000
0010
1100
0000
0110
0000
0101
0000
1010
0000
1001
0000
,
0011
0000
1000
0110
0000
1000
0110
0000
0101
0000
0110
0000
0101
0000
1010
0000
,
0110
0000
1000
0101
0000
1000
0101
0000
0011
0000
0110
0000
0011
0000
1100
0000
,
0101
0000
0010
1001
0000
0010
1001
0000
0110
0000
1100
0000
0011
0000
0110
0000
,
1001
0000
0010
1001
0000
0010
1001
0000
0110
0000
1010
0000
0011
0000
1100
0000
,
0011
0100
0010
0100
0010
0100
1000
0001
1000
0001
1000
0001
0100
0010
1000
0001
,
1000
0100
0010
0000
0001
0010
0100
0000
1000
0100
0010
0000
0001
0010
0100
0000
1000
0100
0010
0000
0001
0010
0100
0000
1000
0100
0010
0000
0001
0010
0100
0000
,
1001
0000
0000
0000
0000
0000
0000
0000
0000
0000
0000
0000
1000
0100
0010
0001
0000
0000
2002
0000
0000
0000
3003
0000
,
0001
0000
0010
0000
1000
0000
0010
0001
,
1000
0000
0100
0001
0100
0000
0001
0000
,
1000
0000
0001
0100
0001
0000
0100
0000
,
0001
1000
0010
0100
,
1000
0010
0100
0001
0100
0000
0001
0000
,
0100
0000
1000
0001
0100
0010
0100
0000
,
0001
1000
0010
0000
0100
0000
0001
0000
,
1000
0010
0100
0000
0001
0000
1001
0000
,
1001
0000
0010
0000
0100
0000
0001
0100
,
1000
0000
0001
0100
0001
0000
1000
0000
,
0100
0000
1000
0100
0010
0000
1000
0000
,
0001
0100
0010
1000
,
0001
0100
0010
0100
0001
0000
1000
0000
,
0010
0000
0100
0001
0100
0010
0100
0000
,
1000
0001
0100
0000
0010
0000
1000
0000
,
0010
0000
0100
0000
0001
0000
0000
0000
1000
0001
1000
0001
1100
0000
0011
0000
,
1001
0000
0100
0000
0001
0000
1000
0001
,
0100
0000
0010
0000
0100
0000
0001
0010
,
1000
0000
0001
0000
1000
0000
0001
1000
,
0001
0000
0000
0000
1000
0000
0000
0000
0100
0000
0001
1000
0001
0000
0100
0000
,
0001
1000
0001
1000
,
0001
1000
0001
1000
,
0001
1000
0001
1000
,
0001
0001
1000
1000
1000
0000
1001
0000
,
1001
0010
0010
0010
,
0010
0010
0010
1000
,
0010
0010
0010
0010
0010
0010
0010
0010
,
0010
0010
0010
0010
0010
0010
1000
1000
,
1000
0100
1000
0100
0001
0100
0001
0100
0010
0100
0010
0100
1000
0100
1000
0100
,
0010
0100
0010
0001
0010
0001
0010
0100
0010
0100
1000
0100
1000
0100
0010
0001
,
2200
0000
0001
0000
0001
0000
0001
0000
0001
0000
0001
0000
0001
0000
0001
3300
,
1001
0000
0000
0000
1000
0000
0000
0000
0001
0000
0100
0010
1001
0000
1001
0000
,
0110
0000
0110
0000
0001
0000
1000
0010
0100
0010
1000
0000
0011
0000
0000
0000
,
1001
0000
1001
0000
0010
0000
0001
0100
0010
1000
0001
0000
0110
0000
0000
0000
,
1100
0000
1100
0000
0010
0000
0100
0001
0100
0010
0100
0000
0011
0000
0000
0000
,
0110
0000
0110
0000
0001
0000
0010
1000
0100
1000
0010
0000
1100
0000
0000
0000
,
0101
0000
0101
0000
0010
0000
1000
0001
0100
0001
1000
0000
0110
0000
0000
0000
,
1010
0000
1010
0000
0001
0000
1000
0010
0100
0001
0100
0000
1001
0000
0000
0000
,
1001
0000
1001
0000
0100
0000
0001
0100
0010
0100
0010
0000
1001
0000
0000
0000
,
1100
0000
1100
0000
0010
0000
1000
0001
0100
0001
1000
0000
0110
0000
0000
0000
,
0011
0000
0011
0000
1000
0000
0001
0100
0010
1000
0001
0000
1100
0000
0000
0000
,
0110
0000
0110
0000
1000
0000
0100
0010
1000
0001
0100
0000
0011
0000
0000
0000
,
1001
0000
1001
0000
0010
0000
0100
0010
1000
0001
0100
0000
1001
0000
0000
0000
,
0101
0000
0101
0000
1000
0000
0001
0010
0001
0010
0100
0000
1001
0000
0000
0000
,
1001
0000
1001
0000
0100
0000
1000
0100
1000
0100
0010
0000
1001
0000
0000
0000
,
1010
0000
1010
0000
0001
0000
0100
0010
0100
0010
0001
0000
1100
0000
0000
0000
,
0011
0000
0011
0000
1000
0000
0001
0010
0100
0010
0001
0000
1100
0000
0000
0000
,
0101
0000
0101
0000
0010
0000
1000
0100
0010
0100
1000
0000
1001
0000
0000
0000
,
1001
0000
1001
0000
0100
0000
0001
0010
0001
0010
0001
0000
1100
0000
0000
0000
,
1001
0000
1001
0000
0010
0000
1000
0100
1000
0100
1000
0000
0110
0000
0000
0000
,
0101
0000
0101
0000
1000
0000
0001
0100
0001
0100
0001
0000
0110
0000
0000
0000
,
1010
0000
1010
0000
0001
0000
0100
0010
0100
0010
0100
0000
1001
0000
0000
0000
,
0011
0000
0011
0000
1000
0000
0001
0100
0001
1000
0001
0000
0110
0000
0000
0000
,
0110
0000
0110
0000
0001
0000
1000
0100
0001
0100
1000
0000
0110
0000
0000
0000
,
1001
0000
1001
0000
0100
0000
0001
0010
1000
0010
0001
0000
0110
0000
0000
0000
,
0110
0000
0110
0000
1000
0000
0001
0100
0010
1000
0001
0000
0110
0000
1000
0000
,
0011
0000
1000
0000
1000
0000
0000
1000
,
1000
0100
0010
0100
0001
0000
0001
0100
,
0010
1000
0010
0100
,
0001
0000
0100
0000
0001
0000
0001
0001
,
0100
0000
0001
0000
0001
0000
0000
1000
,
0001
0010
0001
1000
0010
0100
0010
1000
0001
0100
0001
1000
0001
1000
0010
1000
,
0001
0010
0100
0000
1000
0100
0010
0000
0001
0010
0100
0000
1000
0100
0010
0000
0001
0010
0100
0000
1000
0100
0010
0000
0001
0010
0100
0000
1000
0100
0010
0000
,
1001
0000
0000
0000
0000
0100
1001
1001
,
1001
0010
1001
0010
1100
0001
0110
1010
,
0101
1000
0110
1100
0110
1000
0011
0010
,
0101
0100
0110
1001
0110
0100
0011
0001
,
1010
0000
0001
0000
0110
0000
0010
0000
1100
0000
0110
0000
0011
0000
0100
0010
,
1100
0011
1100
0011
1100
1000
0011
0010
,
0110
1000
0101
0110
0101
1010
0110
0010
,
0101
0110
1100
0010
0011
1000
0110
0001
,
1100
0000
0011
0000
0110
0000
0110
0000
0110
0000
1000
0100
0011
0000
0100
0010
,
1001
0100
0011
1000
0110
0010
0101
0110
,
1010
1000
0110
0011
1100
0001
0110
1000
,
0101
0010
1001
0110
1001
0001
0101
1000
,
0110
0000
0001
0000
1010
0000
0010
0000
1100
0000
0011
0000
0110
0000
0001
0100
,
1010
0101
1010
0101
1010
1000
0011
0100
,
0110
0001
1100
0011
1100
0011
1100
0100
,
0011
0110
0101
0001
1100
1000
0110
0001
,
1100
0010
0001
0000
1100
0000
0011
0000
0101
0000
1000
0100
0011
0000
0100
0010
,
1001
0100
0011
1000
0110
0001
1100
0110
,
0011
0010
1100
0011
0110
0100
0011
0010
,
1100
1000
0011
1100
0110
0010
0011
0001
,
0110
0000
1000
0000
0011
0000
0100
0000
1100
0000
0011
0000
0110
0000
1000
0100
,
0011
1100
0011
1100
0011
0100
0110
0001
,
0011
0010
1100
0110
0011
0110
1100
1000
,
0011
0101
1010
0001
0110
1000
0011
0100
,
1001
0010
1001
0010
1001
0000
0100
0000
0110
0000
0001
0010
1100
0000
0001
0010
,
1100
0010
0011
0100
0011
0010
0001
0110
,
0011
0110
1001
0011
0110
0100
1100
0110
,
0011
0001
1100
0010
0110
0100
1010
0001
,
1001
0000
1000
0000
0101
0000
0010
0000
0110
0000
1100
0000
0011
0000
0100
0010
,
1001
0010
1100
0001
1100
0010
0100
0011
,
1010
0001
1100
0011
0100
0011
0110
1100
,
0110
0002
2003
3002
2003
3000
0220
0330
,
1001
0000
0000
0000
0000
0000
0110
0000
0000
0000
0000
0000
1000
0100
0010
0001
0000
0000
2002
0000
0000
0110
3003
0000
,
1001
0000
0000
0000
;
