#TITLE:Megaman 2;
#SUBTITLE:Title Screen - Remix;
#ARTIST:Capcom;
#TITLETRANSLIT:;
#SUBTITLETRANSLIT:;
#ARTISTTRANSLIT:Joao Pedro Wojcikiewicz Duarte Silva;
#CREDIT:;
#BANNER:Megaman 2-banner.PNG;
#BACKGROUND:Megaman 2-bg.PNG;
#LYRICSPATH:;
#CDTITLE:;
#MUSIC:projectx_-_Mega_Man_2_-_01_-_Title_Screen.mp3;
#OFFSET:0.000;
#SAMPLESTART:100.000;
#SAMPLELENGTH:12.000;
#SELECTABLE:YES;
#BPMS:0.000=120.000,148.000=240.000,372.000=120.000,392.000=60.000;
#STOPS:;
#BGCHANGES:0.000=Megaman 2-bg.PNG=1.000=0=0=1,
99999=-nosongbg-=1.000=0=0=0 // don't automatically add -songbackground-
;
// cache tags:
#FIRSTBEAT:0.500;
#LASTBEAT:328.500;
#SONGFILENAME:Songs/toune 4/projectx_-_Mega_Man_2_-_01_-_Title_Screen/projectx_-_Mega_Man_2_-_01_-_Title_Screen.sm;
#HASMUSIC:1;
#HASBANNER:1;
#MUSICLENGTH:124.295;
// end cache tags

//---------------dance-single - ----------------
#NOTES:
     dance-single:
     :
     Medium:
     1:
     0.424,0.793,0.201,0.426,0.619,291.000,25.000,53.000,0.000,23.000:
0000
0000
1000
0000
0100
0000
0001
0000
0000
0010
0000
0200
0000
0000
0000
0000
,
0000
0000
0000
0300
0000
1000
0000
0000
0010
0000
0001
0000
0000
0100
0000
1000
,
0000
0000
0020
0000
0000
0000
0000
0000
0030
0000
0001
0000
1000
0000
0000
0010
,
0000
0100
0000
2000
0000
0000
0000
0000
0000
0000
0000
0000
3010
0000
0000
0100
,
0000
0000
0001
0000
0100
0000
0000
1000
0000
0020
0000
0000
0000
0000
0000
0000
,
0030
0000
1000
0000
0001
0000
0000
0010
0000
0100
0000
2000
0000
0000
0000
0000
,
0000
0000
0000
0000
3000
0001
0000
0000
0010
0000
0100
0000
0000
1000
0000
0010
,
0000
0000
0200
0000
0000
0000
0000
0000
0000
0000
1300
0000
0000
0010
0000
0100
,
0000
0000
0001
0020
0000
0000
0000
0000
0000
0000
0000
0000
0000
0030
0000
1000
,
0000
0100
0000
0010
0000
0001
0000
0000
1000
0000
0000
0020
0000
0000
0000
0000
,
0000
0000
0030
1000
0000
0001
0000
0000
0010
0000
0100
0000
0000
1000
0000
0001
,
0000
0000
0010
0000
0200
0000
0000
0000
0000
0300
1000
0000
0000
0000
0010
0000
,
0001
0000
0000
0100
0000
1000
0000
0000
0010
0000
0000
0000
0000
0000
0000
0000
,
0000
0000
0001
0000
0000
1000
0000
0000
0000
0100
0000
0010
0000
1000
0000
0002
,
0000
0000
0000
0000
0000
0000
0000
0003
1000
0000
0020
0000
0000
0000
0000
0000
,
0000
0000
0030
0000
0200
0000
0000
0000
0000
0000
0300
0002
0000
0000
0000
0000
,
0000
0003
2000
0000
0000
0000
0000
3200
0000
0000
0000
0000
0000
0000
0320
0000
,
0000
0000
0000
0000
0000
0000
0032
0000
0000
0000
0000
0200
0003
0000
0000
0000
,
0000
0000
0000
2000
0000
0000
0300
0000
0000
0000
0020
0000
3000
0000
0000
0002
,
0030
0000
0000
0000
0000
0000
0000
0203
0000
0000
0000
0000
0000
0000
0000
2000
,
0300
0000
0000
0000
0001
0000
0000
0000
0000
3000
0000
0000
0000
0000
0000
0000
,
0001
0010
0000
0100
1000
0000
0000
1000
0000
0000
0000
0000
0001
0000
0000
0010
,
0000
0000
0100
0000
2000
0000
0000
0000
0000
0000
0000
0000
0000
3000
0001
0010
,
0000
0100
0000
0002
0000
0000
0000
0003
0200
0000
0000
0000
2300
0000
0000
0000
,
3200
0000
0000
0000
0020
0300
0000
0000
0001
0001
0030
0200
0000
0000
0300
1000
,
0000
0100
0001
0000
0000
0000
0000
0010
0100
0000
0000
1000
0000
0001
0020
0000
,
0000
0000
0000
0000
0000
2032
0000
0000
,
0000
0000
0000
0000
,
0000
0000
0000
0000
,
0000
0000
0000
0000
,
0000
0000
0000
0000
,
0010
0000
0000
0110
0000
0000
0110
0000
0000
0110
0000
0000
0000
0110
0000
0000
,
0000
0110
0000
0000
0000
0110
0000
0000
0110
0000
0110
0000
0110
0000
0110
0000
,
0110
0000
0110
0000
0110
0000
0000
0000
0110
0000
0000
0000
0110
0000
0000
0110
,
0000
0000
0000
0110
0000
0000
0000
0110
0000
0000
0000
0110
0000
0000
0110
0000
,
0000
0220
0000
0000
0000
0000
0000
0000
,
0000
0000
0000
0000
0000
0000
0000
0000
0000
0000
0000
0000
0000
0000
0000
0000
0000
0000
0000
0000
0000
0000
0000
0000
0000
0000
0000
0000
0000
0000
0000
0000
0000
0000
0000
0000
0000
0000
0000
0000
0000
0000
0000
0000
0000
0000
0000
0000
0000
0000
0000
0000
0000
0000
0000
0000
0000
0000
0000
0000
0000
0000
0000
0000
0000
0000
0000
0000
0000
0000
0000
0000
0000
0000
0000
0000
0000
0000
0000
0000
0000
0000
0000
0000
0000
0000
0000
0000
0000
0000
0000
0000
0000
0000
0000
0000
0000
0000
0000
0000
0000
0000
0000
0000
0000
0000
0000
0000
0000
0000
0000
0000
0000
0000
0000
0000
0000
0000
0000
0000
0000
0000
0000
0000
0000
0000
0000
0000
0000
0000
0000
0000
3030
0303
0000
0000
0000
0000
0000
0000
0000
0000
0000
0000
0000
0000
0000
0000
0000
0000
0000
0000
0000
0000
0000
0000
0000
0000
0000
0000
0000
0000
0000
0000
0000
0000
0000
0000
0000
0000
0000
0000
0000
0000
0000
0000
0000
0000
0000
0000
0000
0000
0000
0000
0000
0000
0000
0000
0000
0000
0000
0000
,
0000
0000
0000
0000
1000
0000
0001
0000
0010
0000
0000
0100
0000
0000
1000
0000
,
0000
0002
0000
0000
0000
0000
0000
0000
,
0000
0000
0000
0000
0000
0000
0000
0003
0000
0010
0000
0100
0000
0000
1000
0000
,
0000
0000
0000
0001
0000
0000
0010
0000
0000
0000
0100
0000
0000
0000
0000
2000
,
0000
0000
0000
0000
0000
3000
0100
0010
,
0001
0000
0000
0000
0000
0000
0000
0000
0000
0100
0000
1000
0000
0000
0100
0000
,
1000
0100
1000
0100
0000
0000
0002
0000
,
0000
0000
0000
0000
,
0000
0000
0000
0000
0000
0003
0010
0000
0000
0100
0000
1000
0000
0000
0100
0000
,
0000
0000
0000
0001
0000
0000
0000
0000
0000
2002
0000
0000
0000
0000
0000
0000
,
0000
0000
0000
0000
,
0000
3003
0010
0000
0000
0000
0100
0000
0000
1000
0000
0001
0000
1000
0000
0001
,
0000
0010
0000
0000
0000
0000
0200
0000
0000
0000
0000
0000
0000
0000
0000
0000
,
0000
0000
0000
0000
0000
0000
0000
0000
0000
0000
0000
0000
0000
0300
0000
0000
,
1000
0000
0010
0000
0000
0000
0100
0000
0000
0001
0000
0000
1000
0000
0000
0000
,
0000
0200
0000
0000
0000
0000
0000
0000
0000
0000
0000
0000
0300
0001
0000
0000
,
0010
0000
0100
0000
0000
2000
0000
0000
0000
0000
0000
0000
0000
0000
0000
0000
,
3100
0000
0001
0000
0000
0010
0000
1000
0000
0001
0000
0010
0000
0000
0000
0000
,
0000
0000
0000
1200
0000
0000
0000
0000
0000
0000
0000
0000
0000
0000
0000
0000
,
0000
0000
0000
0000
0000
0300
0000
0001
0000
0000
0020
0000
0000
0000
0000
0030
,
0100
1000
0000
0100
0000
0000
0000
0001
0000
0000
0000
0020
0000
0000
0000
0000
,
0000
0000
0000
0000
0000
0000
0000
0030
,
0000
0000
0000
0000
0000
0000
0000
1000
0000
0000
0100
0000
0000
0000
0001
0000
,
0000
0000
0000
0000
0010
0000
0000
0100
0000
0000
0000
1000
0000
0000
0010
0000
,
0000
0100
0000
1000
0000
0000
0100
0000
0000
1000
0000
0000
0100
0000
0000
0000
,
0000
0000
0001
0000
0000
0000
0000
0010
0000
0000
0100
0000
0000
1000
0000
0010
,
0000
0000
0000
0100
0000
0000
0000
0000
0000
1000
0000
0010
0000
0100
0000
0000
,
1000
0000
0010
0000
0000
1000
0000
0010
0000
1000
0000
0000
0000
0000
0001
0000
,
0000
0010
0000
1000
0000
0001
0000
0000
1000
0000
0000
0000
0000
0000
0010
0000
,
0000
0000
0000
0000
0100
0000
1000
0100
0000
1000
0000
0100
1000
0000
0100
1000
,
0000
0000
0000
0000
0000
0000
0000
0001
0000
0010
0000
1000
0000
0000
0100
0000
,
0001
0000
0000
0010
0000
1000
0000
0000
0000
0001
0000
0000
0010
0000
0000
0000
,
0000
0100
0000
1000
0000
0000
0100
0000
0100
0000
0000
0100
0000
0100
0000
0000
,
0000
0000
0000
1000
0000
0000
0000
0000
0001
0000
1000
0000
0001
0000
1000
0000
,
0001
0000
0001
1000
0000
0000
0000
0002
0000
0000
0000
0000
0000
0000
0000
0000
,
0000
0000
0000
0000
0000
0000
0000
0000
0000
0000
0000
0000
0000
0000
0000
0003
,
0000
0000
0000
0000
0010
0000
1000
0000
0000
0000
0000
0100
0000
0000
0001
0000
,
0000
0000
0000
0010
0000
0000
0000
0000
0200
0000
0000
0000
0000
0000
0000
0000
,
0000
0000
0300
1000
0000
0000
0010
0000
0100
0000
0000
0002
0000
0000
0000
0000
,
0000
0003
1000
0000
0000
0010
0001
0000
0100
0000
0000
1000
0000
0010
0000
0100
,
0000
0000
0000
2000
0000
0000
0000
0000
0000
0000
0000
0000
0000
0000
0000
0000
,
0000
0000
0000
0000
0000
0000
0000
0000
0000
3000
0000
0000
0000
0010
0000
0200
,
0000
0000
0000
0000
0000
0300
0001
0000
1000
0000
0000
0000
0000
0010
0000
0100
,
0000
1000
0000
0001
0000
0000
0000
0010
0000
0100
0000
0000
1000
0000
0010
0000
,
0000
0000
0000
0100
0000
1000
0000
0010
0000
0010
0000
0000
0000
0220
0000
0000
,
0000
0330
0000
0000
0000
0000
0000
0000
;
