#TITLE:Mezase Pokemon Master '98;
#SUBTITLE:;
#ARTIST:Rica Matsumoto;
#TITLETRANSLIT:;
#SUBTITLETRANSLIT:;
#ARTISTTRANSLIT:;
#CREDIT:Kyon;
#BANNER:Mezase Pokemon Master '98.png;
#BACKGROUND:Mezase Pokemon Master '98-bg.png;
#LYRICSPATH:;
#CDTITLE:Dj DMA Original Simfile.png;
#MUSIC:Mezase Pokemon Master '98.mp3;
#OFFSET:-0.700;
#SAMPLESTART:47.928;
#SAMPLELENGTH:12.000;
#SELECTABLE:YES;
#BPMS:0.000=120.560;
#STOPS:;
#BGCHANGES:;
// cache tags:
#FIRSTBEAT:4.000;
#LASTBEAT:535.000;
#SONGFILENAME:Songs/juju step2/Mezase Pokemon Master '98/Mezase Pokemon Master '98.sm;
#HASMUSIC:1;
#HASBANNER:1;
#MUSICLENGTH:274.398;
// end cache tags

//---------------dance-single - ----------------
#NOTES:
     dance-single:
     :
     Hard:
     6:
     0.356,0.439,0.226,0.160,0.040,578.000,62.000,44.000,0.000,0.000:
0000
0000
0000
0000
,
0000
0000
0000
0000
,
0010
0100
0010
0100
0010
0100
0010
0000
0000
0000
0000
0000
0000
0000
0000
0000
,
0000
0000
0100
0010
0100
0000
0001
0000
1000
0000
0001
0000
0010
0000
0010
0000
,
0000
0000
0100
0010
0100
0010
0100
0010
0200
0000
0000
0000
0300
0000
0000
0000
,
0100
0000
0010
0000
0010
0100
0000
0000
0110
0000
0000
0000
0000
0000
0000
0000
,
0010
1000
0010
1000
0010
1000
0010
0000
,
0100
0001
0100
0001
0100
0000
0000
0000
,
0010
0100
0010
0100
0010
0000
0010
0000
,
1000
0001
1000
0001
0010
0000
0000
0000
,
0010
0100
0010
0100
0010
1000
0010
1000
,
1000
0001
1000
0001
0100
0000
0100
0000
,
0001
0000
0100
1000
0001
0000
0000
1000
,
0000
0000
0000
0000
0001
0000
1000
0001
,
2000
0000
0000
0000
,
3002
0000
0000
0000
,
0013
0000
0100
0000
0010
0000
0100
0010
,
0100
0000
0001
0000
0100
0001
1000
0100
,
0001
1000
0001
0000
0010
0000
1000
0000
,
0100
0101
0001
1000
,
1001
0000
0010
1000
0010
1000
0100
0000
,
0110
0000
0110
0000
0010
0000
0000
0001
,
0001
1000
0010
0000
1010
0000
0010
0000
,
0010
0001
0010
0001
1000
0000
0000
0000
,
0001
1000
0001
1000
0001
0100
0001
0100
,
0001
0100
0001
0100
1000
0000
1000
0100
,
1000
0100
0001
1000
0100
1000
0010
0001
,
0100
0000
0000
0000
0001
0010
0001
0010
,
0100
1000
0010
0001
0010
0001
1000
0000
,
0011
1000
1100
0101
,
1000
0100
0010
0100
,
0020
0000
0000
0000
,
0230
0000
0000
0000
,
0320
0000
0000
0000
,
0032
0000
0000
0000
0000
0000
0000
0000
1003
0000
0000
1000
0000
0000
1000
0000
,
0001
1000
0001
0100
0001
0100
0001
0000
,
1000
0001
1001
1000
,
1000
0100
1000
0100
1000
0100
0001
0000
,
0001
0000
0100
1000
0010
0000
0000
0000
,
0010
0010
0010
0010
0001
0001
0001
0001
,
0100
0100
0100
0000
1000
0000
1100
0000
,
0010
0011
0010
0100
,
0010
0001
0200
0000
,
0320
0000
0000
0000
,
0032
0000
0000
0000
,
1003
0000
1100
0000
0100
0000
0010
0100
,
0010
0001
1001
1100
,
1010
0000
0010
0000
0001
0000
1000
0001
,
1000
0000
0001
0000
0100
0000
0001
0100
,
0001
0000
0100
0000
0100
1000
0001
0000
,
0011
0010
1100
0010
,
0010
0001
0010
0000
1000
0001
1000
0000
,
1000
0001
1000
0001
0100
0000
0000
0000
,
0100
1000
0100
1000
0100
0000
1000
0010
,
1000
0010
1000
0010
0011
0000
1000
0000
,
0001
1000
0001
1000
0100
0001
0100
0001
,
0100
0110
0000
0000
,
0010
0000
0010
0100
0010
0001
0010
0000
,
0110
0000
1100
0000
0100
1000
0100
0001
,
1000
1100
0001
0100
,
1100
0000
0000
0000
,
0200
0000
0000
0000
,
0320
0000
0000
0000
,
0032
0000
0000
0000
,
1003
0000
1100
0000
0100
1000
0010
0000
,
0001
0000
0010
0000
0010
0001
1000
0000
,
0010
1000
0010
0000
0001
0000
1001
0000
,
1000
0000
0001
0000
0100
0001
0100
0000
,
1100
0001
1100
0100
,
0010
0000
0011
0000
0010
0001
0010
0000
,
0002
0000
0000
0000
0000
0000
1003
2000
,
0000
0000
0000
0000
,
3200
0000
0000
0000
,
0310
0010
0100
0110
,
0001
0000
0001
1000
0001
0000
1000
0000
,
0001
0000
0010
0000
0001
0010
0001
0000
,
1000
0000
0100
0000
1000
0100
1000
0000
,
0001
0000
0101
0000
1000
0100
1000
0000
,
0010
1000
0010
0000
0010
0001
0010
0000
,
1000
0001
1000
0000
0001
0000
0101
0000
,
0100
1100
0200
0000
,
0310
0000
0100
0000
0010
0100
0010
0000
,
0002
0000
0000
1003
,
1000
0000
0100
0000
0010
0100
0010
0000
,
0011
1100
2000
0000
,
3200
0000
0320
2030
,
3200
0000
0000
0000
,
0320
0000
0000
0031
,
1000
0000
0001
0000
0001
1000
0001
1000
,
0001
0100
1100
0100
,
0010
0011
1000
0001
,
1000
1001
0100
0010
,
0210
0000
0000
0000
,
0310
0000
0000
0000
,
0001
0000
0000
0000
,
1000
0000
0000
0000
,
0100
0000
0000
0000
,
0010
0110
0100
0110
,
0001
1001
1000
1001
,
0002
0000
0023
0000
,
0230
0000
0000
0000
0000
0000
0000
0000
0310
0000
0000
0010
0000
0000
0010
0000
,
1000
0010
1000
0010
0001
0010
0001
0010
,
0001
1000
0001
0001
0100
0000
0100
1000
,
0100
1000
0100
1000
0001
1000
0001
1000
,
0010
1000
0000
0000
0000
0000
0010
0001
,
0010
0001
1000
0001
0100
1000
0010
0000
,
0110
1100
0110
1100
,
0200
0000
0320
0000
,
0032
0000
0000
0000
,
2003
0000
0000
0000
,
3100
0200
0000
0000
0000
0000
0000
0000
,
0320
0000
0000
0000
0000
0000
0000
0000
0031
0000
0000
0001
0000
0000
0001
0000
,
1000
0000
1100
0000
0001
1000
0001
1000
,
0001
0001
0101
0101
,
1000
1001
0001
0010
,
1000
0001
0010
0100
0010
0001
0010
0001
,
0010
0001
0010
0200
0000
0000
0000
0300
,
0010
0001
0010
0001
2000
0000
0000
3000
,
0100
1000
0010
0020
0000
0000
0031
2000
,
0000
0000
0000
0000
,
3100
0000
1100
0000
0100
1000
0100
1000
,
0010
0000
0010
1000
0010
0001
1000
0000
,
0001
0000
1001
0000
0100
0001
0100
0001
,
0100
0101
1100
0001
,
1001
0011
0010
1010
,
0010
0100
0010
0100
0010
0000
0110
0000
,
0001
1000
0001
2000
0000
0000
3100
0020
,
0000
0000
0000
0000
,
0130
0000
0000
0100
0010
0000
0010
0000
0000
0010
0001
0000
1000
0000
0000
0000
,
0110
0000
0000
0100
0010
0100
0010
0100
0020
0000
0030
0000
0100
0000
0000
0000
,
0010
0000
0100
0010
0100
0000
0001
0000
1000
0000
0001
0000
0010
0000
0001
0000
,
0000
0000
0000
0010
0100
0010
0100
0010
0200
0000
0000
0000
0000
0000
0000
0000
,
0300
0000
0000
0010
0000
0010
0001
0000
1000
0000
0000
0000
0000
0000
0000
0000
,
0000
0110
0220
0330
;

//---------------dance-single - ----------------
#NOTES:
     dance-single:
     :
     Easy:
     3:
     0.187,0.268,0.080,0.069,0.002,319.000,22.000,19.000,0.000,0.000:
0000
0000
0000
0000
,
0000
0000
0000
0000
,
0000
0001
0000
1000
,
0000
0002
0000
0000
,
1003
0010
0000
0200
,
0320
0000
0130
0000
,
0002
0000
0000
1003
,
1000
1000
0001
0000
,
0010
0010
0100
0100
,
0001
0010
0011
0000
,
0100
0100
0010
0010
,
0010
0100
0110
0000
,
1000
0001
1000
0000
,
0002
0000
1003
0010
,
1001
0000
0000
0000
,
0010
0000
0000
0000
,
0100
0000
0000
0010
,
0000
0100
0010
0010
,
0100
0001
0001
1000
,
0010
0000
0000
0000
,
0100
0100
0101
0000
,
0001
0001
0101
0000
,
0010
0100
0010
0100
,
0001
0100
0101
0000
,
0001
1000
0001
1000
,
0010
1000
0001
0000
,
0001
1000
0001
0010
,
0001
0000
0000
0001
,
0010
0001
0010
0001
,
0100
0000
0100
0000
,
0100
0010
0100
0001
,
1001
0000
0000
0000
,
0000
0000
0000
0000
,
0010
0000
0000
0000
,
0100
0000
0000
0000
,
0010
0000
0000
0000
,
0100
0100
0001
0000
,
0001
0001
1000
1000
,
0001
0010
0001
0000
,
0010
0010
0010
0010
,
0100
0010
0110
0000
,
0100
0100
0001
0000
,
0001
0000
1000
0001
,
1001
0000
0000
0000
,
0010
0000
0000
0000
,
0001
1000
0001
0000
,
1000
0001
0010
0000
,
0010
0100
0010
0000
,
0001
0010
0001
0000
,
0001
1000
0001
1000
,
0010
1000
0010
0000
,
0100
0000
0010
0000
,
0110
0000
0010
0000
,
0100
0100
0010
0000
,
0001
0001
1000
0000
,
1000
1000
1000
0010
,
0100
0000
0000
0000
,
0010
0100
0100
0010
,
0101
0010
0001
1000
,
0010
0010
0100
0010
,
1001
0000
0000
0000
,
0000
0000
0000
0000
,
0010
0000
0000
0000
,
0100
0000
0020
0000
,
0130
0000
0001
0001
,
1001
0010
0100
0000
,
0010
0000
0100
0010
,
0100
0001
0001
0010
,
0011
0001
0000
1000
,
0000
0010
0000
1000
,
0010
0010
0100
0020
,
0000
0000
0000
0000
,
0230
0000
0000
0000
,
0301
0000
0000
0000
,
1000
0000
0000
0000
,
0010
0000
0000
0000
,
1000
0000
0000
0000
,
0010
0000
0000
0000
,
1000
0000
0010
0000
,
1000
0010
1000
0010
,
0000
0100
0010
0100
,
0100
0000
0000
0001
,
0000
0010
0000
0001
,
0000
0010
0000
0001
,
0000
0100
0000
0001
,
0000
0000
0200
0000
,
0302
0000
0000
0000
,
2003
0000
0000
0000
,
3002
0000
0000
0000
,
0003
0020
0000
0000
0000
0000
0000
0000
0000
0000
0000
0000
0000
0000
0000
0000
0000
0000
0000
0000
0000
0000
0000
0000
0000
0000
0000
0000
0000
0000
0000
0000
0000
0000
0000
0000
0000
0000
0000
0000
0000
0000
0000
0000
0000
0000
0000
0000
0000
0000
0000
0000
0000
0000
0000
0000
0000
0000
0000
0000
0000
0000
0000
0000
0000
0000
0000
0000
0000
0000
0000
0000
0000
0000
0000
0000
0000
0000
0000
0000
0000
0000
0000
0000
0000
0000
0000
0000
0000
0000
0000
0000
0000
0000
0000
0000
0000
0000
0000
0000
0000
0000
0000
0000
0000
0000
0000
0000
0000
0000
0000
0000
0000
0000
0000
0000
0000
0000
0000
0000
0000
0000
0000
0000
0000
0000
0000
0000
0000
0000
0000
0000
0000
0000
0000
0000
0000
0000
0000
0000
0000
0000
0000
0000
0000
0000
0000
0000
0000
0000
0000
0000
0000
0000
0000
0000
0000
0000
0000
0000
0000
0000
0000
0000
0000
0000
0000
0000
0000
0000
0000
0000
0000
0000
0000
0000
0000
0000
0000
0000
0000
0000
0000
0000
0000
0000
0000
0000
0000
0000
0000
0000
,
0000
0230
0000
0000
,
0000
0302
0000
0000
,
1003
0000
0000
0000
,
0010
0000
0000
0000
,
0100
0000
0000
0000
,
0010
0000
0000
0000
,
0001
0000
0000
0000
,
1000
0001
1000
0001
,
1000
0001
0100
0001
,
0100
0001
0100
0001
,
0010
0000
0000
0000
,
0100
0010
0010
0100
,
0010
0010
0011
0000
,
0100
0100
0010
1000
,
0010
0000
0000
0000
,
1000
0100
1000
0010
,
1001
0000
0010
0000
,
0100
0100
0010
0010
,
0002
0000
0000
0000
,
2003
0000
0000
0000
,
3020
0000
0000
0000
,
0032
0000
0000
0000
,
1003
0000
0010
0100
,
0010
0000
0000
0000
,
0001
0000
1000
0001
,
1000
0001
0010
0001
,
0011
0001
0000
1000
,
0000
0001
0000
0010
,
0000
0001
0000
0010
,
0001
0010
0001
0100
,
0101
0001
0000
0001
,
0000
0010
0001
0100
,
0010
0000
0100
0010
,
0100
1000
0010
1000
,
0001
1001
0000
0000
,
1000
0010
1000
0000
,
0010
0000
0100
0000
,
0010
0100
0010
0001
,
0001
1000
0000
0000
,
1001
0010
0100
0010
,
0010
0001
0100
0100
,
0000
1000
1000
0010
,
0100
0000
0101
0000
,
0000
0010
0101
0000
;

//---------------dance-single - ----------------
#NOTES:
     dance-single:
     :
     Challenge:
     7:
     0.417,0.463,0.233,0.171,0.082,690.000,64.000,47.000,0.000,0.000:
0000
0000
0000
0000
,
0001
1000
0000
1000
0001
0000
0001
1000
0001
0000
1001
0000
1000
0001
1000
0001
,
1000
0001
1000
0001
1000
0001
1000
0001
2000
0000
0000
0000
3010
0000
0000
0000
,
0000
0000
0001
1000
0001
0000
0010
0000
0100
0000
0010
0000
1000
0000
1000
0000
,
0000
0000
0001
1000
0001
1000
0001
1000
0002
0000
0000
0000
1003
0000
0000
0000
,
0001
0000
1000
0000
1000
0001
0000
0000
1001
0000
0000
0000
1000
0000
0000
0000
,
1000
0100
1000
0100
1000
0100
1000
0000
,
0001
0010
0001
0010
0001
0000
0000
0000
,
1000
0001
1000
0001
1000
0000
1000
0000
,
0100
0010
0100
0010
1000
0000
0220
0330
,
1000
0001
1000
0001
1000
0100
1000
0100
,
0100
0000
0010
0000
0100
0000
0010
0000
0001
0000
0000
0000
0001
0000
0010
0001
,
0010
0000
0001
0100
0010
0000
0010
0100
,
0010
0000
0100
0000
0010
0000
0100
0010
,
0200
0010
0010
0001
,
0320
0001
0001
0001
,
1030
0000
0001
0010
1000
0000
0001
1000
,
0001
0000
0010
0000
0001
0010
0100
0001
,
0010
0100
0010
0000
1000
0000
0100
0001
,
0100
0011
0010
0100
,
0110
0000
1000
0100
1000
0100
0001
0000
,
1001
0000
1001
0000
1000
0000
0000
0010
,
0010
0100
1000
0000
1100
0000
1000
0000
,
1000
0010
1000
0010
0100
0000
0000
0000
,
0010
0100
0010
0100
0010
0001
0010
0001
,
0010
0001
0010
0001
0100
0000
0100
0001
,
0100
0001
0010
0100
0001
0100
1000
0010
,
0001
0000
0000
0000
0010
1000
0010
1000
,
0001
0100
1000
0010
1000
0010
0100
0000
,
1010
0100
0101
0011
,
0100
0001
1000
0001
,
2000
0000
0010
0000
,
3002
0000
0000
0000
,
2003
0000
0000
0000
,
3020
0000
0000
0000
0000
0000
0000
0000
0130
0000
0000
0100
0000
0000
0100
0000
,
0010
0100
0010
0001
0010
0001
0010
0000
,
0100
0010
0110
0100
,
0100
0001
0100
0001
0100
0001
0010
0000
,
0010
0000
0001
0100
1000
0000
0000
0000
,
1000
1000
1000
1000
0010
0010
0010
0010
,
0001
0001
0001
0000
0100
0000
0101
0000
,
1000
1010
1000
0001
,
1000
0010
0002
0000
,
2003
0000
0000
0000
,
3010
0000
0000
0010
0100
0000
0100
0010
0000
0100
0001
0100
0001
0100
0001
0000
,
0100
0000
0101
0000
0001
0000
1000
0001
,
1000
0010
0110
0101
,
1100
0000
1000
0100
0010
0000
0100
0010
,
0100
0000
0010
0000
0001
0000
0010
0001
,
0010
0000
0001
0000
0001
0100
0010
0000
,
1010
1000
0101
1000
,
1000
0010
1000
0010
0100
0010
0100
0000
,
0100
0010
0100
0010
0001
0000
0200
0000
,
0301
0100
0001
0100
0001
0000
0100
1000
,
0100
1000
0100
1000
1010
0000
0100
0000
,
0010
0100
0010
0100
0001
0010
0001
0010
,
0001
0000
0000
0000
1001
0000
0000
0000
0010
0100
0000
0100
0010
0000
0100
0000
,
1000
0000
1000
0001
1000
0010
1000
0000
,
1001
0000
0101
0000
0001
0100
0001
0010
,
0100
0101
0010
0001
,
0101
0100
0100
0010
,
0002
0000
0000
0000
,
2003
0000
0010
0000
,
3020
0000
0000
0000
0000
0000
0000
0000
0130
0000
0000
0100
0000
0000
0010
0000
,
0100
0000
0101
0000
0001
0100
1000
0000
,
0010
0000
1000
0000
1000
0010
0100
0000
,
1000
0100
1000
0000
0010
0000
0110
0000
,
0100
0000
0010
0000
0001
0010
0001
0000
,
0101
0010
0101
0001
,
1000
0000
1010
0000
1000
0010
1000
0000
,
0020
0000
0000
0000
0000
0000
0130
0200
,
0000
0010
0010
0010
,
0301
0010
0001
0100
0001
0100
0001
0000
,
1000
1001
0001
1001
,
0010
0100
0010
0100
0010
0000
0100
0000
,
0010
0000
1000
0000
0010
1000
0010
0000
,
0100
0000
0001
0000
0100
0001
0100
0000
,
0010
0000
0011
0000
0100
0001
0100
0000
,
1000
0100
1000
0000
1000
0010
1000
0000
,
0100
0010
0100
0000
0010
0000
0011
0000
,
0001
0000
0000
0000
0101
0000
0000
0000
0002
0000
0003
0000
1000
0001
1000
0001
,
1000
0000
0001
0000
1000
0001
1000
0000
,
0020
0000
0000
0130
,
0100
0000
0001
0000
1000
0001
1000
0000
,
1010
0101
0200
0000
,
0302
0000
2003
3200
,
0302
0000
0000
0000
,
2003
0000
0000
3010
,
0100
0000
0010
0000
0010
0100
0010
0100
,
0010
0001
0001
0000
0101
0000
0001
0000
,
1000
0000
0010
0100
0100
0000
0010
0000
,
0100
0110
0001
1000
,
1002
0000
0000
0000
0000
0000
1003
1000
,
1000
0000
0100
0010
0100
0010
0001
0010
,
0001
0010
0001
0100
0001
0000
0000
0000
,
0100
0010
0100
0010
0001
0010
0001
0010
,
0002
0000
0000
0000
0003
0000
1000
0100
,
1000
1001
0001
1001
,
0010
0110
0100
0110
,
0020
1000
2030
0001
,
3002
0000
0000
0000
0000
0000
0000
0000
1003
0000
0000
1000
0000
0000
1000
0000
,
0100
1000
0100
1000
0010
1000
0010
1000
,
0010
0100
0010
0010
0001
0000
0001
0100
,
0001
0100
0001
0100
0010
0100
0010
0100
,
1000
0100
0000
0000
0000
0000
1000
0010
,
1000
0010
0100
0010
0001
0100
1000
0000
,
1001
0101
1001
0101
,
0002
1000
2003
0010
,
3020
0000
0000
0000
,
0230
0000
0000
0000
,
0302
0000
1000
0000
,
2003
0000
0000
0000
0000
0000
0000
0000
3010
0000
0000
0010
0000
0000
0010
0000
,
0100
0000
0101
0000
0010
0100
0010
0100
,
0010
0010
0011
0011
,
0100
0110
0010
1000
,
0100
0010
1000
0001
1000
0010
1000
0010
,
1000
0010
1000
0002
0000
0000
0000
0003
,
1000
0010
1000
0010
0200
0000
0000
0300
,
0001
0100
1000
2000
0000
0000
3010
0200
,
0000
0000
0000
0000
0000
0000
0300
0000
0001
0010
0001
0010
0001
0010
0001
0000
,
0001
0000
0101
0000
0001
0100
0001
0100
,
1000
0000
1000
0100
1000
0010
0100
0000
,
0010
0000
0110
0000
0001
0010
0001
0010
,
0001
0011
0101
0010
,
0110
1010
1000
1100
,
1000
0001
1000
0001
1000
0000
1001
0000
,
0010
0100
0010
0200
0000
0000
0301
2000
,
0000
0000
0000
0000
,
3001
0000
0000
0001
1000
0000
1000
0000
0000
1000
0010
0000
0100
0000
0000
0000
,
1001
0000
0000
0001
1000
0001
1000
0001
2000
0000
3000
0000
0001
0000
0000
0000
,
1000
0000
0001
1000
0001
0000
0010
0000
0100
0000
0010
0000
1000
0000
0010
0000
,
0000
0000
0000
1000
0001
1000
0001
1000
0002
0000
0000
0000
0000
0000
0000
0000
,
0003
0000
0000
1000
0000
1000
0010
0000
0100
0000
0100
0010
0000
0100
0010
0000
,
0100
0010
0100
0000
1001
0000
0000
0000
2002
0000
0000
0000
3003
0000
0000
0000
;

//---------------dance-single - ----------------
#NOTES:
     dance-single:
     :
     Medium:
     5:
     0.350,0.390,0.222,0.160,0.016,568.000,61.000,44.000,0.000,0.000:
0000
0000
0000
0000
,
0000
0000
0000
0000
,
0100
0010
0100
0010
0100
0000
0000
0000
,
0000
0000
0010
0100
0010
0000
1000
0000
0001
0000
1000
0000
0100
0000
0100
0000
,
0000
0010
0100
0010
0100
0000
0000
0000
,
0010
0000
0100
0000
0100
0010
0000
0000
0110
0000
0000
0000
0000
0000
0000
0000
,
0100
0001
0100
0001
0100
0001
0100
0000
,
0010
1000
0010
1000
0010
0000
0000
0000
,
0100
0010
0100
0010
0100
0000
0100
0000
,
0001
1000
0001
1000
0100
0000
0000
0000
,
0100
0010
0100
0010
0100
0001
0100
0001
,
0001
1000
0001
1000
0010
0000
0010
0000
,
1000
0000
0010
0001
1000
0000
0000
0001
,
0000
0000
0000
0000
1000
0000
0001
1000
,
0002
0000
0000
0000
,
2003
0000
0000
0000
,
3100
0000
0010
0000
0100
0000
0010
0100
,
0010
0000
1000
0000
0010
1000
0001
0010
,
1000
0001
1000
0000
0100
0000
0001
0000
,
0010
1010
1000
0001
,
1001
0000
0100
0001
0100
0001
0010
0000
,
0110
0000
0110
0000
0100
0000
0000
1000
,
1000
0001
0100
0000
0101
0000
0100
0000
,
0100
1000
0100
1000
0001
0000
0000
0000
,
1000
0001
1000
0001
1000
0010
1000
0010
,
1000
0010
1000
0010
0001
0000
0001
0010
,
0001
0010
1000
0001
0010
0001
0100
1000
,
0010
0000
0000
0000
1000
0100
1000
0100
,
0010
0001
0100
1000
0100
1000
0001
0000
,
1100
0001
0011
1010
,
0001
0010
0100
0010
,
0200
0000
0000
0000
,
0320
0000
0000
0000
,
0230
0000
0000
0000
,
2300
0000
0000
0000
0000
0000
0000
0000
3001
0000
0000
0001
0000
0000
0001
0000
,
1000
0001
1000
0010
1000
0010
1000
0000
,
0001
1000
1001
0001
,
0001
0010
0001
0010
0001
0010
1000
0000
,
1000
0000
0010
0001
0100
0000
0000
0000
,
0100
0100
0100
0100
1000
1000
1000
1000
,
0010
0010
0010
0000
0001
0000
0011
0000
,
0100
1100
0100
0010
,
0100
1000
0020
0000
,
0230
0000
0000
0000
,
2300
0000
0000
0000
,
3001
0000
0011
0000
0010
0000
0100
0010
,
0100
1000
1001
0011
,
0101
0000
0100
0000
1000
0000
0001
1000
,
0001
0000
1000
0000
0010
0000
1000
0010
,
1000
0000
0010
0000
0010
0001
1000
0000
,
1100
0100
0011
0100
,
0100
1000
0100
0000
0001
1000
0001
0000
,
0001
1000
0001
1000
0010
0000
0000
0000
,
0010
0001
0010
0001
0010
0000
0001
0100
,
0001
0100
0001
0100
1100
0000
0001
0000
,
1000
0001
1000
0001
0010
1000
0010
1000
,
0010
0110
0000
0000
,
0100
0000
0100
0010
0100
1000
0100
0000
,
0110
0000
0011
0000
0010
0001
0010
1000
,
0001
0011
1000
0010
,
0011
0000
0000
0000
,
0020
0000
0000
0000
,
0230
0000
0000
0000
,
2300
0000
0000
0000
,
3001
0000
0011
0000
0010
0001
0100
0000
,
1000
0000
0100
0000
0100
1000
0001
0000
,
0100
0001
0100
0000
1000
0000
1001
0000
,
0001
0000
1000
0000
0010
1000
0010
0000
,
0011
1000
0011
0010
,
0100
0000
1100
0000
0100
1000
0100
0000
,
2000
0000
0000
0000
0000
0000
3001
0002
,
0000
0000
0000
0000
,
0023
0000
0000
0000
,
0130
0100
0010
0110
,
1000
0000
1000
0001
1000
0000
0001
0000
,
1000
0000
0100
0000
1000
0100
1000
0000
,
0001
0000
0010
0000
0001
0010
0001
0000
,
1000
0000
1010
0000
0001
0010
0001
0000
,
0100
0001
0100
0000
0100
1000
0100
0000
,
0001
1000
0001
0000
1000
0000
1010
0000
,
0010
0011
0020
0000
,
0130
0000
0010
0000
0100
0010
0100
0000
,
2000
0000
0000
3001
,
0001
0000
0010
0000
0100
0010
0100
0000
,
1100
0011
0002
0000
,
0023
0000
0230
0302
,
0023
0000
0000
0000
,
0230
0000
0000
1300
,
0001
0000
1000
0000
1000
0001
1000
0001
,
1000
0010
0011
0010
,
0100
1100
0001
1000
,
0001
1001
0010
0100
,
0120
0000
0000
0000
,
0130
0000
0000
0000
,
1000
0000
0000
0000
,
0001
0000
0000
0000
,
0010
0000
0000
0000
,
0100
0110
0010
0110
,
1000
1001
0001
1001
,
2000
0000
3200
0000
,
0320
0000
0000
0000
0000
0000
0000
0000
0130
0000
0000
0100
0000
0000
0100
0000
,
0001
0100
0001
0100
1000
0100
1000
0100
,
1000
0001
1000
1000
0010
0000
0010
0001
,
0010
0001
0010
0001
1000
0001
1000
0001
,
0100
0001
0000
0000
0000
0000
0100
1000
,
0100
1000
0001
1000
0010
0001
0100
0000
,
0110
0011
0110
0011
,
0020
0000
0230
0000
,
2300
0000
0000
0000
,
3002
0000
0000
0000
,
0013
0020
0000
0000
0000
0000
0000
0000
,
0230
0000
0000
0000
0000
0000
0000
0000
1300
0000
0000
1000
0000
0000
1000
0000
,
0001
0000
0011
0000
1000
0001
1000
0001
,
1000
1000
1010
1010
,
0001
1001
1000
0100
,
0001
1000
0100
0010
0100
1000
0100
1000
,
0100
1000
0100
0020
0000
0000
0000
0030
,
0100
1000
0100
1000
0002
0000
0000
0003
,
0010
0001
0100
0200
0000
0000
1300
0002
,
0000
0000
0000
0000
,
0013
0000
0011
0000
0010
0001
0010
0001
,
0100
0000
0100
0001
0100
1000
0001
0000
,
1000
0000
1001
0000
0010
1000
0010
1000
,
0010
1010
0011
1000
,
1001
1100
0100
0101
,
0100
0010
0100
0010
0100
0000
0110
0000
,
1000
0001
1000
0002
0000
0000
0013
0200
,
0000
0000
0000
0000
,
0310
0000
0000
0010
0100
0000
0100
0000
0000
0100
1000
0000
0001
0000
0000
0000
,
0100
0010
0100
0010
0200
0300
0010
0000
,
0100
0000
0010
0100
0010
0000
1000
0000
0001
0000
1000
0000
0100
0000
1000
0000
,
0000
0100
0010
0100
0020
0000
0000
0000
,
0030
0000
0000
0200
0000
0000
0001
0000
0301
0000
0000
0000
0000
0000
0000
0000
,
0000
0110
0220
0330
;
