#TITLE:Teenage Dream;
#SUBTITLE:Sexuality Violation;
#ARTIST:Katy Perry;
#TITLETRANSLIT:;
#SUBTITLETRANSLIT:;
#ARTISTTRANSLIT:;
#CREDIT:;
#BANNER:Teenage Dream-bn.png;
#BACKGROUND:Teenage Dream-bg.png;
#LYRICSPATH:;
#CDTITLE:;
#MUSIC:01 - Teenage Dream.ogg;
#OFFSET:-0.250;
#SAMPLESTART:116.252;
#SAMPLELENGTH:12.000;
#SELECTABLE:YES;
#BPMS:0.000=240.000;
#STOPS:;
#BGCHANGES:;
// cache tags:
#FIRSTBEAT:16.000;
#LASTBEAT:908.000;
#SONGFILENAME:Songs/Sexuality Violation 2/Teenage Dream - [Janus5k]/Teenage Dream.sm;
#HASMUSIC:1;
#HASBANNER:1;
#MUSICLENGTH:227.840;
// end cache tags

//---------------dance-single - ReaFbirth----------------
#NOTES:
     dance-single:
     ReaFbirth:
     Edit:
     21:
     1.000,1.000,0.110,0.127,1.000,2397.000,25.000,29.000,61.000,0.000:
0000
0000
0000
0000
,
0000
0000
0000
0000
,
0000
0000
0000
0000
,
0000
0000
0000
0000
,
1001
0001
0100
0001
,
1000
0100
0000
0010
,
0001
0100
0010
0200
,
0000
0302
0000
2003
,
0000
3100
0010
0100
,
1000
0001
0000
0100
,
0010
1000
0001
2000
,
0000
3200
0000
0320
,
0000
0031
1000
0001
,
0100
0001
0100
0001
0100
0001
0100
0001
0100
0001
0100
0001
0100
0000
0000
0000
0000
0000
0010
0000
0000
0000
0000
0000
,
1000
0100
0010
0200
,
0000
2300
0000
3002
,
0000
0000
0003
0000
,
0000
0100
2000
3200
,
0000
0000
0300
0000
,
0000
0000
0000
0000
,
0001
0010
0100
0010
0001
1000
0010
1000
,
0001
0100
0010
1000
0010
1000
0100
0010
,
0001
1000
0100
0010
1000
0010
0100
1000
,
0100
1000
0001
0100
0001
0100
0010
1000
,
0010
0100
0001
0010
0100
0010
0001
1000
,
0010
0100
0001
1000
0001
1000
0100
0010
,
0001
1000
0010
0100
1000
0100
0010
1000
,
0010
1000
0001
0010
0001
0010
0100
1000
,
0010
1000
0100
0010
0001
0100
0010
0100
,
0001
1000
0010
1000
0010
1000
0001
0010
,
0100
1000
0010
0100
1000
0100
0001
1000
,
0001
1000
0100
0010
0100
0010
0001
0100
,
0010
1000
0001
0100
0010
1000
0001
1000
,
0100
0010
0001
1000
0100
0001
0100
0010
,
0100
1000
0100
0010
0100
1000
0100
0010
,
0002
0000
2003
0000
,
3001
0100
0001
1000
0010
1000
0001
1000
0100
0010
0001
1000
,
0001
0010
0100
1000
0001
1000
0010
0000
0000
0010
0000
0000
,
1000
0001
0001
1000
,
0100
0000
0000
0010
0001
1000
0010
1000
0001
0100
0010
0100
,
0001
1000
0010
0100
0001
1000
0001
0010
0100
1000
0001
0010
,
0001
1000
0100
0010
0001
1000
0001
0000
0000
0001
0000
0000
,
0100
0010
0100
0001
,
2000
0000
3002
0000
,
1003
0100
0010
0001
0010
0100
1000
0001
1000
0010
0100
0010
,
1000
0001
0100
0001
1000
0100
0010
0000
0000
0010
0000
0000
,
0001
1000
1000
0010
,
0100
0000
0000
0001
0100
0001
1000
0010
1000
0100
0010
0100
,
1000
0001
0010
0100
1000
0001
0100
0010
0100
0001
1000
0010
,
1000
0001
1000
0001
0010
0001
0010
0100
1000
0001
1000
0001
,
0100
0010
0100
0010
,
1000
0000
0100
0000
0010
0000
0001
0000
1000
0100
0010
0001
1000
0001
0010
0100
,
0001
0100
1000
0001
1000
0010
0100
0001
0100
0010
1000
0010
0001
0010
0100
0001
,
1000
0001
1000
0100
0010
0001
1000
0100
0001
0100
0010
0001
1000
0001
0100
0010
,
1000
0001
0100
0010
0001
0010
0100
0001
1000
0001
1000
0100
0010
0001
0010
0100
,
0001
1000
0001
1000
0010
0100
0010
0001
1000
0001
0100
0010
1000
0010
0100
0001
,
0100
1000
0100
0001
1000
0001
0010
0100
1000
0001
0010
0100
0010
1000
0010
0100
,
1000
0001
1000
0010
0100
0001
1000
0001
0100
1000
0100
0010
1000
0010
0100
0001
,
1000
0001
1000
0100
0010
1000
0010
0100
1000
0001
1000
0010
0100
0001
0100
0010
,
0001
1000
0001
1000
0100
0010
0100
0001
1000
0001
0010
0100
1000
0001
1000
0010
,
0001
0010
0100
0001
1000
0001
0010
1000
0010
0100
1000
0100
0001
0100
0010
0001
,
1000
0001
0100
1000
0100
0001
0100
0010
0001
0010
0100
0001
1000
0001
0010
1000
,
0010
0100
1000
0001
1000
0100
0010
0100
0001
0100
1000
0001
1000
0010
0100
1000
,
0100
0010
1000
0001
1000
0100
0010
0001
0010
1000
0001
0100
1000
0001
0100
1000
,
0100
0001
0011
0000
,
0011
0000
0000
0000
0000
0000
0000
0000
0010
1000
0001
0100
1000
0001
0100
1000
,
0100
0001
0101
0000
,
0101
0100
0010
0100
,
1000
0100
0001
1000
0001
0010
0100
1000
0100
0010
0001
0010
1000
0010
0100
1000
,
0001
1000
0001
0100
0010
1000
0001
0100
1000
0100
0010
1000
0001
1000
0100
0010
,
0001
1000
0100
0010
1000
0010
0100
1000
0001
1000
0001
0100
0010
1000
0010
0100
,
1000
0001
1000
0001
0010
0100
0010
1000
0001
1000
0100
0010
0001
0010
0100
1000
,
0100
0001
0100
1000
0001
1000
0010
0100
0001
1000
0010
0100
0010
0001
0010
0100
,
0001
1000
0001
0010
0100
1000
0001
1000
0100
0001
0100
0010
0001
0010
0100
1000
,
0001
1000
0001
0100
0010
0001
0010
0100
0001
1000
0001
0010
0100
1000
0100
0010
,
1000
0001
1000
0001
0100
0010
0100
1000
0001
1000
0010
0100
0001
1000
0001
0010
,
1000
0010
0100
1000
0001
1000
0010
0001
0010
0100
0001
0100
1000
0100
0010
1000
,
0001
1000
0100
0001
0100
1000
0100
0010
1000
0010
0100
1000
0001
1000
0010
0001
,
0010
0100
0001
1000
0001
0100
0010
0100
1000
0100
0001
1000
0001
0010
0100
0001
,
0100
0010
0001
1000
0001
0100
0010
1000
0010
0001
1000
0100
0001
1000
0100
0001
,
0100
1000
1010
0000
,
1010
0000
0000
0000
0000
0000
0000
0000
0010
0001
1000
0100
0001
1000
0100
0001
,
0100
1000
1010
0000
,
1010
0010
0100
0010
,
1000
0010
0100
0010
1000
0001
0010
0001
,
1000
0100
0010
0001
0010
0001
0100
0010
,
1000
0001
0100
0010
0001
0010
0100
0001
,
0100
0001
1000
0100
1000
0100
0010
0001
,
0010
0100
1000
0010
0100
0010
1000
0001
,
0010
0100
1000
0001
1000
0001
0100
0010
,
1000
0001
0010
0100
0001
0100
0010
0001
,
0010
0001
1000
0010
1000
0010
0100
0001
,
0010
0001
0100
0010
1000
0100
0010
0100
,
1000
0001
0010
0001
0010
0001
1000
0010
,
0100
0001
0010
0100
0001
0100
1000
0001
,
1000
0001
0100
0010
0100
0010
1000
0100
,
0010
0001
1000
0100
0010
0001
1000
0001
,
0100
0010
1000
0001
0100
1000
0100
0010
,
0100
0001
0100
0010
0100
0001
0100
0010
,
2000
0000
3002
0000
,
1003
0100
1000
0001
0010
0001
1000
0001
0100
0010
1000
0001
,
1000
0010
0100
0001
1000
0001
0010
0000
0000
0010
0000
0000
,
0001
1000
1000
0001
,
0100
0000
0000
0010
1000
0001
0010
0001
1000
0100
0010
0100
,
1000
0001
0010
0100
1000
0001
1000
0010
0100
0001
1000
0010
,
1000
0001
0100
0010
1000
0001
1000
0000
0000
1000
0000
0000
,
0100
0010
0100
1000
,
0002
0000
2003
0000
,
3001
0100
0010
1000
0010
0100
0001
1000
0001
0010
0100
0010
,
0001
1000
0100
1000
0001
0100
0010
0000
0000
0010
0000
0000
,
1000
0001
0001
0010
,
0100
0000
0000
1000
0100
1000
0001
0010
0001
0100
0010
0100
,
0001
1000
0010
0100
0001
1000
0100
0010
0100
1000
0001
0010
,
0001
1000
0001
1000
0010
1000
0010
0100
0001
1000
0001
1000
,
0100
0010
0100
0010
,
0001
0000
0100
0000
0010
0000
1000
0000
0001
0100
0010
1000
0001
0010
0100
0010
,
1000
0010
0001
1000
0001
0100
0010
1000
0010
0100
0001
0100
1000
0100
0010
1000
,
0001
1000
0001
0010
0100
1000
0001
0010
1000
0010
0100
1000
0001
1000
0010
0100
,
0001
1000
0010
0100
1000
0100
0010
1000
0001
1000
0001
0010
0100
1000
0100
0010
,
1000
0001
1000
0001
0100
0010
0100
1000
0001
1000
0010
0100
0001
0100
0010
1000
,
0010
0001
0010
1000
0001
1000
0100
0010
0001
1000
0100
0010
0100
0001
0100
0010
,
0001
1000
0001
0100
0010
1000
0001
1000
0010
0001
0010
0100
0001
0100
0010
1000
,
0001
1000
0001
0010
0100
0001
0100
0010
0001
1000
0001
0100
0010
1000
0010
0100
,
1000
0001
1000
0001
0010
0100
0010
1000
0001
1000
0100
0010
0001
1000
0001
0100
,
1000
0100
0010
1000
0001
1000
0100
0001
0100
0010
0001
0010
1000
0010
0100
1000
,
0001
1000
0010
0001
0010
1000
0010
0100
1000
0100
0010
1000
0001
1000
0100
0001
,
0100
0010
0001
1000
0001
0010
0100
0010
1000
0010
0001
1000
0001
0100
0010
0001
,
0010
0100
0001
1000
0001
0010
0100
1000
0100
0001
1000
0010
0001
1000
0010
0001
,
0010
1000
1100
0000
,
1100
0000
0000
0000
0000
0000
0000
0000
0100
0001
1000
0010
0001
1000
0010
0001
,
0010
1000
1010
0000
,
1010
0010
0100
0010
,
0001
0010
1000
0001
1000
0100
0010
0001
0010
0100
1000
0100
0001
0100
0010
0001
,
1000
0001
1000
0010
0100
0001
1000
0010
0001
0010
0100
0001
1000
0001
0010
0100
,
1000
0001
0010
0100
0001
0100
0010
0001
1000
0001
1000
0010
0100
0001
0100
0010
,
0001
1000
0001
1000
0100
0010
0100
0001
1000
0001
0010
0100
1000
0100
0010
0001
,
0010
1000
0010
0001
1000
0001
0100
0010
1000
0001
0100
0010
0100
1000
0100
0010
,
1000
0001
1000
0100
0010
0001
1000
0001
0010
1000
0010
0100
1000
0100
0010
0001
,
1000
0001
1000
0010
0100
1000
0100
0010
1000
0001
1000
0100
0010
0001
0010
0100
,
0001
1000
0001
1000
0010
0100
0010
0001
1000
0001
0100
0010
1000
0001
1000
0100
,
0001
0100
0010
0001
1000
0001
0100
1000
0100
0010
1000
0010
0001
0010
0100
0001
,
1000
0001
0010
1000
0010
0001
0010
0100
0001
0100
0010
0001
1000
0001
0100
1000
,
0100
0010
1000
0001
1000
0010
0100
0010
0001
0010
1000
0001
1000
0100
0010
1000
,
0010
0100
1000
0001
1000
0010
0100
0001
0100
1000
0001
0010
1000
0001
0010
1000
,
0010
0001
0101
0000
,
0101
0000
0000
0000
0000
0000
0000
0000
0100
1000
0001
0010
1000
0001
0010
1000
,
0010
0001
0101
0000
,
0100
0001
0100
0010
0001
0010
0001
0010
0100
0001
1000
0001
0010
0100
0010
1000
,
0001
1000
0010
0100
1000
0001
1000
0010
0100
0001
0100
1000
0100
0001
1000
0010
,
0100
0001
1000
0100
0010
0001
0010
1000
0010
0100
1000
0001
1000
0010
0100
1000
,
0100
0001
1000
0001
0010
0100
1000
0100
0001
0100
0010
0001
1000
0001
0100
0010
,
0001
0010
0100
0001
1000
0001
0010
1000
0010
0100
1000
0001
1000
0001
0100
0010
,
1000
0010
0100
1000
0100
0001
1000
0001
0010
0100
1000
0100
0001
0100
0010
0001
,
1000
0001
0100
0010
0100
0001
1000
0001
0010
1000
0010
0001
1000
0001
0100
0010
,
0001
0010
0100
0001
1000
0001
0010
0100
0001
0100
1000
0001
0010
1000
0010
0100
,
1000
0001
0100
0010
0001
0010
1000
0001
0100
1000
0100
0010
1000
0001
1000
0100
,
0010
0001
1000
0010
0100
1000
0100
0001
1000
0001
0010
1000
0010
0100
1000
0001
,
0100
0010
0001
0010
0100
0001
1000
0100
0010
1000
0010
0100
1000
0001
0100
1000
,
0100
0001
1000
0100
0001
0100
1000
0001
0100
0010
0100
0001
0010
0100
0001
0100
,
1000
0001
0010
1000
0001
0100
1000
0001
0100
1000
0001
0010
1000
0001
1000
0100
,
0010
1000
0010
0100
1000
0001
0100
1000
0100
0001
1000
0100
0001
0100
1000
0001
,
0100
1000
0100
0001
1000
0100
0001
0100
1000
0010
1000
0100
0001
0100
1000
0010
,
0100
0001
0010
1000
0010
0001
0100
0001
0010
1000
0010
0001
0100
0010
1000
0100
,
0001
0100
1000
0010
0001
0010
1000
0100
0010
0000
0000
0000
0002
0000
0000
0000
,
M000
00M0
M100
20M3
,
000M
0M00
010M
3M02
,
M000
00M0
M010
20M3
,
000M
0M00
001M
3M02
,
00M0
M000
00M0
0M00
,
10M3
001M
1M00
00M1
,
0M00
1MM1
1MM1
0000
,
1000
0010
0001
0010
1000
0100
0001
0100
1000
0010
0001
0010
1000
0100
0001
0100
,
0001
0100
1000
0001
1000
0010
0100
0001
0100
0010
1000
0010
0001
0010
0100
0001
,
1000
0001
1000
0100
0010
0001
1000
0100
0001
0100
0010
0001
1000
0001
0100
0010
,
1000
0001
0100
0010
0001
0010
0100
0001
1000
0001
1000
0100
0010
0001
0010
0100
,
0001
1000
0001
1000
0010
0100
0010
0001
1000
0001
0100
0010
1000
0010
0100
0001
,
0100
1000
0100
0001
1000
0001
0010
0100
1000
0001
0010
0100
0010
1000
0010
0100
,
1000
0001
1000
0010
0100
0001
1000
0001
0100
1000
0100
0010
1000
0010
0100
0001
,
1000
0001
1000
0100
0010
1000
0010
0100
1000
0001
1000
0010
0100
0001
0100
0010
,
0001
1000
0001
1000
0100
0010
0100
0001
1000
0001
0010
0100
1000
0001
1000
0010
,
0001
0010
0100
0001
1000
0001
0010
1000
0010
0100
1000
0100
0001
0100
0010
0001
,
1000
0001
0100
1000
0100
0001
0100
0010
0001
0010
0100
0001
1000
0001
0010
1000
,
0010
0100
1000
0001
1000
0100
0010
0100
0001
0100
1000
0001
1000
0010
0100
1000
,
0100
0010
1000
0001
1000
0100
0010
0001
0010
1000
0001
0100
1000
0001
0100
1000
,
0100
0001
0011
0000
,
0011
0000
0000
0000
0000
0000
0000
0000
0010
1000
0001
0100
1000
0001
0100
1000
,
0100
0001
0101
0000
,
0101
0000
0000
0000
0100
0000
0000
0000
0010
0001
1000
0100
0001
1000
0010
0001
,
1000
0100
0001
1000
0001
0010
0100
1000
0100
0010
0001
0010
1000
0010
0100
1000
,
0001
1000
0001
0100
0010
1000
0001
0100
1000
0100
0010
1000
0001
1000
0100
0010
,
0001
1000
0100
0010
1000
0010
0100
1000
0001
1000
0001
0100
0010
1000
0010
0100
,
1000
0001
1000
0001
0010
0100
0010
1000
0001
1000
0100
0010
0001
0010
0100
1000
,
0100
0001
0100
1000
0001
1000
0010
0100
0001
1000
0010
0100
0010
0001
0010
0100
,
0001
1000
0001
0010
0100
1000
0001
1000
0100
0001
0100
0010
0001
0010
0100
1000
,
0001
1000
0001
0100
0010
0001
0010
0100
0001
1000
0001
0010
0100
1000
0100
0010
,
1000
0001
1000
0001
0100
0010
0100
1000
0001
1000
0010
0100
0001
1000
0001
0010
,
1000
0010
0100
1000
0001
1000
0010
0001
0010
0100
0001
0100
1000
0100
0010
1000
,
0001
1000
0100
0001
0100
1000
0100
0010
1000
0010
0100
1000
0001
1000
0010
0001
,
0010
0100
0001
1000
0001
0100
0010
0100
1000
0100
0001
1000
0001
0010
0100
0001
,
0100
0010
0001
1000
0001
0100
0010
1000
0010
0001
1000
0100
0001
1000
0100
0001
,
0100
1000
1010
0000
,
1010
0000
0000
0000
0000
0000
0000
0000
0010
0001
1000
0100
0001
1000
0100
0001
,
0100
1000
1010
0000
,
0010
1000
0010
0100
1000
0100
1000
0100
0010
1000
0001
1000
0100
0010
0100
0001
,
1000
0001
0100
0010
0001
1000
0001
0100
0010
1000
0010
0001
0010
1000
0001
0100
,
0010
1000
0001
0010
0100
1000
0100
0001
0100
0010
0001
1000
0001
0100
0010
0001
,
0010
1000
0001
1000
0100
0010
0001
0010
1000
0010
0100
1000
0001
1000
0010
0100
,
1000
0100
0010
1000
0001
1000
0100
0001
0100
0010
0001
1000
0001
1000
0010
0100
,
0001
0100
0010
0001
0010
1000
0001
1000
0100
0010
0001
0010
1000
0010
0100
1000
,
0001
1000
0010
0100
0010
1000
0001
1000
0100
0001
0100
1000
0001
1000
0010
0100
,
1000
0100
0010
1000
0001
1000
0100
0010
1000
0010
0001
1000
0100
0001
0100
0010
,
0001
1000
0010
0100
1000
0100
0001
1000
0010
0001
0010
0100
0001
1000
0001
0010
,
0100
1000
0001
0100
0010
0001
0010
1000
0001
1000
0100
0001
0100
0010
0001
1000
,
0010
0100
1000
0100
0010
1000
0001
0010
0100
0001
0100
0010
0001
1000
0010
0001
,
0010
1000
0001
0010
1000
0010
0001
1000
0010
0100
0010
1000
0100
0010
1000
0010
,
0001
1000
0100
0001
1000
0010
0001
1000
0010
0001
1000
0100
0001
1000
0001
0010
,
0100
0001
0100
0010
0001
1000
0010
0001
0010
1000
0001
0010
1000
0010
0001
1000
,
0010
0001
0010
1000
0001
0010
1000
0010
0001
0100
0001
0010
1000
0010
0001
0100
,
0010
1000
0100
0001
0100
1000
0010
1000
0100
0001
0100
1000
0010
0100
0001
0010
,
1000
0010
0001
0100
1000
0100
0001
0010
0100
0000
0000
0000
2000
0000
0000
0000
,
000M
0M00
010M
3M02
,
M000
00M0
M100
20M3
,
000M
0M00
001M
3M02
,
M000
00M0
M010
2M03
,
00M0
000M
00M0
0M00
,
30M0
0M00
00M0
0M00
,
000M
M000
000M
M000
,
MMMM
0000
0000
0000
;

//---------------dance-single - T. Swag----------------
#NOTES:
     dance-single:
     T. Swag:
     Challenge:
     19:
     1.000,1.000,0.110,0.145,1.000,2325.000,25.000,33.000,61.000,0.000:
0000
0000
0000
0000
,
0000
0000
0000
0000
,
0000
0000
0000
0000
,
0000
0000
0000
0000
,
1001
0001
0100
0001
,
1000
0100
0000
0010
,
0001
0100
0010
0200
,
0000
0302
0000
2003
,
0000
3100
0010
0100
,
1000
0001
0000
0100
,
0010
1000
0001
2000
,
0000
3200
0000
0320
,
0000
0031
1000
0001
,
0100
0001
0100
0001
0100
0001
0100
0001
0100
0001
0100
0001
0100
0000
0000
0000
0000
0000
0010
0000
0000
0000
0000
0000
,
1000
0100
0010
0200
,
0000
2300
0000
3002
,
0000
0000
0003
0000
,
0000
0100
2000
3200
,
0000
0000
0300
0000
,
0000
0000
0000
0000
,
0001
0010
0100
0010
0001
1000
0010
1000
,
0001
0100
0010
1000
0010
1000
0100
0010
,
0001
1000
0100
0010
1000
0010
0100
1000
,
0100
1000
0001
0100
0001
0100
0010
1000
,
0010
0100
0001
0010
0100
0010
0001
1000
,
0010
0100
0001
1000
0001
1000
0100
0010
,
0001
1000
0010
0100
1000
0100
0010
1000
,
0010
1000
0001
0010
0001
0010
0100
1000
,
0010
1000
0100
0010
0001
0100
0010
0100
,
0001
1000
0010
1000
0010
1000
0001
0010
,
0100
1000
0010
0100
1000
0100
0001
1000
,
0001
1000
0100
0010
0100
0010
0001
0100
,
0010
1000
0001
0100
0010
1000
0001
1000
,
0100
0010
0001
1000
0100
0001
0100
0010
,
0100
1000
0100
0010
0100
1000
0100
0010
,
0002
0000
2003
0000
,
3001
0100
0001
1000
0010
1000
0001
1000
0100
0010
0001
1000
,
0001
0010
0100
1000
0001
1000
0010
0000
0000
0010
0000
0000
,
1000
0001
0001
1000
,
0100
0000
0000
0010
0001
1000
0010
1000
0001
0100
0010
0100
,
0001
1000
0010
0100
0001
1000
0001
0010
0100
1000
0001
0010
,
0001
1000
0100
0010
0001
1000
0001
0000
0000
0001
0000
0000
,
0100
0010
0100
0001
,
2000
0000
3002
0000
,
1003
0100
0010
0001
0010
0100
1000
0001
1000
0010
0100
0010
,
1000
0001
0100
0001
1000
0100
0010
0000
0000
0010
0000
0000
,
0001
1000
1000
0010
,
0100
0000
0000
0001
0100
0001
1000
0010
1000
0100
0010
0100
,
1000
0001
0010
0100
1000
0001
0100
0010
0100
0001
1000
0010
,
1000
0001
1000
0001
0010
0001
0010
0100
1000
0001
1000
0001
,
0100
0010
0100
0010
,
1000
0000
0100
0000
0010
0000
0001
0000
1000
0100
0010
0001
1000
0100
0010
0001
,
1000
0001
0100
0010
1000
0010
0100
0001
1000
0010
1000
0001
1000
0100
0010
0001
,
0010
0100
1000
0001
0010
0001
1000
0001
0100
0010
1000
0001
0100
0010
0100
0001
,
1000
0010
1000
0001
0010
0100
0010
0001
1000
0100
0010
0100
1000
0001
0010
0100
,
1000
0001
1000
0010
0100
0001
0100
0001
1000
0010
0100
0001
1000
0001
0100
0010
,
1000
0100
0010
0001
1000
0001
0010
0100
1000
0001
1000
0001
0100
0010
1000
0010
,
0100
0001
1000
0001
0100
0010
1000
0001
1000
0100
0010
0001
1000
0100
1000
0001
,
0010
0001
1000
0001
0100
0010
1000
0010
0100
0001
1000
0001
0010
0100
0010
0001
,
1000
0100
1000
0001
0010
0100
1000
0001
1000
0010
0100
0001
0100
0010
1000
0001
,
1000
0100
0010
0001
1000
0100
1000
0100
0010
0001
1000
0001
0100
0010
0100
0001
,
1000
0010
1000
0010
0100
0001
1000
0001
0010
0100
0010
0001
1000
0100
0010
0001
,
1000
0100
1000
0001
0010
0100
0010
0001
1000
0001
0100
0001
1000
0010
1000
0001
,
1000
0100
0010
0100
1000
0001
0010
0001
0100
0010
1000
0100
0010
0001
0100
0010
,
1000
0001
0011
0000
,
0011
0000
0000
0000
0000
0000
0000
0000
0010
0100
1000
0010
0100
0001
0010
0100
,
1000
0001
0101
0000
,
0101
0100
0010
0100
,
0001
1000
0010
0100
0001
0100
0010
1000
0001
0100
0001
1000
0001
0010
0100
1000
,
0100
0010
0001
1000
0100
1000
0001
1000
0010
0100
0001
1000
0010
0100
0010
1000
,
0001
0100
0001
1000
0100
0010
0100
1000
0001
0010
0100
0010
0001
1000
0100
0010
,
0001
1000
0001
0100
0010
1000
0010
1000
0001
0100
0010
1000
0001
1000
0010
0100
,
0001
0010
0100
1000
0001
1000
0100
0010
0001
1000
0001
1000
0010
0100
0001
0100
,
0010
1000
0001
1000
0010
0100
0001
1000
0001
0010
0100
1000
0001
0010
0001
1000
,
0100
1000
0001
1000
0010
0100
0001
0100
0010
1000
0001
1000
0100
0010
0100
1000
,
0001
0010
0001
1000
0100
0010
0001
1000
0001
0100
0010
1000
0010
0100
0001
1000
,
0001
0010
0100
1000
0001
0010
0001
0010
0100
1000
0001
1000
0010
0100
0010
1000
,
0001
0100
0001
0100
0010
1000
0001
1000
0100
0010
0100
1000
0001
0010
0100
1000
,
0001
0010
0001
1000
0100
0010
0100
1000
0001
1000
0010
1000
0001
0100
0001
1000
,
0001
0010
0100
0010
0001
1000
0100
1000
0010
0100
0001
0010
0100
1000
0010
0100
,
0001
1000
1100
0000
,
1100
0000
0000
0000
0000
0000
0000
0000
0100
0010
0001
0100
0010
1000
0100
0010
,
0001
1000
1010
0000
,
1010
0010
0100
0010
,
1000
0010
0100
0010
1000
0001
0010
0001
,
1000
0100
0010
0001
0010
0001
0100
0010
,
1000
0001
0100
0010
0001
0010
0100
0001
,
0100
0001
1000
0100
1000
0100
0010
0001
,
0010
0100
1000
0010
0100
0010
1000
0001
,
0010
0100
1000
0001
1000
0001
0100
0010
,
1000
0001
0010
0100
0001
0100
0010
0001
,
0010
0001
1000
0010
1000
0010
0100
0001
,
0010
0001
0100
0010
1000
0100
0010
0100
,
1000
0001
0010
0001
0010
0001
1000
0010
,
0100
0001
0010
0100
0001
0100
1000
0001
,
1000
0001
0100
0010
0100
0010
1000
0100
,
0010
0001
1000
0100
0010
0001
1000
0001
,
0100
0010
1000
0001
0100
1000
0100
0010
,
0100
0001
0100
0010
0100
0001
0100
0010
,
2000
0000
3002
0000
,
1003
0100
1000
0001
0010
0001
1000
0001
0100
0010
1000
0001
,
1000
0010
0100
0001
1000
0001
0010
0000
0000
0010
0000
0000
,
0001
1000
1000
0001
,
0100
0000
0000
0010
1000
0001
0010
0001
1000
0100
0010
0100
,
1000
0001
0010
0100
1000
0001
1000
0010
0100
0001
1000
0010
,
1000
0001
0100
0010
1000
0001
1000
0000
0000
1000
0000
0000
,
0100
0010
0100
1000
,
0002
0000
2003
0000
,
3001
0100
0010
1000
0010
0100
0001
1000
0001
0010
0100
0010
,
0001
1000
0100
1000
0001
0100
0010
0000
0000
0010
0000
0000
,
1000
0001
0001
0010
,
0100
0000
0000
1000
0100
1000
0001
0010
0001
0100
0010
0100
,
0001
1000
0010
0100
0001
1000
0100
0010
0100
1000
0001
0010
,
0001
1000
0001
1000
0010
1000
0010
0100
0001
1000
0001
1000
,
0100
0010
0100
0010
,
0001
0000
0100
0000
0010
0000
1000
0000
0001
0100
0010
1000
0001
0100
0010
1000
,
0001
1000
0100
0010
0001
0010
0100
1000
0001
0010
0001
1000
0001
0100
0010
1000
,
0010
0100
0001
1000
0010
1000
0001
1000
0100
0010
0001
1000
0100
0010
0100
1000
,
0001
0010
0001
1000
0010
0100
0010
1000
0001
0100
0010
0100
0001
1000
0010
0100
,
0001
1000
0001
0010
0100
1000
0100
1000
0001
0010
0100
1000
0001
1000
0100
0010
,
0001
0100
0010
1000
0001
1000
0010
0100
0001
1000
0001
1000
0100
0010
0001
0010
,
0100
1000
0001
1000
0100
0010
0001
1000
0001
0100
0010
1000
0001
0100
0001
1000
,
0010
1000
0001
1000
0100
0010
0001
0010
0100
1000
0001
1000
0010
0100
0010
1000
,
0001
0100
0001
1000
0010
0100
0001
1000
0001
0010
0100
1000
0100
0010
0001
1000
,
0001
0100
0010
1000
0001
0100
0001
0100
0010
1000
0001
1000
0100
0010
0100
1000
,
0001
0010
0001
0010
0100
1000
0001
1000
0010
0100
0010
1000
0001
0100
0010
1000
,
0001
0100
0001
1000
0010
0100
0010
1000
0001
1000
0100
1000
0001
0010
0001
1000
,
0001
0100
0010
0100
0001
1000
0010
1000
0100
0010
0001
0100
0010
1000
0100
0010
,
0001
1000
1010
0000
,
1010
0000
0000
0000
0000
0000
0000
0000
0010
0100
0001
0010
0100
1000
0010
0100
,
0001
1000
1100
0000
,
1100
0100
0010
0100
,
1000
0001
0010
0100
1000
0100
0010
0001
1000
0100
1000
0001
1000
0010
0100
0001
,
0100
0010
1000
0001
0100
0001
1000
0001
0010
0100
1000
0001
0010
0100
0010
0001
,
1000
0100
1000
0001
0100
0010
0100
0001
1000
0010
0100
0010
1000
0001
0100
0010
,
1000
0001
1000
0100
0010
0001
0010
0001
1000
0100
0010
0001
1000
0001
0010
0100
,
1000
0010
0100
0001
1000
0001
0100
0010
1000
0001
1000
0001
0010
0100
1000
0100
,
0010
0001
1000
0001
0010
0100
1000
0001
1000
0010
0100
0001
1000
0010
1000
0001
,
0100
0001
1000
0001
0010
0100
1000
0100
0010
0001
1000
0001
0100
0010
0100
0001
,
1000
0010
1000
0001
0100
0010
1000
0001
1000
0100
0010
0001
0010
0100
1000
0001
,
1000
0010
0100
0001
1000
0010
1000
0010
0100
0001
1000
0001
0010
0100
0010
0001
,
1000
0100
1000
0100
0010
0001
1000
0001
0100
0010
0100
0001
1000
0010
0100
0001
,
1000
0010
1000
0001
0100
0010
0100
0001
1000
0001
0010
0001
1000
0100
1000
0001
,
1000
0010
0100
0010
1000
0001
0100
0001
0010
0100
1000
0010
0100
0001
0010
0100
,
1000
0001
0101
0000
,
0101
0000
0000
0000
0000
0000
0000
0000
0100
0010
1000
0100
0010
0001
0100
0010
,
1000
0001
0011
0000
,
0010
0100
1000
0001
0100
0010
0100
0001
1000
0100
0010
0001
1000
0010
1000
0001
,
0010
0100
1000
0001
1000
0100
0010
0001
0100
0010
1000
0010
0100
0001
1000
0001
,
0010
0100
0010
0001
1000
0100
0010
0001
0100
0010
0100
0001
1000
0100
1000
0001
,
0100
0010
1000
0001
1000
0010
0100
0001
0010
0100
1000
0001
1000
0100
0010
0001
,
1000
0010
0100
0010
1000
0001
0100
0010
1000
0100
0010
0001
1000
0010
1000
0001
,
1000
0100
0010
0100
1000
0001
0010
0001
1000
0001
0100
0010
1000
0010
0100
0001
,
1000
0001
0010
0100
0010
0001
1000
0001
0100
0010
1000
0100
0020
0000
0000
0000
,
0031
0100
0001
1000
,
0100
0010
0001
1000
0010
0100
0010
1000
0001
0010
0100
1000
0001
0100
0001
1000
,
0100
0010
0001
1000
0001
0010
0100
1000
0010
0100
0001
0100
0010
1000
0001
1000
,
0100
0010
0100
1000
0001
0010
0100
1000
0010
0100
0010
1000
0001
0010
0001
1000
,
0010
0100
0001
1000
0001
0100
0010
1000
0100
0010
0001
1000
0001
0010
0100
1000
,
0001
0100
0010
0100
0001
1000
0010
0100
0001
0010
0100
1000
0001
0100
0001
1000
,
0001
0010
0100
0010
0001
1000
0100
1000
0001
1000
0010
0100
0001
0100
0010
1000
,
0001
1000
0100
0010
0100
1000
0001
1000
0010
0100
0001
0010
0200
0000
0000
0000
,
1300
0010
1000
0010
,
0100
0001
0100
0002
,
M000
00M0
M100
20M3
,
000M
0M00
010M
3M02
,
M000
00M0
M010
20M3
,
000M
0M00
001M
3M02
,
00M0
M000
00M0
0M00
,
10M3
001M
1M00
00M1
,
0M00
1MM1
1MM1
0000
,
1000
0100
0010
0001
0100
0010
1000
0100
0010
0001
0100
0010
1000
0100
0010
0001
,
1000
0001
0100
0010
1000
0010
0100
0001
1000
0010
1000
0001
1000
0100
0010
0001
,
0010
0100
1000
0001
0010
0001
1000
0001
0100
0010
1000
0001
0100
0010
0100
0001
,
1000
0010
1000
0001
0010
0100
0010
0001
1000
0100
0010
0100
1000
0001
0010
0100
,
1000
0001
1000
0010
0100
0001
0100
0001
1000
0010
0100
0001
1000
0001
0100
0010
,
1000
0100
0010
0001
1000
0001
0010
0100
1000
0001
1000
0001
0100
0010
1000
0010
,
0100
0001
1000
0001
0100
0010
1000
0001
1000
0100
0010
0001
1000
0100
1000
0001
,
0010
0001
1000
0001
0100
0010
1000
0010
0100
0001
1000
0001
0010
0100
0010
0001
,
1000
0100
1000
0001
0010
0100
1000
0001
1000
0010
0100
0001
0100
0010
1000
0001
,
1000
0100
0010
0001
1000
0100
1000
0100
0010
0001
1000
0001
0100
0010
0100
0001
,
1000
0010
1000
0010
0100
0001
1000
0001
0010
0100
0010
0001
1000
0100
0010
0001
,
1000
0100
1000
0001
0010
0100
0010
0001
1000
0001
0100
0001
1000
0010
1000
0001
,
1000
0100
0010
0100
1000
0001
0010
0001
0100
0010
1000
0100
0010
0001
0100
0010
,
1000
0001
0011
0000
,
0011
0000
0000
0000
0000
0000
0000
0000
0010
0100
1000
0010
0100
0001
0010
0100
,
1000
0001
0101
0000
,
0101
0000
0000
0000
0100
0000
0000
0000
0010
1000
0001
0010
0100
1000
0001
1000
,
0001
1000
0010
0100
0001
0100
0010
1000
0001
0100
0001
1000
0001
0010
0100
1000
,
0100
0010
0001
1000
0100
1000
0001
1000
0010
0100
0001
1000
0010
0100
0010
1000
,
0001
0100
0001
1000
0100
0010
0100
1000
0001
0010
0100
0010
0001
1000
0100
0010
,
0001
1000
0001
0100
0010
1000
0010
1000
0001
0100
0010
1000
0001
1000
0010
0100
,
0001
0010
0100
1000
0001
1000
0100
0010
0001
1000
0001
1000
0010
0100
0001
0100
,
0010
1000
0001
1000
0010
0100
0001
1000
0001
0010
0100
1000
0001
0010
0001
1000
,
0100
1000
0001
1000
0010
0100
0001
0100
0010
1000
0001
1000
0100
0010
0100
1000
,
0001
0010
0001
1000
0100
0010
0001
1000
0001
0100
0010
1000
0010
0100
0001
1000
,
0001
0010
0100
1000
0001
0010
0001
0010
0100
1000
0001
1000
0010
0100
0010
1000
,
0001
0100
0001
0100
0010
1000
0001
1000
0100
0010
0100
1000
0001
0010
0100
1000
,
0001
0010
0001
1000
0100
0010
0100
1000
0001
1000
0010
1000
0001
0100
0001
1000
,
0001
0010
0100
0010
0001
1000
0100
1000
0010
0100
0001
0010
0100
1000
0010
0100
,
0001
1000
1100
0000
,
1100
0000
0000
0000
0000
0000
0000
0000
0100
0010
0001
0100
0010
1000
0100
0010
,
0001
1000
1010
0000
,
0010
0100
0001
1000
0100
0010
0100
1000
0001
0100
0010
1000
0001
0010
0001
1000
,
0010
0100
0001
1000
0001
0100
0010
1000
0100
0010
0001
0010
0100
1000
0001
1000
,
0010
0100
0010
1000
0001
0100
0010
1000
0100
0010
0100
1000
0001
0100
0001
1000
,
0100
0010
0001
1000
0001
0010
0100
1000
0010
0100
0001
1000
0001
0100
0010
1000
,
0001
0010
0100
0010
0001
1000
0100
0010
0001
0100
0010
1000
0001
0010
0001
1000
,
0001
0100
0010
0100
0001
1000
0010
1000
0001
1000
0100
0010
0001
0010
0100
1000
,
0001
1000
0010
0100
0010
1000
0001
1000
0100
0010
0001
0100
0020
0000
0000
0000
,
1030
0100
1000
0001
,
0100
0010
1000
0001
0010
0100
0010
0001
1000
0010
0100
0001
1000
0100
1000
0001
,
0100
0010
1000
0001
1000
0010
0100
0001
0010
0100
1000
0100
0010
0001
1000
0001
,
0100
0010
0100
0001
1000
0010
0100
0001
0010
0100
0010
0001
1000
0010
1000
0001
,
0010
0100
1000
0001
1000
0100
0010
0001
0100
0010
1000
0001
1000
0010
0100
0001
,
1000
0100
0010
0100
1000
0001
0010
0100
1000
0010
0100
0001
1000
0100
1000
0001
,
1000
0010
0100
0010
1000
0001
0100
0001
1000
0001
0010
0100
1000
0100
0010
0001
,
1000
0001
0100
0010
0100
0001
1000
0001
0010
0100
1000
0010
0200
0000
0000
0000
,
0301
0010
0001
0010
,
0100
1000
0100
2000
,
000M
0M00
010M
3M02
,
M000
00M0
M100
20M3
,
000M
0M00
001M
3M02
,
M000
00M0
M010
2M03
,
00M0
000M
00M0
0M00
,
30M0
0M00
00M0
0M00
,
000M
M000
000M
M000
,
MMMM
0000
0000
0000
;

//---------------dance-single - T. Swag----------------
#NOTES:
     dance-single:
     T. Swag:
     Hard:
     14:
     1.000,1.000,0.110,0.145,1.000,1907.000,25.000,33.000,61.000,0.000:
0000
0000
0000
0000
,
0000
0000
0000
0000
,
0000
0000
0000
0000
,
0000
0000
0000
0000
,
1001
0001
0100
0001
,
1000
0100
0000
0010
,
0001
0100
0010
0200
,
0000
0302
0000
2003
,
0000
3100
0010
0100
,
1000
0001
0000
0100
,
0010
1000
0001
2000
,
0000
3200
0000
0320
,
0000
0031
1000
0001
,
0100
0001
0100
0001
0100
0001
0100
0001
0100
0000
0000
0000
0010
0000
0000
0000
,
1000
0100
0010
0200
,
0000
2300
0000
3002
,
0000
0000
0003
0000
,
0000
0100
2000
3200
,
0000
0000
0300
0000
,
0000
0000
0000
0000
,
0001
0010
0100
0010
0001
1000
0010
1000
,
0001
0100
0010
1000
0010
1000
0100
0010
,
0001
1000
0100
0010
1000
0010
0100
1000
,
0100
1000
0001
0100
0001
0100
0010
1000
,
0010
0100
0001
0010
0100
0010
0001
1000
,
0010
0100
0001
1000
0001
1000
0100
0010
,
0001
1000
0010
0100
1000
0100
0010
1000
,
0010
1000
0001
0010
0001
0010
0100
1000
,
0010
1000
0100
0010
0001
0100
0010
0100
,
0001
1000
0010
1000
0010
1000
0001
0010
,
0100
1000
0010
0100
1000
0100
0001
1000
,
0001
1000
0100
0010
0100
0010
0001
0100
,
0010
1000
0001
0100
0010
1000
0001
1000
,
0100
0010
0001
1000
0100
0001
0100
0010
,
0100
1000
0100
0010
0100
1000
0100
0010
,
0002
0000
2003
0000
,
3001
0100
0001
1000
0010
1000
0001
1000
0100
0010
0001
1000
,
0001
0010
0100
1000
0001
1000
0010
0000
0000
0010
0000
0000
,
1000
0001
0001
1000
,
0100
0000
0000
0010
0001
1000
0010
1000
0001
0100
0010
0100
,
0001
1000
0010
0100
0001
1000
0001
0010
0100
1000
0001
0010
,
0001
1000
0100
0010
0001
1000
0001
0000
0000
0001
0000
0000
,
0100
0010
0100
0001
,
2000
0000
3002
0000
,
1003
0100
0010
0001
0010
0100
1000
0001
1000
0010
0100
0010
,
1000
0001
0100
0001
1000
0100
0010
0000
0000
0010
0000
0000
,
0001
1000
1000
0010
,
0100
0000
0000
0001
0100
0001
1000
0010
1000
0100
0010
0100
,
1000
0001
0010
0100
1000
0001
0100
0010
0100
0001
1000
0010
,
1000
0001
1000
0001
0010
0001
0010
0100
1000
0001
1000
0001
,
0100
0010
0100
0010
,
1000
0000
0100
0000
0010
0000
0001
0000
1000
0100
0010
0001
1000
0100
0010
0001
,
1000
0001
1000
0010
0100
0001
0100
0010
1000
0100
0010
0001
,
0010
0100
1000
0001
0010
0001
0100
0010
0100
0001
1000
0001
,
0100
0010
1000
0001
0010
0100
1000
0001
0100
0001
1000
0100
,
0010
0001
1000
0100
1000
0001
0100
0010
1000
0001
0100
0001
,
1000
0100
0010
0001
1000
0100
0010
0100
1000
0010
0100
0001
,
1000
0010
1000
0010
0100
0001
0010
0100
0010
0001
1000
0100
,
1000
0001
1000
0010
0100
0001
1000
0100
0010
0001
1000
0010
,
1000
0001
0010
0100
1000
0001
0100
0010
1000
0010
0100
0001
,
1000
0100
0010
0001
1000
0001
0010
0100
1000
0010
0100
0001
,
1000
0001
0100
0010
0100
0001
0010
0100
0010
0001
1000
0001
,
0010
0100
1000
0001
0100
0001
1000
0100
0010
0001
1000
0010
,
1000
0001
0010
0100
0010
0001
0100
0010
1000
0100
0010
0001
,
1000
0001
0011
0000
,
0011
0000
0000
0000
0000
0000
0010
0100
1000
0010
0100
0001
,
1000
0001
0101
0000
,
0101
0100
0010
0100
,
0001
1000
0001
0100
0010
1000
0010
0100
0001
0010
0100
1000
,
0100
0010
0001
1000
0100
1000
0010
0100
0010
1000
0001
1000
,
0010
0100
0001
1000
0100
0010
0001
1000
0010
1000
0001
0010
,
0100
1000
0001
0010
0001
1000
0010
0100
0001
1000
0010
1000
,
0001
0010
0100
1000
0001
0010
0100
0010
0001
0100
0010
1000
,
0001
0100
0001
0100
0010
1000
0100
0010
0100
1000
0001
0010
,
0001
1000
0001
0100
0010
1000
0001
0010
0100
1000
0001
0100
,
0001
1000
0100
0010
0001
1000
0010
0100
0001
0100
0010
1000
,
0001
0010
0100
1000
0001
1000
0100
0010
0001
0100
0010
1000
,
0001
1000
0010
0100
0010
1000
0100
0010
0100
1000
0001
1000
,
0100
0010
0001
1000
0010
1000
0001
0010
0100
1000
0001
0100
,
0001
1000
0100
0010
0100
1000
0010
0100
0001
0010
0100
1000
,
0001
1000
1100
0000
,
1100
0000
0000
0000
0000
0000
0100
0010
0001
0100
0010
1000
,
0001
1000
1010
0000
,
1010
0010
0100
0010
,
1000
0010
0100
0010
1000
0001
0010
0001
,
1000
0100
0010
0001
0010
0001
0100
0010
,
1000
0001
0100
0010
0001
0010
0100
0001
,
0100
0001
1000
0100
1000
0100
0010
0001
,
0010
0100
1000
0010
0100
0010
1000
0001
,
0010
0100
1000
0001
1000
0001
0100
0010
,
1000
0001
0010
0100
0001
0100
0010
0001
,
0010
0001
1000
0010
1000
0010
0100
0001
,
0010
0001
0100
0010
1000
0100
0010
0100
,
1000
0001
0010
0001
0010
0001
1000
0010
,
0100
0001
0010
0100
0001
0100
1000
0001
,
1000
0001
0100
0010
0100
0010
1000
0100
,
0010
0001
1000
0100
0010
0001
1000
0001
,
0100
0010
1000
0001
0100
1000
0100
0010
,
0100
0001
0100
0010
0100
0001
0100
0010
,
2000
0000
3002
0000
,
1003
0100
1000
0001
0010
0001
1000
0001
0100
0010
1000
0001
,
1000
0010
0100
0001
1000
0001
0010
0000
0000
0010
0000
0000
,
0001
1000
1000
0001
,
0100
0000
0000
0010
1000
0001
0010
0001
1000
0100
0010
0100
,
1000
0001
0010
0100
1000
0001
1000
0010
0100
0001
1000
0010
,
1000
0001
0100
0010
1000
0001
1000
0000
0000
1000
0000
0000
,
0100
0010
0100
1000
,
0002
0000
2003
0000
,
3001
0100
0010
1000
0010
0100
0001
1000
0001
0010
0100
0010
,
0001
1000
0100
1000
0001
0100
0010
0000
0000
0010
0000
0000
,
1000
0001
0001
0010
,
0100
0000
0000
1000
0100
1000
0001
0010
0001
0100
0010
0100
,
0001
1000
0010
0100
0001
1000
0100
0010
0100
1000
0001
0010
,
0001
1000
0001
1000
0010
1000
0010
0100
0001
1000
0001
1000
,
0100
0010
0100
0010
,
0001
0000
0100
0000
0010
0000
1000
0000
0001
0100
0010
1000
0001
0100
0010
1000
,
0001
1000
0001
0010
0100
1000
0100
0010
0001
0100
0010
1000
,
0010
0100
0001
1000
0010
1000
0100
0010
0100
1000
0001
1000
,
0100
0010
0001
1000
0010
0100
0001
1000
0100
1000
0001
0100
,
0010
1000
0001
0100
0001
1000
0100
0010
0001
1000
0100
1000
,
0001
0100
0010
1000
0001
0100
0010
0100
0001
0010
0100
1000
,
0001
0010
0001
0010
0100
1000
0010
0100
0010
1000
0001
0100
,
0001
1000
0001
0010
0100
1000
0001
0100
0010
1000
0001
0010
,
0001
1000
0010
0100
0001
1000
0100
0010
0001
0010
0100
1000
,
0001
0100
0010
1000
0001
1000
0010
0100
0001
0010
0100
1000
,
0001
1000
0100
0010
0100
1000
0010
0100
0010
1000
0001
1000
,
0010
0100
0001
1000
0100
1000
0001
0100
0010
1000
0001
0010
,
0001
1000
0010
0100
0010
1000
0100
0010
0001
0100
0010
1000
,
0001
1000
1010
0000
,
1010
0000
0000
0000
0000
0000
0010
0100
0001
0010
0100
1000
,
0001
1000
1100
0000
,
1100
0100
0010
0100
,
1000
0001
1000
0100
0010
0001
0010
0100
1000
0010
0100
0001
,
0100
0010
1000
0001
0100
0001
0010
0100
0010
0001
1000
0001
,
0010
0100
1000
0001
0100
0010
1000
0001
0010
0001
1000
0010
,
0100
0001
1000
0010
1000
0001
0010
0100
1000
0001
0010
0001
,
1000
0010
0100
0001
1000
0010
0100
0010
1000
0100
0010
0001
,
1000
0100
1000
0100
0010
0001
0100
0010
0100
0001
1000
0010
,
1000
0001
1000
0100
0010
0001
1000
0010
0100
0001
1000
0100
,
1000
0001
0100
0010
1000
0001
0010
0100
1000
0100
0010
0001
,
1000
0010
0100
0001
1000
0001
0100
0010
1000
0100
0010
0001
,
1000
0001
0010
0100
0010
0001
0100
0010
0100
0001
1000
0001
,
0100
0010
1000
0001
0010
0001
1000
0010
0100
0001
1000
0100
,
1000
0001
0100
0010
0100
0001
0010
0100
1000
0010
0100
0001
,
1000
0001
0101
0000
,
0101
0000
0000
0000
0000
0000
0100
0010
1000
0100
0010
0001
,
1000
0001
0011
0000
,
0010
0100
1000
0010
0100
0001
0100
0010
1000
0100
0010
0001
,
0100
0010
1000
0010
0100
0001
0010
0001
1000
0100
0010
0001
,
0100
0010
1000
0001
0100
0001
0010
0100
1000
0010
1000
0001
,
0100
0010
1000
0001
1000
0010
1000
0100
0010
0001
1000
0001
,
0100
0010
1000
0010
0100
0001
1000
0001
0010
0100
1000
0001
,
0100
0010
0100
0001
1000
0001
0010
0100
1000
0100
0010
0001
,
0100
0010
0100
0001
0010
0100
1000
0010
0100
0002
0000
0000
,
1003
0010
1000
0001
,
0100
0010
1000
0100
0010
0001
0010
0100
1000
0010
0100
0001
,
0010
0100
1000
0100
0010
0001
0100
0001
1000
0010
0100
0001
,
0010
0100
1000
0001
0010
0001
0100
0010
1000
0100
1000
0001
,
0010
0100
1000
0001
1000
0100
1000
0010
0100
0001
1000
0001
,
0010
0100
1000
0100
0010
0001
1000
0001
0100
0010
1000
0001
,
0010
0100
0010
0001
1000
0001
0100
0010
1000
0010
0100
0001
,
0010
0100
0010
0001
0100
0010
1000
0100
0010
0002
0000
0000
,
1003
0010
1000
0010
,
0100
0001
0100
0002
,
M000
00M0
M100
20M3
,
000M
0M00
010M
3M02
,
M000
00M0
M010
20M3
,
000M
0M00
001M
3M02
,
00M0
M000
00M0
0M00
,
10M3
001M
1M00
00M1
,
0M00
1MM1
1MM1
0000
,
1000
0100
0010
0001
0100
0010
1000
0100
0010
0001
0100
0010
,
1000
0001
1000
0010
0100
0001
0100
0010
1000
0100
0010
0001
,
0010
0100
1000
0001
0010
0001
0100
0010
0100
0001
1000
0001
,
0100
0010
1000
0001
0010
0100
1000
0001
0100
0001
1000
0100
,
0010
0001
1000
0100
1000
0001
0100
0010
1000
0001
0100
0001
,
1000
0100
0010
0001
1000
0100
0010
0100
1000
0010
0100
0001
,
1000
0010
1000
0010
0100
0001
0010
0100
0010
0001
1000
0100
,
1000
0001
1000
0010
0100
0001
1000
0100
0010
0001
1000
0010
,
1000
0001
0010
0100
1000
0001
0100
0010
1000
0010
0100
0001
,
1000
0100
0010
0001
1000
0001
0010
0100
1000
0010
0100
0001
,
1000
0001
0100
0010
0100
0001
0010
0100
0010
0001
1000
0001
,
0010
0100
1000
0001
0100
0001
1000
0100
0010
0001
1000
0010
,
1000
0001
0010
0100
0010
0001
0100
0010
1000
0100
0010
0001
,
1000
0001
0011
0000
,
0011
0000
0000
0000
0000
0000
0010
0100
1000
0010
0100
0001
,
1000
0001
0101
0000
,
0101
0000
0000
0100
0000
0000
0010
1000
0100
0010
0100
1000
,
0001
1000
0001
0100
0010
1000
0010
0100
0001
0010
0100
1000
,
0100
0010
0001
1000
0100
1000
0010
0100
0010
1000
0001
1000
,
0010
0100
0001
1000
0100
0010
0001
1000
0010
1000
0001
0010
,
0100
1000
0001
0010
0001
1000
0010
0100
0001
1000
0010
1000
,
0001
0010
0100
1000
0001
0010
0100
0010
0001
0100
0010
1000
,
0001
0100
0001
0100
0010
1000
0100
0010
0100
1000
0001
0010
,
0001
1000
0001
0100
0010
1000
0001
0010
0100
1000
0001
0100
,
0001
1000
0100
0010
0001
1000
0010
0100
0001
0100
0010
1000
,
0001
0010
0100
1000
0001
1000
0100
0010
0001
0100
0010
1000
,
0001
1000
0010
0100
0010
1000
0100
0010
0100
1000
0001
1000
,
0100
0010
0001
1000
0010
1000
0001
0010
0100
1000
0001
0100
,
0001
1000
0100
0010
0100
1000
0010
0100
0001
0010
0100
1000
,
0001
1000
1100
0000
,
1100
0000
0000
0000
0000
0000
0100
0010
0001
0100
0010
1000
,
0001
1000
1010
0000
,
0010
0100
0001
0010
0100
1000
0100
0010
0001
0100
0010
1000
,
0100
0010
0001
0010
0100
1000
0010
1000
0001
0100
0010
1000
,
0100
0010
0001
1000
0100
1000
0010
0100
0001
0010
0001
1000
,
0100
0010
0001
1000
0001
0010
0001
0100
0010
1000
0001
1000
,
0100
0010
0001
0010
0100
1000
0001
1000
0010
0100
0001
1000
,
0100
0010
0100
1000
0001
1000
0010
0100
0001
0100
0010
1000
,
0100
0010
0100
1000
0010
0100
0001
0010
0100
2000
0000
0000
,
3001
0010
0001
1000
,
0100
0010
0001
0100
0010
1000
0010
0100
0001
0010
0100
1000
,
0010
0100
0001
0100
0010
1000
0100
1000
0001
0010
0100
1000
,
0010
0100
0001
1000
0010
1000
0100
0010
0001
0100
0001
1000
,
0010
0100
0001
1000
0001
0100
0001
0010
0100
1000
0001
1000
,
0010
0100
0001
0100
0010
1000
0001
1000
0100
0010
0001
1000
,
0010
0100
0010
1000
0001
1000
0100
0010
0001
0010
0100
1000
,
0010
0100
0010
1000
0100
0010
0001
0100
0010
2000
0000
0000
,
3001
0010
0001
0010
,
0100
1000
0100
2000
,
000M
0M00
010M
3M02
,
M000
00M0
M100
20M3
,
000M
0M00
001M
3M02
,
M000
00M0
M010
2M03
,
00M0
000M
00M0
0M00
,
30M0
0M00
00M0
0M00
,
000M
M000
000M
M000
,
MMMM
0000
0000
0000
;

//---------------dance-single - T. Swag----------------
#NOTES:
     dance-single:
     T. Swag:
     Medium:
     12:
     1.000,1.000,0.342,0.408,0.584,1480.000,78.000,93.000,61.000,4.000:
0000
0000
0000
0000
,
0000
0000
0000
0000
,
0000
0000
0000
0000
,
0000
0000
0000
0000
,
1001
0001
0100
0001
,
1000
0100
0000
0010
,
0001
0100
0010
0200
,
0000
0302
0000
2003
,
0000
3100
0010
0100
,
1000
0001
0000
0100
,
0010
1000
0001
2000
,
0000
3200
0000
0320
,
0000
0031
1000
0001
,
0100
0001
0100
0001
0100
0001
0100
0001
0100
0000
0000
0000
0010
0000
0000
0000
,
1000
0100
0010
0200
,
0000
2300
0000
3002
,
0000
0000
0003
0000
,
0000
0100
2000
3200
,
0000
0000
0300
0000
,
0000
0000
0000
0000
,
0001
0010
0100
0010
0001
1000
0010
1000
,
0001
0100
0010
1000
0010
1000
0100
0010
,
0001
1000
0100
0010
1000
0010
0100
1000
,
0100
1000
0001
0100
0001
0100
0010
1000
,
0010
0100
0001
0010
0100
0010
0001
1000
,
0010
0100
0001
1000
0001
1000
0100
0010
,
0001
1000
0010
0100
1000
0100
0010
1000
,
0010
1000
0001
0010
0001
0010
0100
1000
,
0010
1000
0100
0010
0001
0100
0010
0100
,
0001
1000
0010
1000
0010
1000
0001
0010
,
0100
1000
0010
0100
1000
0100
0001
1000
,
0001
1000
0100
0010
0100
0010
0001
0100
,
0010
1000
0001
0100
0010
1000
0001
1000
,
0100
0010
0001
1000
0100
0001
0100
0010
,
0100
1000
0100
0010
0100
1000
0100
0010
,
0002
0000
2003
0000
,
3001
0100
0001
1000
0010
1000
0001
1000
0100
0010
0001
1000
,
0001
0010
0100
1000
0001
1000
0010
0000
0000
0010
0000
0000
,
1000
0001
0001
1000
,
0100
0020
0032
2003
,
3001
0100
0010
1000
0001
0100
0001
1000
,
0100
0010
0001
1000
0001
0000
0001
0000
,
0100
0010
0100
0001
,
2000
0000
3002
0000
,
1003
0100
0010
0001
0010
0100
1000
0001
1000
0010
0100
0010
,
1000
0001
0100
0001
1000
0100
0010
0000
0000
0010
0000
0000
,
0001
1000
1000
0010
,
0100
0002
0203
0320
,
1030
0001
0100
0001
1000
0100
0010
0001
,
1000
0001
0200
0000
0320
0000
2030
0000
,
0000
0200
0000
0020
,
0000
0002
0000
3333
,
1100
1000
0001
1000
0010
1000
1001
0001
,
0010
0001
1000
0001
0101
0100
0010
0100
,
0001
1000
0100
1000
0010
0100
0001
1000
,
0100
0010
0100
1000
0001
0100
0010
1000
,
1001
0001
0010
0100
1000
0001
0101
0100
,
0010
1000
0001
0010
0110
0100
1000
0001
,
1000
0010
0100
0001
1000
0001
0010
0100
,
1000
0001
1000
0010
0100
0001
1000
0100
,
1100
1000
0001
1000
0010
0100
0101
0001
,
1000
0100
1000
0001
0011
0010
0100
1000
,
0001
0100
0010
0100
0001
1000
0100
1000
,
0001
0000
0000
0100
0000
0000
0010
0000
0000
0100
0000
0000
0001
0000
1000
0000
0001
0000
1000
0000
0001
0000
1000
0000
,
0001
1000
1100
0000
,
1100
0000
0000
0000
0000
0000
0100
1000
0001
1000
0100
0010
,
0001
1000
1010
0000
,
1010
0010
0100
0010
,
1010
1000
0001
1000
0100
1000
1001
0001
,
0100
0001
1000
0001
0011
0010
0100
0010
,
0001
1000
0010
1000
0100
0010
0001
1000
,
0010
0100
0010
1000
0001
0010
0100
1000
,
1001
0001
0100
0010
1000
0001
0011
0010
,
0100
1000
0001
0100
0110
0010
1000
0001
,
1000
0100
0010
0001
1000
0001
0100
0010
,
1000
0001
1000
0100
0010
0001
1000
0010
,
1010
1000
0001
1000
0100
0010
0011
0001
,
1000
0010
1000
0001
0101
0100
0010
1000
,
0001
0010
0100
0010
0001
1000
0010
1000
,
0001
0000
0000
0010
0000
0000
0100
0000
0000
0010
0000
0000
0001
0000
1000
0000
0001
0000
1000
0000
0001
0000
1000
0000
,
0001
1000
1010
0000
,
1010
0000
0000
0000
0000
0000
0010
1000
0001
1000
0010
0100
,
0001
1000
1100
0000
,
1100
0100
0010
0100
,
1000
0010
0100
0010
1000
0001
0010
0001
,
1000
0100
0010
0001
0010
0001
0100
0010
,
1000
0001
0100
0010
0001
0010
0100
0001
,
0100
0001
1000
0100
1000
0100
0010
0001
,
0010
0100
1000
0010
0100
0010
1000
0001
,
0010
0100
1000
0001
1000
0001
0100
0010
,
1000
0001
0010
0100
0001
0100
0010
0001
,
0010
0001
1000
0010
1000
0010
0100
0001
,
0010
0001
0100
0010
1000
0100
0010
0100
,
1000
0001
0010
0001
0010
0001
1000
0010
,
0100
0001
0010
0100
0001
0100
1000
0001
,
1000
0001
0100
0010
0100
0010
1000
0100
,
0010
0001
1000
0100
0010
0001
1000
0001
,
0100
0010
1000
0001
0100
1000
0100
0010
,
0100
0001
0100
0010
0100
0001
0100
0010
,
2000
0000
3002
0000
,
1003
0100
1000
0001
0010
0001
1000
0001
0100
0010
1000
0001
,
1000
0010
0100
0001
1000
0001
0010
0000
0000
0010
0000
0000
,
0001
1000
1000
0001
,
0100
0020
2030
3002
,
1003
0001
0010
0100
1000
0001
1000
0010
0100
0001
1000
0010
,
1000
0001
0100
0010
1000
0001
1000
0000
0000
1000
0000
0000
,
0100
0010
0100
1000
,
0002
0000
2003
0000
,
3001
0100
0010
1000
0010
0100
0001
1000
0001
0010
0100
0010
,
0001
1000
0100
1000
0001
0100
0010
0000
0000
0010
0000
0000
,
1000
0001
0001
0010
,
0100
2000
3200
0320
,
0031
1000
0010
1000
0001
0010
0100
1000
,
0001
0010
0200
0000
2300
0000
3002
0000
,
0000
0200
0000
0020
,
0000
0000
2000
0000
0000
0000
0000
3333
,
0101
0001
1000
0001
0010
0001
1001
1000
,
0010
1000
0001
1000
1100
0100
0010
0100
,
1000
0001
0100
0001
0010
0100
1000
0001
,
0100
0010
0100
0001
1000
0100
0010
0001
,
1001
1000
0010
0100
0001
1000
1100
0100
,
0010
0001
1000
0010
0110
0100
0001
1000
,
0001
0010
0100
1000
0001
1000
0010
0100
,
0001
1000
0001
0010
0100
1000
0001
0100
,
0101
0001
1000
0001
0010
0100
1100
1000
,
0001
0100
0001
1000
1010
0010
0100
0001
,
1000
0100
0010
0100
1000
0001
0100
0001
,
1000
0000
0000
0100
0000
0000
0010
0000
0000
0100
0000
0000
1000
0000
0001
0000
1000
0000
0001
0000
1000
0000
0001
0000
,
1000
0001
0101
0000
,
0101
0000
0000
0000
0000
0000
0100
0001
1000
0001
0100
0010
,
1000
0001
0011
0000
,
0011
0010
0100
0010
,
0011
0001
1000
0001
0100
0001
1001
1000
,
0100
1000
0001
1000
1010
0010
0100
0010
,
1000
0001
0010
0001
0100
0010
1000
0001
,
0010
0100
0010
0001
1000
0010
0100
0001
,
1001
1000
0100
0010
0001
1000
1010
0010
,
0100
0001
1000
0100
0110
0010
0001
1000
,
0001
0100
0010
1000
0001
1000
0100
0010
,
0001
1000
0001
0100
0010
1000
0001
0010
,
0011
0001
1000
0001
0100
0010
1010
1000
,
0001
0010
0001
1000
1100
0100
0010
0001
,
1000
0010
0100
0010
1000
0001
0010
0001
,
1000
0000
0000
0010
0000
0000
0100
0000
0000
0010
0000
0000
1000
0000
0001
0000
1000
0000
0001
0000
1000
0000
0001
0000
,
1000
0001
0011
0000
,
0011
0000
0000
0000
0000
0000
0010
0001
1000
0001
0010
0100
,
1000
0001
0101
0000
,
0200
0320
2030
3002
,
1003
0010
0100
0001
1000
0001
0010
0100
0010
0001
1000
0001
,
0100
0010
1000
0001
0100
0001
2000
0000
0000
3020
0000
0000
,
1030
0001
0010
0100
1000
0010
0100
0001
1000
0001
0010
0100
,
1000
0001
0100
0010
0100
0001
2000
0000
0000
3200
0000
0000
,
0310
0001
1000
0010
0100
0001
1000
0001
0100
0010
1000
0001
,
1000
0100
1000
0001
0010
0100
2000
0000
0000
3002
0000
0000
,
1003
0010
1000
0001
,
0020
0230
2300
3002
,
1003
0100
0010
0001
1000
0001
0100
0010
0100
0001
1000
0001
,
0010
0100
1000
0001
0010
0001
2000
0000
0000
3200
0000
0000
,
1300
0001
0100
0010
1000
0100
0010
0001
1000
0001
0100
0010
,
1000
0001
0010
0100
0010
0001
2000
0000
0000
3020
0000
0000
,
0130
0001
1000
0100
0010
0001
1000
0001
0010
0100
1000
0001
,
1000
0010
1000
0001
0100
0010
2000
0000
0000
3002
0000
0000
,
1003
0010
1000
0010
,
0100
0001
0100
0002
,
M000
00M0
M100
20M3
,
000M
0M00
010M
3M02
,
M000
00M0
M010
20M3
,
000M
0M00
001M
3M02
,
00M0
M000
00M0
0M00
,
10M3
010M
1M00
00M1
,
0M00
1MM1
1MM1
0000
,
1000
0000
0010
0000
0100
0000
0001
0000
0010
0000
0100
0000
1000
0000
0010
0000
0100
0000
0001
0000
0000
0010
0000
0000
,
0011
0001
1000
0001
0100
0001
1001
1000
,
0100
1000
0001
1000
1010
0010
0100
0010
,
1000
0001
0010
0001
0100
0010
1000
0001
,
0010
0100
0010
0001
1000
0010
0100
0001
,
1001
1000
0100
0010
0001
1000
1010
0010
,
0100
0001
1000
0100
0110
0010
0001
1000
,
0001
0100
0010
1000
0001
1000
0100
0010
,
0001
1000
0001
0100
0010
1000
0001
0010
,
0011
0001
1000
0001
0100
0010
1010
1000
,
0001
0010
0001
1000
1100
0100
0010
0001
,
1000
0010
0100
0010
1000
0001
0010
0001
,
1000
0000
0000
0010
0000
0000
0100
0000
0000
0010
0000
0000
1000
0000
0001
0000
1000
0000
0001
0000
1000
0000
0001
0000
,
1000
0001
0011
0000
,
0011
0000
0000
0000
0000
0000
0010
0001
1000
0001
0010
0100
,
1000
0001
0101
0000
,
0101
0000
0000
0100
0000
0000
0010
1000
0001
0100
0001
1000
,
0010
1000
0001
1000
0100
1000
1001
0001
,
0100
0001
1000
0001
0011
0010
0100
0010
,
0001
1000
0010
1000
0100
0010
0001
1000
,
0010
0100
0010
1000
0001
0010
0100
1000
,
1001
0001
0100
0010
1000
0001
0011
0010
,
0100
1000
0001
0100
0110
0010
1000
0001
,
1000
0100
0010
0001
1000
0001
0100
0010
,
1000
0001
1000
0100
0010
0001
1000
0010
,
1010
1000
0001
1000
0100
0010
0011
0001
,
1000
0010
1000
0001
0101
0100
0010
1000
,
0001
0010
0100
0010
0001
1000
0010
1000
,
0001
0000
0000
0010
0000
0000
0100
0000
0000
0010
0000
0000
0001
0000
1000
0000
0001
0000
1000
0000
0001
0000
1000
0000
,
0001
1000
1010
0000
,
1010
0000
0000
0000
0000
0000
0010
1000
0001
1000
0010
0100
,
0001
1000
1100
0000
,
0200
0320
0032
2003
,
3001
0010
0100
1000
0001
1000
0010
0100
0010
1000
0001
1000
,
0100
0010
0001
1000
0100
1000
0002
0000
0000
0023
0000
0000
,
0031
1000
0010
0100
0001
0010
0100
1000
0001
1000
0010
0100
,
0001
1000
0100
0010
0100
1000
0002
0000
0000
0203
0000
0000
,
0310
1000
0001
0010
0100
1000
0001
1000
0100
0010
0001
1000
,
0001
0100
0001
1000
0010
0100
0002
0000
0000
2003
0000
0000
,
3001
0010
0001
1000
,
0020
0230
0302
2003
,
3001
0100
0010
1000
0001
1000
0100
0010
0100
1000
0001
1000
,
0010
0100
0001
1000
0010
1000
0002
0000
0000
0203
0000
0000
,
0301
1000
0100
0010
0001
0100
0010
1000
0001
1000
0100
0010
,
0001
1000
0010
0100
0010
1000
0002
0000
0000
0023
0000
0000
,
0130
1000
0001
0100
0010
1000
0001
1000
0010
0100
0001
1000
,
0001
0010
0001
1000
0100
0010
0002
0000
0000
2003
0000
0000
,
3001
0010
0001
0010
,
0100
1000
0100
2000
,
000M
0M00
010M
3M02
,
M000
00M0
M100
20M3
,
000M
0M00
001M
3M02
,
M000
00M0
M010
2M03
,
00M0
000M
00M0
0M00
,
30M0
0M00
00M0
0M00
,
000M
M000
000M
M000
,
MMMM
0000
0000
0000
;
