#TITLE:1st Stage;
#SUBTITLE:(Sharpnel Remix);
#ARTIST:Konami Kukeiha Club+DJ Sharpnel;
#TITLETRANSLIT:;
#SUBTITLETRANSLIT:;
#ARTISTTRANSLIT:;
#CREDIT:;
#BANNER:1st Stage (Sharpnel Remix).png;
#BACKGROUND:1st Stage (Sharpnel Remix)-bg.png;
#LYRICSPATH:;
#CDTITLE:Konami Original Remix.png;
#MUSIC:1st Stage (Sharpnel Remix).mp3;
#OFFSET:0.000;
#SAMPLESTART:113.973;
#SAMPLELENGTH:12.000;
#SELECTABLE:YES;
#BPMS:0.000=185.000;
#STOPS:;
#BGCHANGES:;
// cache tags:
#FIRSTBEAT:2.000;
#LASTBEAT:596.000;
#SONGFILENAME:Songs/cedric step/1st Stage (Sharpnel Remix)/1st Stage (Sharpnel Remix).sm;
#HASMUSIC:1;
#HASBANNER:1;
#MUSICLENGTH:203.546;
// end cache tags

//---------------dance-single - ----------------
#NOTES:
     dance-single:
     :
     Hard:
     8:
     0.568,0.621,0.059,0.000,0.000,797.000,12.000,0.000,0.000,0.000:
0000
0000
1000
0010
,
1000
0010
0100
0010
,
0001
0010
0100
1000
,
0010
1000
0010
0100
,
0010
0001
0001
0100
,
0010
0100
0010
1000
,
0010
1000
0010
0100
,
0010
0001
0010
1000
,
0010
0100
0010
0100
,
0010
0001
0010
0100
,
0010
0001
0010
0001
,
0010
1000
0010
0100
,
1000
0010
1000
0100
,
1000
0100
0001
0100
,
0001
1000
0001
0010
,
0001
0000
0010
0000
1000
0000
0000
0010
,
0000
0110
0000
0001
,
0100
1000
0010
1000
,
0010
1000
0010
0100
,
0100
0100
0010
0001
,
0010
0010
0010
1000
,
0100
0010
0100
0010
,
0100
0010
0001
0010
,
1000
0001
1000
0001
,
1000
0001
1000
0001
,
1000
0010
1000
0010
,
0100
0010
0001
0010
,
1000
0010
1000
0100
,
0010
0001
0010
0100
,
1000
0010
1000
0010
,
0100
0000
0001
1000
0001
0000
1000
0001
,
1000
0001
1000
0000
0010
1000
0010
0100
,
0010
0100
0010
0001
0000
0000
0010
0000
,
0000
0100
0000
0101
0000
0010
0000
1000
,
0000
0001
0100
1000
0000
0010
0000
1000
,
0000
1000
0010
1000
0000
0000
0100
0000
,
0010
0000
0100
0010
0100
0000
0010
0000
,
0001
1000
0001
1000
0001
0000
1000
0000
,
0010
0000
1000
0010
1000
0000
0000
0001
,
0000
0010
0001
0010
0100
1000
0000
0010
,
0000
1000
0000
0100
0010
0100
0000
0010
,
0000
1000
0010
1000
0001
0100
0000
0010
,
0000
0001
0000
0001
0010
1000
0000
0010
,
0000
0000
1000
0000
1000
0010
1000
0000
,
0010
0000
0100
0000
0100
0010
0100
0000
,
0001
0000
0010
0001
0010
1000
0010
0000
,
1000
0000
0100
0000
0001
0100
0010
0000
,
0001
0000
0010
1000
0010
0000
0001
0010
,
0000
1000
0000
0010
1000
0100
0001
0100
,
0000
0000
0010
0000
0000
0001
0010
0001
,
0000
0100
0001
0001
0000
0001
0100
1000
,
0000
0010
0000
0010
1000
0000
0010
0100
,
0010
0000
1000
0010
0000
1000
0010
0010
,
0100
0000
0010
0000
0001
0000
0010
0001
,
0000
0010
1000
0000
0010
0000
1000
0010
,
1000
0000
0001
0000
0001
1000
0000
0001
,
0100
0010
0001
0000
0010
0000
0000
0100
,
0010
0100
0000
0010
0000
0001
0010
1000
,
0010
0001
0000
1000
0000
0100
0000
0001
,
0100
1000
0000
0010
0000
1000
0000
0000
,
0010
0100
0001
0000
0010
0000
0001
0000
,
0010
0001
0010
0000
1000
0000
0010
0000
,
1000
0010
1000
0000
0100
0000
0010
0000
,
0001
0010
0001
0000
1000
0000
0010
0000
,
0000
1000
0010
1000
0000
0001
0000
0010
,
0000
0001
0000
0010
0001
0010
1000
0010
,
0001
0100
1000
0110
0000
0000
0000
0000
,
0000
0000
0000
0000
,
0000
0000
0000
0101
0000
0000
0000
0000
,
0000
0000
0000
0000
,
0000
0000
1100
0000
,
0000
0000
0000
0010
,
0000
0000
0000
0000
0000
0101
0000
0000
,
0000
0000
0000
0000
0000
0000
0000
0001
,
0000
0000
0000
1010
,
0100
0010
1000
0010
,
1000
0100
0010
0001
,
0010
0100
0010
0001
,
0010
1000
0010
0100
,
0000
0100
0000
0010
0000
0100
0000
0010
,
0000
0001
0000
0010
0000
1000
0000
0010
,
0000
0010
0000
0100
0000
0100
0000
0010
,
0000
0001
0000
0010
0000
1000
0000
1010
,
0000
0000
0000
0000
,
0010
0000
0000
0000
,
0100
0000
0000
0000
,
1001
0000
0000
0000
,
0001
0100
1000
0010
1000
0010
1000
0010
,
0000
1000
0010
0100
0010
0001
0100
1000
,
0010
0001
0010
0001
0010
0100
0010
0001
,
0010
0100
1000
0010
1000
0010
0100
0001
,
0100
1000
0010
0001
0100
0000
1000
0010
,
1000
0010
1000
0010
0100
0010
0001
0100
,
1000
0010
0001
0100
1000
0010
1000
0010
,
0100
0010
0010
0001
0010
0100
1000
0000
,
0010
1000
0010
0000
0010
0000
0100
0010
,
0100
0010
0100
0010
0000
0010
0001
0100
,
0000
1000
0010
0010
0010
0100
0000
0010
,
0001
0010
0100
1000
0010
0000
0001
0100
,
1000
0010
0010
0000
1000
0000
0010
0000
,
0100
0010
0000
1000
0001
0100
1000
0010
,
0000
0001
0010
0100
1000
0010
0001
0010
,
0100
1000
0010
0100
0010
0100
0010
0000
,
0001
0010
0100
1000
0010
1000
0010
1000
,
0010
1000
0010
0100
0010
1000
0010
1000
,
0010
0100
0010
0100
0001
0010
0001
0010
,
0100
0001
0100
1000
0010
0000
0001
1000
,
0010
1000
0010
0100
0010
0100
0000
0010
,
0001
0010
0100
0010
0001
0010
0001
0010
,
0100
0000
1000
0010
0000
0101
0000
1000
,
0010
1000
0010
0100
0010
0100
0001
0100
,
0001
0100
0000
1000
0100
1000
0100
1000
,
0001
1000
0001
1000
0010
1000
0010
0001
,
0010
0100
1000
0010
0000
0001
0000
1001
,
0010
1000
0000
0100
0001
0100
1000
0010
,
1000
0010
1000
0010
0000
0100
0010
0001
,
0100
1000
0010
0001
1000
0001
1000
0010
,
1000
0100
1000
0010
0100
0010
0100
0001
,
0100
0001
0010
0001
0010
0001
0100
0001
,
0100
0100
1000
0100
1000
0100
1000
0010
,
1000
0010
1000
0010
0000
1000
0010
0100
,
0010
0100
0010
0001
0010
0001
0010
0100
,
1000
0010
0001
0100
1000
0010
1000
0010
,
0000
1000
0010
0100
0010
0100
0010
0001
,
0010
0000
0001
0010
0100
1000
0010
1000
,
0010
1000
0010
1000
0010
0100
0010
0001
,
0000
0010
0001
0000
0100
0000
0001
0000
,
0010
0000
1000
0010
0001
0100
1000
0010
,
0000
0001
0100
1000
0010
1000
0010
0100
,
0010
0100
0010
0100
0010
0001
1000
0001
,
1000
0010
1000
0010
1000
0001
0100
1000
,
0010
1000
0000
0010
1000
0010
0100
0010
,
0100
0001
0100
0001
0010
0001
0010
0100
,
1000
0010
0001
0100
1000
0010
1000
0010
,
1000
0010
0100
0001
0010
0100
0010
0001
,
0010
0100
0100
0010
0000
1010
0010
0100
,
0000
0010
0100
0001
0100
0001
0010
0001
,
0010
0000
1000
0010
0000
1000
0010
1000
,
0000
1000
0010
0100
0000
0100
0010
0100
,
0000
0010
0001
0010
0000
0001
0100
1000
,
0010
0000
0001
0100
1000
0000
1000
0010
,
1000
0010
0100
0010
0001
0010
0100
1000
,
0010
0001
0100
1000
0010
0001
0100
1000
,
0010
0001
1000
0100
0010
0000
0001
0100
,
0100
0010
0001
0010
0001
0010
0010
0001
,
0010
0100
1000
0010
1000
0010
0100
0001
,
0100
0001
0010
0100
1000
0100
1000
0001
,
0100
1000
0001
0100
1000
0010
1000
0010
,
0100
1000
0010
0100
0000
0001
0010
0000
;

//---------------dance-single - ----------------
#NOTES:
     dance-single:
     :
     Challenge:
     9:
     0.594,0.622,0.049,0.084,0.253,820.000,10.000,17.000,0.000,0.000:
0000
0000
0000
0000
0000
0000
0000
1000
,
0001
1000
0000
0001
1000
0001
0000
1000
,
0010
0000
0000
0100
0010
0100
0010
0010
,
0001
0010
0001
0000
0010
0000
1000
0010
,
1000
0010
1000
0000
1100
0000
0100
0000
,
0101
0010
0010
0100
,
1010
0100
0001
0010
,
1000
0010
1000
0010
,
0010
1000
0001
1000
0101
0000
0000
0001
,
0000
1000
0000
1000
0001
1000
0000
0001
,
0000
1000
0001
1000
0001
1000
0000
0010
,
0000
0000
0001
0010
0001
0000
0010
0001
,
0010
0000
0100
0010
0100
0010
0100
0000
,
0010
0000
1000
0010
1000
0010
1000
0000
,
0000
0100
0100
0010
0000
0100
0010
0100
,
0000
0100
0000
0100
0001
0100
0000
0101
,
0000
0001
0000
0100
0000
1000
0000
0010
,
0000
1000
0000
0010
0000
1000
0001
1000
,
0000
0001
0000
1000
0001
1000
1001
0001
,
0000
0000
0100
0000
0010
0000
0010
0001
,
0010
0000
0001
0000
0010
0001
0010
0001
,
0010
0000
0100
0000
0010
0000
0100
0010
,
0100
0000
0010
0000
1000
0010
1000
0010
,
0000
1000
0000
0010
0000
1100
0000
0100
,
0001
0100
0001
0100
0000
0001
1000
0001
,
1000
0001
0000
1000
0000
0100
0000
1000
,
0100
1000
0000
0010
0000
1000
0010
1000
,
0001
0010
0001
0010
,
0100
0010
0100
0000
0010
0000
0100
0001
,
0100
0001
0010
0000
0001
0000
0010
1000
,
0001
1000
0001
1000
0001
1000
0001
1000
,
0001
1000
0100
1000
0100
0010
1000
0010
,
0100
0010
0100
0001
0010
0000
0000
0100
,
0000
0000
0000
0100
0000
0001
0000
0100
,
0000
0001
0100
1000
0000
0010
0000
1000
,
0001
0000
1000
0010
1000
0000
0010
0000
,
1000
0000
1000
0010
1000
0000
0010
0000
,
0001
0010
0001
0010
0001
0000
0010
0000
,
1000
0000
1000
0010
1000
0000
0010
0000
,
0001
0000
0100
1000
0010
0001
0000
0010
,
0000
1000
0000
1000
0010
1000
0000
0010
,
0000
1000
0010
1000
0010
1000
0000
1000
,
0000
0100
0000
0001
0100
1000
0000
0010
,
0000
0001
0000
0010
0001
0010
0000
1000
,
0000
0010
0000
0000
1000
0010
1000
0000
,
0010
0000
0001
0010
0010
1000
0010
0000
,
1000
0000
0010
0000
1000
0100
0010
1000
,
0000
0000
0000
1000
0100
1000
0001
1000
,
0000
0001
0000
0100
0000
0001
0100
0001
,
0000
0010
0000
0000
0000
0010
0000
0101
,
0000
0010
0000
1000
0000
0010
1000
0010
,
0000
0000
0001
0100
1000
0001
0100
0000
,
1000
0000
0010
1000
0000
1000
0010
1000
,
0010
0000
1000
0001
0000
0001
0100
1000
,
0010
0000
0001
0100
0000
1000
0001
0100
,
1000
0000
1000
0000
0010
0000
1000
0100
,
0001
0100
0000
0010
0001
0000
0010
0001
,
0010
1000
0000
0100
1000
0000
1000
0010
,
1000
0100
0000
0001
0010
0000
0001
0010
,
0001
0000
0100
0010
0001
0000
0010
0100
,
0000
0010
0100
0000
0010
0001
0000
0010
,
0001
0100
1000
0000
1000
0010
0000
1000
,
0010
1000
0010
0000
0010
0001
0000
0001
,
0010
0100
0000
0010
0000
1000
0010
1000
,
0010
1000
0010
0000
0000
1000
0010
0000
,
1000
0010
1000
0010
0000
0100
0010
0000
,
0001
0010
0000
0110
0000
0000
0000
0000
,
0000
0000
0000
0000
0000
0000
0000
0000
0000
0000
0000
0000
0000
0000
0000
0000
0000
0000
0000
0010
0000
0000
0000
0000
0100
0000
0000
0000
0000
0001
0000
0000
,
0000
0000
0000
0000
0010
0000
0000
0000
0000
1000
0000
0000
0000
0000
0001
0000
0000
0000
0000
0000
0000
0000
0000
0000
0000
0000
0000
0000
0000
0000
0000
0000
,
0000
0000
0000
0000
0000
0000
0000
0000
0000
0000
0000
0000
0000
0000
0000
0000
0000
0000
0000
0000
0010
0000
0000
0000
0000
0000
1000
0000
0000
0000
0000
0100
,
0000
0000
0000
0000
0000
0010
0000
0000
0000
0000
0000
0001
0000
0000
0000
0000
0000
0010
0000
0000
0000
0000
0000
0000
0000
0000
0000
0000
0000
0000
0000
0000
,
0000
0000
0000
0000
0000
0000
0000
0000
0000
0000
0000
0100
0000
0000
0010
0000
,
0000
0001
0000
0000
0000
0000
0000
0000
1000
0000
0000
0000
0000
0010
0000
0000
0000
0000
0000
1000
0000
0000
0000
0000
0000
0000
0000
0000
0000
0000
0000
0000
,
0000
0000
0000
0000
0000
0000
0000
0000
0000
0000
0000
0000
0000
0100
0000
0010
,
0000
0000
0000
0001
0000
0000
0000
0000
0000
1000
0000
0000
0000
0000
0000
0010
0000
0000
0000
0000
0000
0000
0100
0000
0000
0000
0000
0000
0000
0000
0000
0000
,
0010
0000
0000
0000
0000
0000
0010
0000
0000
0000
0000
0000
0100
0000
0000
0000
0000
0000
0000
0000
0000
0000
0000
0000
0000
0010
0000
0000
0000
0000
0010
0000
,
0000
0000
0000
0000
0000
0001
0000
0000
0000
0000
0000
1000
0000
0000
0000
0000
0000
0000
0000
0010
0000
0000
0000
0000
0000
0000
0000
0000
0000
0100
0000
0000
,
0000
0000
0000
0100
0000
0000
0000
0000
0000
0010
0000
0000
0000
0000
0000
1000
0000
0000
0000
0000
0000
0001
0000
0000
0000
0000
0000
0000
1000
0000
0000
0000
,
0000
1000
0000
0000
0000
0000
0000
0010
0000
0000
0000
0000
0000
0000
0100
0000
0000
0000
0000
0000
0001
0000
0000
0000
0000
0000
0000
0000
0000
0000
0010
0000
,
0000
0000
0000
0000
0010
0000
0000
0000
0000
0001
0000
0000
0000
0000
0000
0000
0000
0010
0000
0000
0000
0000
1000
0000
0000
0000
0000
0000
0000
0001
0000
0000
,
0000
0000
0000
0010
0000
0000
0000
0000
0000
1000
0000
0000
0000
0000
0000
0000
0100
0000
0000
0000
0000
0000
0010
0000
0000
0000
0000
0000
0000
0000
0000
0000
,
0000
0100
0000
0000
0000
0000
0000
0000
0100
0000
0000
0000
0000
0010
0000
0000
0000
0000
0000
0001
0000
0000
0000
0000
0000
0000
0000
0000
0010
0000
0000
0000
,
0000
0000
0000
0000
0000
0000
1000
0000
0000
0000
0000
0000
0010
0000
0000
0000
0000
0000
0000
1000
0000
0000
0000
0000
0010
0000
0000
0000
0000
0100
0000
0000
,
0000
0000
0000
0000
,
0000
0000
0000
0000
,
0000
0000
0000
0000
0000
0000
0000
2002
,
0000
0000
0000
3003
,
0001
0100
1000
0010
0001
0000
0100
0010
,
0100
1000
0010
0100
0010
1000
0010
1000
,
0001
1000
0001
0100
1000
0010
0001
0010
,
0100
0010
0001
0010
0100
0001
0100
0100
,
0010
1000
0010
0000
1000
0010
1000
0010
,
1000
0010
0100
0010
0100
0001
0100
0001
,
0100
0010
0001
0010
0001
0010
1000
0010
,
1000
0010
1000
0010
1000
0010
0100
0010
,
0100
0000
0000
0001
0000
0000
0000
0000
1000
0000
0000
0000
0010
0000
0000
0000
0000
0100
0000
0000
0000
0000
0000
0000
,
0000
0000
1000
0000
0001
0000
1000
0000
0000
0001
0000
0000
0000
0000
1000
0000
0000
0000
0000
0010
0000
0000
0000
0000
,
0000
0000
0000
0000
0000
0000
0000
0000
0000
0100
0000
0000
0000
0001
0000
0000
0000
0010
0000
0000
0000
0000
1000
0000
,
0000
0000
0100
0000
0000
0000
1000
0000
0000
0010
0000
0000
0000
0001
0000
0000
0000
0000
0100
0000
0000
1000
0000
0000
,
0000
0010
0000
0000
0000
0000
0000
0200
0000
0000
0000
0000
0000
0000
0000
0000
0000
0000
0000
0000
0000
0300
0002
0000
,
0000
0000
0000
0000
0000
0000
0000
0000
0000
0000
0000
0003
0000
0000
0000
0100
0000
0000
1000
0000
0000
0010
0000
0000
,
1000
0010
1000
0010
0100
0010
0100
0001
,
0100
1000
0010
0001
0010
0001
0010
0001
,
0100
0001
0100
0000
0001
0100
1000
0010
,
1000
0010
1000
0010
1000
0100
1000
0001
,
0100
1000
0010
0001
0010
0001
0010
0001
,
0100
0000
0001
0001
0010
0100
1000
0010
,
1000
0100
1000
0100
1000
0000
0001
0100
,
1000
0000
0000
0010
0000
0000
0100
0000
0000
0010
0000
0000
0100
0000
0000
0001
0000
0000
1000
0000
0000
0000
1000
0000
,
0000
0000
0010
0000
0000
0000
0000
0000
0000
0000
1000
0000
0000
0001
0000
0000
1000
0000
0000
0001
0000
0000
0000
0100
,
0000
0000
0010
0000
0000
0000
0000
0000
0000
0001
0000
0000
,
0100
0000
0000
0000
0010
0000
0000
1000
0000
0000
0000
0000
0010
0000
0000
0000
0100
0000
0000
0000
0010
0000
0000
0000
,
0100
0000
0000
0000
0000
0001
0000
0000
0010
0000
0000
0000
0001
0000
0000
0000
0000
0000
0002
0000
0000
0000
0000
0000
,
0000
0000
0000
0000
0000
0000
0003
0000
2000
0000
0000
0000
0000
0000
0000
0000
0000
0000
0000
3000
0000
0001
0000
0000
,
0000
0100
0010
1000
0010
0000
0100
0010
,
0100
0000
0010
0001
0010
0001
0010
0100
,
1000
0010
0000
0001
0100
1000
0010
1000
,
0010
1000
0010
0100
0010
0100
0001
0100
,
0001
0010
0001
0010
0001
0010
0100
0001
,
0100
1000
0010
1000
0010
1000
0010
0100
,
0010
0000
0100
0010
0001
0010
1000
0010
,
1000
0001
0100
1000
0010
0001
0010
0100
,
0010
0000
0000
0000
0001
0000
0000
0000
0000
0001
0000
0000
0000
1000
0000
0000
0000
0000
0000
0000
0000
1000
0000
0000
,
0010
1000
0000
0010
0000
0100
0000
0001
0000
0000
0000
0000
,
0000
0000
0000
0000
0000
0002
0000
0000
0000
0000
0000
0000
0000
0000
0003
2000
0000
0000
0000
0100
0000
0000
0000
0000
,
0100
0000
3000
0000
0020
0000
0000
0000
0000
0100
0000
0000
0000
0100
0030
0000
0000
0002
0000
0000
0000
0100
0000
0000
,
0000
0000
0000
0000
2003
0000
0000
0000
0000
0000
0000
0000
0000
0000
0000
0000
0000
3000
0020
0000
0000
0000
0000
0000
,
0000
0000
0000
0000
0030
0000
0001
0000
0000
0100
0000
0000
1000
0000
0000
0010
0000
0000
0001
0000
0000
0000
0000
0000
,
1000
0010
1000
0010
0100
0010
0000
0010
,
1000
0010
1000
0010
0100
0010
0001
0010
,
0100
1000
0010
1000
0010
1000
0010
1000
,
0001
1000
0001
0100
1000
0010
0100
0000
,
0010
0100
0010
0001
0010
0001
0010
0100
,
0001
0000
0100
1000
0010
0001
0100
1000
,
0010
1000
0010
1000
0010
0100
0010
0001
,
0010
0000
0000
1000
0000
0000
0010
0000
0000
1000
0000
0000
0001
0000
0100
0000
0000
0000
0100
0000
0000
0000
0000
0010
,
0000
0000
0000
0000
0000
0000
0000
0000
1000
0000
0010
0000
1000
0000
0000
0001
0000
0000
0000
0000
0100
0000
0000
1000
,
0000
0000
0000
0000
0000
0000
0000
0000
0000
0000
0000
0000
0000
0000
0002
0000
0000
0000
0000
1000
0000
0000
0000
1003
,
0000
0000
0000
2000
0000
0000
0010
0000
0000
0000
0000
0000
3010
0000
0000
0000
0200
0000
0000
0000
0010
0000
0000
0000
,
0000
0310
0000
0000
0001
0000
0000
0000
0010
0000
0000
0000
0000
0002
0000
0000
0000
0000
0000
0000
0000
0000
0000
0000
,
0000
0000
0000
0000
0000
0203
0000
0000
0000
0000
0000
0000
0000
0000
0000
0300
0000
0000
0001
0000
0000
0100
0000
0000
,
1000
0010
1000
0010
1000
0010
1000
0010
,
1000
0001
1000
0001
1000
0100
1000
0010
,
0100
0010
0100
0010
0100
0001
0100
0001
,
0000
0100
0010
0100
0010
0100
0010
1000
,
0010
1000
0010
1000
0010
0100
0010
0100
,
0001
0100
0001
0100
1000
0010
0001
0010
,
0001
0010
0001
0010
0001
0100
1000
0010
,
1000
0010
0000
0100
0010
0100
0010
0100
,
0001
0000
0000
0000
;

//---------------dance-single - ----------------
#NOTES:
     dance-single:
     :
     Medium:
     6:
     0.390,0.476,0.044,0.231,0.000,500.000,9.000,47.000,0.000,0.000:
0000
0000
0000
0000
,
0000
0000
0000
0000
,
0000
0000
0000
0000
,
0000
0000
0000
0000
,
0000
0000
0010
0100
,
0010
0001
0010
1000
,
0010
1000
0010
0100
,
0010
0000
0001
0010
,
1000
0010
0100
0100
,
0001
1010
0010
0100
,
0000
0000
0010
0001
,
0010
1000
0010
1000
,
0010
0100
0001
0010
,
0001
0010
1000
0010
,
0000
1000
0010
0100
,
0001
0010
0100
0110
,
0000
0000
0000
0000
0000
0000
0000
1000
,
0000
0001
0000
1000
0000
1000
0010
1000
,
0000
0100
0000
0010
0000
0010
0000
0011
,
0000
0000
0100
0000
0010
0000
1000
0010
,
1000
0000
0100
0000
0100
0001
0100
0001
,
0010
0000
1000
0000
0010
0000
0010
0001
,
0000
0010
1000
0000
0100
0000
0001
0000
,
0100
1000
0000
0010
0000
1000
0000
1000
,
0010
0000
1000
0100
0000
0000
0010
0100
,
0010
0100
0000
0010
0000
0001
0000
1000
,
0001
1000
0000
0100
0000
0010
0000
0100
,
0000
0010
0100
0010
0000
0000
0001
0000
,
0010
0001
0010
0000
1000
0000
0001
0000
,
1000
0020
0000
0000
,
0000
0000
0000
0000
,
0000
0000
0030
0200
0000
0000
0000
0000
,
0000
0000
0300
0002
0000
0000
0000
0000
,
0003
0000
0000
1000
0000
0010
0000
1000
,
0000
0100
0010
0000
0100
0001
0000
0010
,
0000
1000
0000
0001
0100
1000
0000
0010
,
0000
0000
1000
0010
0001
0000
0010
0000
,
1000
0010
1000
0010
0100
0000
0010
0000
,
0000
0001
0010
0000
0011
0000
0000
1000
,
0010
1000
0000
0010
0100
0010
0000
0001
,
0000
0100
0000
0001
0010
0001
0000
0010
,
0000
1000
0000
0010
1000
0010
0000
1000
,
0000
0010
0000
0100
0001
0100
0000
0001
,
0000
0010
0001
0010
0000
0100
1000
0000
,
0010
0000
1000
0000
1000
0010
1000
0000
,
0010
0000
0100
0010
0100
0010
0001
0000
,
0010
0000
0000
0100
0100
0000
0001
0100
,
0000
1000
0000
1000
0010
1000
0010
0100
,
0000
0010
0000
0000
0001
0010
0000
1000
,
0000
0000
0000
0000
0000
0000
0000
0001
,
0000
1000
0000
0000
1000
0010
0000
0000
,
2000
0000
0000
3010
0000
0000
0100
0000
,
0002
0000
0000
0103
0000
0000
1000
0000
,
0020
0000
0000
0130
0000
0000
2000
0000
,
0100
0000
3000
0002
0000
0000
0000
0000
,
0000
0103
0000
0000
0010
0000
0000
1000
,
0002
0000
0000
0000
1003
0000
0000
1000
,
0000
0020
0000
0000
0130
0000
0000
0000
,
0000
0000
0000
0002
0000
0000
1003
0000
,
0010
0000
2000
0000
0000
3010
0000
0000
,
0100
0000
0002
0000
0000
0103
0000
0000
,
0100
0000
0020
0000
0000
0130
0000
0000
,
0000
0000
1000
0000
2000
0000
0000
3100
,
0000
0010
0000
0002
0000
0010
0003
0100
,
0000
0010
0000
0001
0000
0100
0000
1000
,
0000
0010
0000
0001
0000
1000
0010
0000
,
1000
0010
0000
0110
0000
0000
0000
0000
,
0000
0000
0000
0000
,
0000
0000
0000
0020
0000
0000
0000
0000
,
0000
0000
0000
0000
0000
0000
0000
0030
,
0000
0000
0200
0000
,
0000
0000
0000
0000
0000
0300
0000
0000
,
0000
0000
0002
0000
,
0000
0000
0000
0003
,
0000
0000
0000
0000
0000
2000
0000
0000
,
0000
0000
0000
0000
0000
3000
0020
0000
,
0000
0000
0000
0000
0000
0030
0200
0000
,
0000
0000
0000
0000
0000
0300
0000
0000
,
0002
0000
0000
0000
0000
0003
2000
0000
,
0000
0000
0000
0000
0000
3000
0020
0000
,
0000
0000
0000
0000
0000
0030
0000
0200
,
0000
0000
0000
0000
0000
0300
0000
0001
,
0000
1000
0000
0000
0010
0000
1000
0000
,
1001
0000
0000
0000
,
0000
0000
0000
0000
,
0000
0000
0000
0000
,
1001
0000
0000
0000
,
0001
0100
1000
0010
0000
1000
0010
1000
,
0010
1000
0000
0010
0000
1000
0010
1000
,
0000
0100
0000
0010
0000
0100
0000
0010
,
0000
0010
0001
0010
0000
1000
0010
1000
,
0000
0001
0000
0100
0000
1000
0000
0010
,
0000
0000
1000
0010
1000
0000
0000
0000
,
0100
0010
0100
0000
0010
0000
0100
0000
,
0010
0000
0010
0001
0010
0000
1000
0000
,
1001
0000
0000
0001
0000
1000
0000
0010
,
0000
1000
0000
0010
0000
1000
0000
0010
,
0000
0100
0000
0010
0000
0010
0000
0001
,
0000
0010
0000
1000
0000
0010
0000
0000
,
0000
0100
0000
0000
0100
0000
0001
0000
,
0100
0010
0000
0000
0001
0100
1000
0000
,
1000
0010
1000
0000
1000
0010
1000
0010
,
1000
0010
0100
0010
0001
0000
0010
0000
,
0100
0010
0000
0100
0000
1000
0010
1000
,
0000
0100
0010
0001
0000
0000
0010
0001
,
0000
0010
0000
0100
0000
0100
0001
0010
,
0000
0001
0010
0100
0000
0010
0000
1000
,
0000
0010
0000
1000
0010
0000
0100
0001
,
0100
1010
1000
0002
,
0000
1003
0000
0000
0000
0000
2000
0000
,
0000
0010
3000
0000
0000
0000
0002
0000
,
0000
0003
2000
0000
0000
0000
3020
0000
,
0000
0030
0200
0000
0000
0300
0002
0000
,
0000
0000
0000
0000
0000
0003
0000
1000
,
0010
1000
0000
0100
0010
0100
0000
0100
,
0001
0100
0000
0000
0001
0100
1000
0000
,
1000
0010
1000
0000
1000
0010
1000
0000
,
0100
0000
0010
0000
0010
0001
0010
0000
,
0100
0000
0010
0000
1000
0010
0000
1000
,
0010
0000
0100
0000
0100
0000
0001
0100
,
0000
0010
0000
0001
0000
0010
0001
0010
,
0000
0001
0000
0100
0000
0001
0100
1000
,
0000
2000
0000
0000
3010
0000
0000
0000
,
0000
0100
0000
0000
0002
0000
0000
0000
,
0003
2000
0000
0000
0000
3000
0020
0000
,
0000
0030
0200
0000
0000
0300
0002
0000
,
0000
0003
0000
2000
0000
0000
0000
0000
,
0000
0000
0000
3000
1000
0000
0100
0000
,
0000
0010
0000
0001
0010
1000
0000
1000
,
0100
0100
0000
0010
0000
0001
0000
0010
,
0000
0001
0000
0010
1000
1000
0000
0100
,
0001
0010
0000
0000
0000
0000
0001
0000
,
0000
0100
1000
0010
,
0000
0100
0010
0000
1000
0000
0010
0000
,
0100
0000
0010
0000
0100
0010
0100
0010
,
1000
0010
0000
0001
0000
0200
0000
0000
,
0301
0000
0002
0000
,
1003
0000
0000
0000
0000
0020
0000
0000
,
0030
0200
0000
0000
0300
0002
0000
0000
,
0003
2000
0000
3000
0000
0020
0000
0000
,
0000
0100
0000
0030
0000
0000
0001
0100
,
0000
0000
1000
0010
1000
0000
0010
0000
,
0001
0010
0100
0010
,
0001
0000
0010
0001
0010
0000
0100
0000
,
0010
0000
0000
1000
0000
0010
0000
1000
,
0000
0010
0000
0100
0010
0100
0000
0010
,
0000
0001
0000
0010
0000
1000
0000
0000
,
1000
0100
0000
0001
0010
0001
0000
0010
,
0000
1000
0000
0000
0010
0000
0100
0000
,
0001
0000
0000
0000
;

//---------------dance-single - ----------------
#NOTES:
     dance-single:
     :
     Easy:
     4:
     0.328,0.327,0.108,0.005,0.000,445.000,22.000,1.000,0.000,0.000:
0000
0000
0000
0000
,
0000
0000
0000
0000
,
0000
0000
0000
0000
,
0000
0000
0000
0000
,
0000
0000
0010
0010
,
0010
0010
0010
0010
,
0010
0100
0001
0001
,
0001
0001
0001
0001
,
0001
1000
0010
0010
,
0010
0000
0010
0010
,
0010
0010
1000
0100
,
0100
0100
0100
0100
,
0000
0100
0100
0010
,
0001
0001
0001
1000
,
0010
1000
0010
0100
,
0010
0001
0010
0011
,
0000
0000
0000
0001
,
0100
0010
1000
0010
,
1000
0010
0100
0010
,
0100
0010
0001
0010
,
0001
0010
0001
0100
,
0001
1000
0001
1000
,
0100
1000
0010
1000
,
0001
1000
0001
0100
,
0001
0100
1000
0010
,
0000
1010
1000
0000
,
0010
0100
0010
0001
,
0010
0100
0010
0100
,
0010
0010
0010
0100
,
0100
0001
0001
0010
,
1000
0010
0100
0001
,
0010
0100
0010
0100
,
0010
0011
0000
0000
,
0000
0000
0101
0010
,
1000
0010
1000
0010
,
0100
0010
1000
0010
,
0010
1000
0100
0100
,
0010
0010
0001
0010
,
0010
1000
0100
0100
,
0010
0001
0010
0010
,
0001
0001
0010
0001
,
0010
0000
0010
0100
,
0100
0100
0001
0010
,
1000
1000
0010
1000
,
1000
1000
1000
0100
,
1000
1000
0100
0100
,
0001
0100
0100
0001
,
0010
0010
0100
0010
,
0001
0010
0100
0010
,
0000
0000
0000
0001
,
0100
0010
1000
0010
,
1000
0010
0100
0010
,
0100
0100
0000
0010
,
0001
0010
1000
0010
,
0100
0010
0001
0010
,
1000
1000
0001
1000
,
0010
1000
0100
0001
,
0010
0001
0000
0010
,
0001
0010
0000
0010
,
0100
0010
0001
0010
,
1000
0010
1000
0100
,
0100
0001
0010
1000
,
1000
0010
0010
0010
,
0100
0100
0100
0001
,
0001
0010
1000
0010
,
1000
0000
0100
0010
,
0001
0000
0101
0000
,
0000
0000
0000
0000
,
0000
0000
1010
0000
,
0000
0000
0000
0000
,
0000
0000
0101
0000
,
0000
0000
0000
0000
,
0000
0000
0110
0000
,
0000
0000
0000
0000
,
0000
0000
0000
1010
,
0000
0000
0000
0000
,
0000
0000
0000
0010
,
0000
0000
0000
0000
,
0000
0000
0000
1000
,
0000
0000
0000
0000
,
0000
0000
0000
0002
,
0000
0000
0000
0000
,
0000
0000
0000
0003
,
0000
0000
0000
0000
,
0000
0000
0000
0000
,
0000
0000
0000
0000
,
0010
0000
0000
0000
,
0100
0100
0010
0010
,
0001
0010
1000
0010
,
0001
0000
1000
1000
,
0000
0100
0010
0001
,
0010
0100
0010
0100
,
0010
0001
0010
0100
,
1000
0010
0010
0010
,
0010
1000
0100
0001
,
0010
1000
0000
1010
,
0000
0100
0000
0011
,
0000
0001
0000
0100
,
1000
0010
1000
0010
,
1000
0010
0100
0100
,
0100
0010
0010
0010
,
0001
0010
0100
0100
,
0010
1000
0010
0100
,
0100
0010
0010
0001
,
0100
0010
1000
0100
,
0000
0100
0000
0101
,
1000
0010
0000
0001
,
0001
0001
0001
0010
,
1000
0100
0010
1000
,
0000
1010
0000
0100
,
0000
0101
0000
0010
,
0010
0100
0100
0001
,
0001
1000
1000
0001
,
0000
0010
1000
0010
,
0010
0000
0100
0100
,
0001
0001
1000
1000
,
0010
0010
0100
0100
,
0010
0010
0001
1000
,
0010
0010
0100
0010
,
1000
0010
0001
0100
,
1000
0010
0010
0100
,
0010
0100
0010
0001
,
0000
0010
0011
0000
,
0001
0000
0101
0000
,
0000
1000
0000
1100
,
0000
0010
0000
0110
,
0000
0001
0100
0010
,
0001
0100
0001
0001
,
1000
1000
0001
0010
,
0100
0010
0010
0000
,
0010
0100
0100
0100
,
0001
0001
1000
1000
,
1000
0010
0010
0100
,
0100
0100
0010
0001
,
0010
0001
0010
1000
,
0100
0010
0100
0000
,
0110
0000
1000
0000
,
1100
0000
0001
0000
,
0011
0000
0000
0100
,
0000
0101
0000
1000
,
0010
1000
0010
1000
,
0100
0001
0010
0100
,
0010
0010
0001
0010
,
1000
0000
0100
0001
,
0010
0001
0010
0001
,
0100
0001
1000
0001
,
1000
0100
1000
0010
,
1000
0001
1000
0000
,
0100
0000
0000
0000
;
