#TITLE:Far East Speedcore;
#SUBTITLE:;
#ARTIST:m1dy feat. Guhroovy;
#TITLETRANSLIT:;
#SUBTITLETRANSLIT:;
#ARTISTTRANSLIT:;
#CREDIT:;
#BANNER:far east speedcore bn.png;
#BACKGROUND:far east speedcore bg.png;
#LYRICSPATH:;
#CDTITLE:;
#MUSIC:Far East Speedcore.ogg;
#OFFSET:0.675;
#SAMPLESTART:11.299;
#SAMPLELENGTH:12.000;
#SELECTABLE:YES;
#BPMS:0.000=180.000;
#STOPS:;
#BGCHANGES:;
// cache tags:
#FIRSTBEAT:4.000;
#LASTBEAT:341.500;
#SONGFILENAME:Songs/SPEEEDCOOOORE 4/Far East Speedcore - [ITGAlex]/Far East Speedcore.sm;
#HASMUSIC:1;
#HASBANNER:1;
#MUSICLENGTH:114.112;
// end cache tags

//---------------dance-single - ITGAlex----------------
#NOTES:
     dance-single:
     ITGAlex:
     Challenge:
     13:
     1.000,1.000,0.175,0.149,1.000,854.000,20.000,17.000,31.000,0.000:
0000
0000
0000
0000
,
1MM0
0001
1000
0100
0010
0100
1000
0001
0100
0000
0010
0000
1000
0001
0100
0000
,
0001
0000
0000
1000
0000
0000
0000
0000
0000
0100
0000
0000
0010
0000
0000
0001
0000
0000
0100
0000
0000
0010
0000
0000
0100
0000
0001
0000
1000
0000
0001
0000
0000
0010
0000
0000
0200
0000
0000
0000
0000
0000
1300
0000
0000
0000
0000
0000
,
M0M1
0100
0001
0100
0010
0100
0001
1000
0100
0000
0010
0000
0100
1000
0001
0100
,
0010
1000
0010
1000
0010
1000
0200
0000
1300
0001
0010
0100
0010
0000
0002
0000
,
M1M3
0001
1000
0100
0010
0100
1000
0001
0100
0010
1000
0000
0001
0010
0100
0010
,
0001
1000
0000
0010
0100
0010
1000
0001
1000
0100
0010
0100
2000
0000
3010
0000
,
M11M
0100
0001
1000
0100
1000
0001
0100
,
0110
0000
0000
0000
0000
0000
0000
0000
0000
0000
0000
0000
0010
1000
0400
0000
,
1300
0001
0100
0001
1000
0100
0010
0100
1000
0000
0001
0000
0100
0001
1000
0000
,
0001
0010
0000
0001
1000
0001
0100
0010
1000
0000
0100
0010
0001
0100
0001
1000
,
0001
0010
0001
1000
0010
0100
0001
1000
0100
0000
0010
0000
0100
0010
0001
1000
,
0001
0100
0001
0100
0001
0100
0010
1000
0100
0010
0001
0010
0100
0010
0001
1000
,
0010
0100
0000
0010
1000
0001
0010
0001
1000
0000
0010
0000
0100
0001
0100
0000
,
0010
1000
0000
0001
0010
0001
1000
0001
0100
0000
0010
1000
0001
0010
0100
0010
,
0001
1000
0000
0001
0100
0001
0000
1000
0100
0010
0001
1000
0001
1000
0040
0000
,
2030
0000
0000
3004
,
0103
0010
0100
0001
1000
0100
1000
0001
,
0010
0000
0100
0000
1000
0000
0001
0000
0100
0000
0010
0000
1000
0000
0001
1000
,
0100
1000
0001
0100
0010
1000
0001
0010
,
0100
0000
0000
0010
0000
0000
0001
0000
0000
1000
0000
0000
0010
0000
0000
0100
0000
0000
0001
1000
0001
1000
0000
0000
,
0100
1000
0001
0100
0010
1000
0100
0010
,
0001
0000
1000
0000
0001
0000
0100
0000
0010
0000
1000
0000
0001
0000
0010
0001
,
1000
0010
0100
0010
1000
0100
1000
0001
,
01M0
0000
00M1
1000
01M0
0000
10M0
0001
01M0
0000
00M1
1000
0020
0000
0000
0000
,
1030
0000
0100
0000
0010
0100
1000
0000
0001
0000
0100
0001
1000
0000
0100
0000
,
0010
0000
0100
0000
1000
0001
0100
0000
0010
0000
0100
0010
1000
0000
0001
1000
,
0100
0000
0010
0000
0001
0100
0010
0000
0100
0000
0001
0000
1000
0000
0100
0010
,
0100
0000
1000
0000
0010
1000
0001
0000
0010
0000
0100
0000
0010
0000
0001
1000
,
0010
0000
0100
0000
0001
1000
0100
0000
1000
0000
0010
0000
0100
0000
0001
0000
,
1000
0000
0100
0000
1000
0001
0100
0000
0010
1000
0001
0010
0200
0000
0300
0000
,
0100
0000
0000
0000
0000
0000
0010
0000
0000
0000
0000
0000
0001
0000
0000
0000
0000
0000
1000
0000
0000
0000
0000
0000
0010
0000
0100
0000
0010
0000
1000
0000
0000
0001
0000
0000
00M0
0000
0000
0000
0000
0000
00M0
0000
0000
0000
0000
0000
,
1000
0000
0001
0000
0100
0001
0040
0000
0031
1000
0001
1000
0001
1000
0001
1000
,
0020
0000
0000
0000
,
0000
0000
0000
0000
0000
0000
0000
0000
0000
0000
0000
0000
1030
0001
0010
0000
,
0110
0110
0000
0000
0000
0000
0000
0000
,
0000
0000
0000
0000
0000
0000
0000
0000
0000
0000
0000
0000
0000
0000
0000
0000
0000
0000
2000
0000
0000
0000
0000
3000
,
1001
1001
0000
0000
0000
0000
0000
0000
,
0000
0000
0000
0000
,
0101
0101
0000
0000
0000
0000
0000
0000
,
0110
0000
0020
0000
0000
0000
0000
0030
1000
0000
0000
1000
0100
0000
0010
0000
,
0001
0000
1000
0000
0010
1000
0001
0010
0100
0000
0010
0001
1000
0000
0010
0000
,
0100
0000
0001
0000
1000
0100
0010
0000
0100
1000
0001
1000
0010
0000
0100
0000
,
0001
0000
0010
0000
0100
0010
0001
0010
0100
0000
1000
0001
0100
0000
0010
0000
,
0100
0000
0001
0000
1000
0100
0010
0100
1000
0000
0001
1000
0010
0000
0100
0000
,
0001
0000
1000
0000
0100
1000
0001
0100
0001
0000
0010
0100
0010
0000
0001
0000
,
1000
0000
0010
0000
1000
0100
1000
0001
0100
0000
0010
1000
0100
0000
1000
0000
,
0001
0000
0100
0000
0001
0010
0100
1000
0001
0000
0100
0001
0010
0000
0100
0000
,
1000
0000
0000
0000
0000
0000
0010
0000
0000
0100
0000
0000
0010
0000
0000
1000
0000
0000
0001
0000
0000
1000
0000
0000
0100
0000
0000
0000
0000
0000
0010
0000
0000
0100
0000
0000
1000
0000
0000
0000
0000
0000
0001
0000
1000
0000
0001
0000
,
1000
0000
0100
0000
0010
0100
1000
0100
0010
0000
0001
1000
0001
0000
0100
0000
,
0010
0000
1000
0000
0010
0100
0001
1000
0001
0000
0010
0001
1000
0000
0010
0000
,
0100
0000
0000
0000
0000
0000
0001
0000
0000
0000
0000
0000
1000
0000
0000
0100
0000
0000
1000
0000
0000
0001
0000
0000
0100
0000
0000
0000
0000
0000
0010
0000
0000
1000
0000
0000
0001
0000
0000
0000
0000
0000
0100
0000
0001
0000
1000
0000
,
0001
0000
1001
0000
0000
0000
0000
0000
0000
0000
0000
0000
0001
1000
0400
0000
,
1300
0000
0010
0000
0100
0001
1000
0001
0010
0000
0100
0010
0001
0000
0100
0000
,
0010
0000
1000
0000
0001
0010
0100
0010
0001
1000
0001
1000
0010
0000
1000
0001
,
0010
0000
0100
0000
1000
0001
0100
0010
1000
0000
0010
1000
0001
0000
0010
0000
,
0001
0000
1000
0000
0010
0100
0001
0100
0010
0000
1000
0001
0010
0100
0010
0100
,
1000
0000
0001
0000
1000
0010
1000
0001
0010
0000
0100
0010
0001
0000
0100
0000
,
0010
0000
1000
0000
0001
1000
0100
1000
0001
0000
0100
0010
1000
0001
1000
0001
,
0010
0000
0100
0000
0010
0001
1000
0001
4000
3000
0001
0100
0001
1000
0100
0010
,
0001
0000
0000
0000
0000
0000
0100
0000
0000
0000
0000
0000
0010
0000
0000
1000
0000
0000
0100
0000
0000
0010
0000
0000
0001
0000
0000
0000
0000
0000
0100
0000
0000
0010
0000
0000
1000
0000
0001
0000
1000
0000
0004
0000
0000
0000
0000
0000
,
1003
0000
0010
0000
0100
0001
0010
0100
0010
0001
1000
0001
0100
0000
0010
0000
,
1000
0000
0100
1000
0001
0000
1000
0010
0100
0000
0001
1000
0100
1000
0001
1000
,
0001
0000
0100
0000
0010
1000
0100
0010
0001
0000
0010
0001
1000
0000
0010
0000
,
0100
0000
0010
1000
0100
0000
0010
0001
1000
0000
0010
0100
0010
1000
0001
1000
,
0010
0000
0100
0001
1000
0000
0100
0010
0001
0000
1000
0000
0010
1000
0001
0000
,
0010
0100
0010
0001
1000
0000
0010
0100
0001
1000
0100
0010
0001
0000
1000
0010
,
0100
0000
0001
0000
1000
0000
0100
0000
4000
3000
0001
0100
0010
1000
0010
1000
,
0002
0000
0000
0000
0000
0000
0000
0000
0000
0000
0003
0000
0M00
0000
0000
00M0
0000
0000
0M00
0000
0000
00M0
0000
0000
000M
0000
0000
M000
0000
0000
0M00
0000
0000
0000
0000
0000
MMMM
0000
0000
0000
0000
0000
0000
0000
0000
0000
0000
0000
,
1000
0000
0000
0001
0000
0000
0100
0000
0000
0010
0000
0000
1000
0000
0000
0001
0000
0000
0010
0000
0000
0001
0000
0000
1000
0000
0000
0000
0000
0000
0100
0000
1000
0000
0001
0000
1000
0000
0000
0010
0000
0000
0100
0000
0000
0010
0000
0000
,
1000
0001
0100
0001
1000
0001
1000
0010
0100
0001
1000
0001
0010
0100
1000
0001
,
1000
0000
0000
0010
0000
0000
0100
0000
0000
0001
0000
0000
0010
0000
0000
0100
0000
0000
0010
0000
0000
0001
0000
0000
1000
0000
0000
0000
0000
0000
0010
0000
1000
0000
0010
0000
0100
0000
0000
0001
0000
0000
1000
0000
0000
0010
0000
0000
,
1000
0001
1000
0000
0100
1000
0001
0000
0100
0010
1000
0000
1020
0000
0000
0000
,
0130
0001
0100
0010
1000
0100
0010
0001
1000
0000
0010
0000
1000
0001
0010
0000
,
0100
1000
0001
0100
0001
0010
0100
1000
0010
0000
1000
0001
0010
0000
MMMM
0000
,
0001
0100
0001
1000
0100
0010
0001
0100
0010
0000
0100
0000
0001
1000
0100
0000
,
4000
3004
4003
3004
0403
0304
0403
0304
,
1003
0100
0010
0001
1000
0001
0100
0010
1000
0000
0001
0000
0010
0001
1000
0000
,
0010
1000
0000
0010
0100
0010
1000
0001
0010
0000
0100
0010
0002
0000
0103
0000
,
0010
0100
0010
1000
0001
1000
0100
0010
0001
0000
1000
0000
0001
0100
0010
0100
,
0001
0000
1000
0100
0000
1000
0001
0000
0100
0010
1000
0100
0020
0000
0031
0000
,
1000
0001
0000
0100
0010
0100
0001
1000
0100
0010
0100
1000
0001
0100
0010
0000
,
0100
0001
0000
1000
0100
0010
0001
1000
0010
0100
0001
0100
0010
1000
0004
0000
,
2003
3000
0000
0002
,
1003
0000
0100
0000
0010
0100
1000
0001
0100
0000
0001
1000
0010
0000
1020
0000
,
0000
0000
0000
0030
0000
0000
0000
0000
;
