#TITLE:Higan Retour;
#SUBTITLE:-idling mix-;
#ARTIST:ZUN (Arr. sun3);
#TITLETRANSLIT:;
#SUBTITLETRANSLIT:;
#ARTISTTRANSLIT:;
#CREDIT:;
#BANNER:../banner.png;
#BACKGROUND:../bg.png;
#LYRICSPATH:;
#CDTITLE:;
#MUSIC:Higan Retour.ogg;
#OFFSET:1.187;
#SAMPLESTART:39.920;
#SAMPLELENGTH:19.400;
#SELECTABLE:YES;
#BPMS:0.000=200.000;
#STOPS:;
#BGCHANGES:;
// cache tags:
#FIRSTBEAT:8.000;
#LASTBEAT:441.000;
#SONGFILENAME:Songs/Cirque du Lykan/Higan Retour -Idling Mix- - [Zaia]/Higan Retour.sm;
#HASMUSIC:1;
#HASBANNER:1;
#MUSICLENGTH:138.480;
// end cache tags

//---------------dance-single - Zaia - 14(high)----------------
#NOTES:
     dance-single:
     Zaia - 14(high):
     Challenge:
     14:
     1.000,1.000,0.108,0.137,1.000,1239.000,15.000,19.000,0.000,0.000:
0000
0000
0000
0000
,
0000
0000
0000
0000
,
0001
0000
0000
1000
0000
0000
0100
0000
,
0010
0000
0000
0001
0000
0000
1000
0000
,
0010
1000
0100
1000
0001
0000
0100
0000
,
0010
0000
0000
1000
0000
0000
0001
0000
,
0100
0000
0000
0010
0000
0000
1000
0000
,
0100
0000
0000
0010
0000
0000
0001
0000
,
0100
0001
1000
0000
0010
0000
0010
0000
,
2000
0000
0000
0000
,
3001
0000
0100
0000
0001
0000
1000
0001
1000
0000
0001
0000
0010
0001
0010
0000
,
0001
0000
0100
0000
0010
0000
1000
0001
0100
0001
1000
0000
0010
1000
0001
0010
,
0100
0000
1000
0000
0001
0000
0100
0010
1000
0010
0100
0000
0001
0010
0100
0010
,
0001
0000
1000
0010
0100
0010
1000
0000
0001
0010
0100
1000
0001
0100
0010
1000
,
0001
0000
0100
0000
0010
0000
1000
0010
1000
0000
0001
0000
0010
0100
0010
0000
,
0001
0000
1000
0000
0100
0000
1000
0010
0100
0000
0001
0000
0010
0100
1000
0001
,
0100
0000
0001
0000
0010
0000
0100
1000
0001
0000
1000
0000
0001
0100
0010
0100
,
0001
1000
0001
1000
0001
1000
0001
1000
0001
1000
0001
1000
0002
0000
0000
0000
,
0003
0000
0000
0000
1000
0100
0010
0100
1000
0001
0100
0010
1000
0001
0010
0100
,
0010
0001
1000
0001
1000
0010
0100
0001
1000
0100
1000
0001
0010
0001
0100
0010
,
1000
0010
0100
0001
0010
0100
1000
0001
0100
0010
0100
0001
1000
0001
0010
0100
,
1000
0001
1000
0010
0100
0010
1000
0001
0010
0001
1000
0100
0010
0001
1000
0010
,
0100
0010
1000
0001
0010
0100
1000
0001
1000
0010
0100
0010
1000
0001
1000
0100
,
0010
0100
1000
0001
0010
0100
1000
0001
0100
0010
1000
0001
0100
0001
0010
0100
,
1000
0100
0010
0001
0100
0010
1000
0001
1000
0100
0010
0100
1000
0001
0100
0001
,
1000
0001
1000
0100
0010
0001
1000
0001
1000
0001
1000
0001
1000
0001
1000
0001
,
0010
0100
1000
0001
1000
0010
0100
0010
1000
0001
0010
0100
1000
0001
0100
0010
,
0100
0001
1000
0001
1000
0100
0010
0001
1000
0010
1000
0001
0100
0001
0010
0100
,
1000
0100
0010
0001
0100
0010
1000
0001
0010
0100
0010
0001
1000
0001
0100
0010
,
1000
0001
1000
0100
0010
0100
1000
0001
0100
0001
1000
0010
0100
0001
1000
0100
,
0010
0100
1000
0001
0100
0010
1000
0001
1000
0100
0010
0100
1000
0001
1000
0010
,
0100
0010
1000
0001
0100
0010
1000
0001
0010
0100
1000
0001
0010
0001
0100
0010
,
1000
0010
0100
0001
0010
0100
1000
0001
1000
0010
0100
0010
1000
0001
0010
0001
,
1000
0001
1000
0010
0100
0001
1000
0001
1000
0001
1000
0001
2000
0000
0000
0000
,
3020
0000
0000
0000
0000
0000
0000
0030
0100
0000
0001
0000
0010
0000
0001
0000
1000
0000
0001
0000
0100
0000
0010
0000
0100
0000
0001
0000
1000
0000
0100
0000
,
1000
0001
0100
0001
1000
0100
0010
0001
1000
0010
0100
0001
1000
0001
0010
0001
,
1000
0001
0100
0010
1000
0100
1000
0001
0010
0100
0010
0001
1000
0010
0100
0001
,
0010
0100
1000
0001
1000
0010
0100
0001
1000
0100
1000
0001
1000
0010
0100
0001
,
1000
0100
0010
0001
1000
0010
0100
0010
1000
0001
0010
0100
1000
0001
0100
0001
,
1000
0100
1000
0001
0100
0010
1000
0001
0010
0100
1000
0001
1000
0010
1000
0001
,
1000
0100
0010
0001
0100
0001
1000
0010
0100
0010
1000
0001
0010
0100
1000
0010
,
0100
0001
1000
0001
0010
0100
1000
0001
0100
0001
1000
0100
1000
0001
0010
0001
,
0010
0100
1000
0001
0010
0001
0100
0010
0100
0001
1000
0100
0010
0001
1000
0010
,
1000
0001
0010
0001
1000
0010
0100
0001
1000
0100
0010
0001
1000
0001
0100
0001
,
1000
0001
0010
0100
1000
0010
1000
0001
0100
0010
0100
0001
1000
0100
0010
0001
,
0100
0010
1000
0001
1000
0100
0010
0001
1000
0010
1000
0001
1000
0100
0010
0001
,
1000
0010
0100
0001
1000
0100
0010
0100
1000
0001
0100
0010
1000
0001
0010
0001
,
1000
0010
1000
0001
0010
0100
1000
0001
0100
0010
1000
0001
1000
0100
1000
0001
,
1000
0010
0100
0001
0010
0001
1000
0100
0010
0100
1000
0001
0100
0010
1000
0100
,
0010
0001
1000
0001
0100
0010
1000
0001
0010
0100
1000
0001
1000
0010
0100
0001
,
1000
0100
0010
0001
1000
0000
0001
0000
1000
0000
0010
0000
0100
0001
1000
0001
,
0020
0000
0000
0000
0031
0000
1000
0000
0100
0000
1000
0000
0001
1000
0010
1000
,
0200
0000
0000
0000
1300
0000
0001
0000
0100
0000
0010
0000
0100
0001
1000
0001
,
0020
0000
0000
0000
0031
0000
0100
0000
0001
0000
0010
0000
0001
0100
0010
1000
,
0200
0000
0300
0000
1100
0000
0000
0000
1001
0000
0001
0000
0100
0010
1000
0010
,
0200
0000
0300
0000
1010
0000
0000
0000
0110
0000
0001
0000
0100
0001
1000
0001
,
0020
0000
0030
0000
1100
0000
0000
0000
0110
0000
0010
0000
0001
0010
0100
0010
,
0002
0000
0003
0000
1000
0010
1000
0010
0100
0001
1000
0001
0100
0001
0010
0001
,
1000
2002
0000
0000
,
0000
0000
0000
0000
,
0000
0000
0000
3003
,
0000
0000
0000
0000
,
0000
0000
0001
0000
0000
1000
1001
0000
,
0000
0010
0010
0110
,
0100
0000
0010
0000
0000
1000
1010
0000
,
0000
0000
0001
0000
0001
0000
0011
0010
,
0000
0010
0001
0000
0000
1000
1010
0000
,
0000
0100
0100
1001
,
0000
0000
0001
0000
0000
0001
0110
0000
,
0000
0000
0100
0000
0100
0000
0110
1000
,
0000
0000
1000
0000
0001
0000
0010
0000
0001
0000
1000
0010
0100
0010
1000
0000
,
0001
1000
0100
1000
0001
0000
0010
0000
0100
0000
1000
0100
0010
0001
1000
0000
,
0010
0100
0001
0000
1000
0000
0001
0000
0010
0000
0100
1000
0001
1000
0100
0000
,
0010
0001
0100
0010
1000
0001
1000
0100
1000
0001
1000
0001
0100
0010
0100
0001
,
1000
0100
0010
0001
1000
0000
0010
0000
0100
0001
0100
0010
1000
0000
0001
0000
,
0100
0001
1000
0001
0010
0000
0100
0000
1000
0001
0010
0100
1000
0000
0001
0000
,
0100
0010
0100
0001
2000
0000
0000
0000
0000
0000
0000
0000
3002
0000
0000
0000
,
0000
0023
0230
2300
,
3020
0000
0000
0000
0130
0001
0100
0000
0010
0000
1000
0100
1000
0000
0001
0010
,
0100
1000
0001
1000
0010
0100
0001
0000
1000
0000
0001
0100
0001
0000
1000
0010
,
0100
0001
1000
0001
0010
0100
1000
0000
0001
0000
1000
0100
1000
0000
0001
0010
,
0100
1000
0001
1000
0010
0100
0001
0000
1000
0000
0001
0100
0001
0000
1000
0010
,
0100
0001
1000
0001
0010
0100
1000
0000
0001
0000
1000
0100
1000
0000
0001
0010
,
0100
1000
0001
1000
0010
0100
0001
0000
1000
0000
0001
0100
0001
0000
1000
0010
,
0100
0001
1000
0001
0010
0100
1000
0000
0001
0000
1000
0100
1000
0000
0001
0010
,
0100
1000
0001
1000
0010
0100
0001
1000
0001
0100
0010
1000
0001
0010
0001
0100
,
0010
1000
0001
0010
0100
1000
0001
0000
0010
0000
0001
0100
0001
0000
1000
0010
,
0100
0001
1000
0001
0010
0100
1000
0000
0001
0000
1000
0100
1000
0000
0001
0010
,
0100
1000
0001
1000
0010
0100
0001
0000
1000
0000
0001
0100
0001
0000
1000
0010
,
0100
0001
1000
0001
0010
0100
1000
0000
0001
0000
1000
0100
1000
0000
0001
0010
,
0100
1000
0001
1000
0010
0100
0001
0000
1000
0000
0001
0100
0001
0000
1000
0010
,
0100
0001
1000
0001
0010
0100
1000
0000
0001
0000
1000
0100
1000
0000
0001
0010
,
0100
1000
0001
1000
0010
0100
0001
0000
1000
0000
0001
0100
0001
0000
1000
0010
,
0100
0001
1000
0001
0010
0100
1000
0001
1000
0100
0010
0001
1000
0010
1000
0100
,
0010
0001
1000
0001
0100
0010
1000
0000
0100
0000
1000
0010
1000
0000
0001
0100
,
0010
1000
0001
1000
0100
0010
0001
0000
1000
0000
0001
0010
0001
0000
1000
0100
,
0010
0001
1000
0001
0100
0010
1000
0000
0001
0000
1000
0010
1000
0000
0001
0100
,
0010
1000
0001
1000
0100
0010
0001
0000
1000
0000
0001
0010
0001
0000
1000
0100
,
0010
0001
1000
0001
0100
0010
1000
0000
0001
0000
1000
0010
1000
0000
0001
0100
,
0010
1000
0001
1000
0100
0010
0001
0000
1000
0000
0001
0010
0001
0000
1000
0100
,
0010
0001
1000
0001
0100
0010
1000
0000
0001
0000
1000
0010
1000
0000
0001
0100
,
0010
1000
0001
1000
0100
0010
0001
1000
0001
0010
0100
1000
0001
0100
0001
0010
,
0100
1000
0001
0100
0010
1000
0001
0000
0100
0000
0001
0010
0001
0000
1000
0100
,
0010
0001
1000
0001
0100
0010
1000
0000
0001
0000
1000
0010
1000
0000
0001
0100
,
0010
1000
0001
1000
0100
0010
0001
0000
1000
0000
0001
0010
0001
0000
1000
0100
,
0010
0001
1000
0001
0100
0010
1000
0000
0001
0000
1000
0010
1000
0000
0001
0100
,
0010
1000
0001
1000
0100
0010
0001
0000
1000
0000
0001
0010
0001
0000
1000
0100
,
0010
0001
1000
0001
0100
0010
1000
0000
0001
0000
1000
0010
1000
0000
0001
0100
,
0010
1000
0001
1000
0100
0010
0001
0000
1000
0000
0001
0010
0001
0000
1000
0100
,
0010
0001
1000
0001
0100
0010
1000
0001
1000
0010
0100
0001
1000
0100
1000
0010
,
0100
0001
1000
0001
0010
0000
0000
0000
0000
0000
0000
0000
0000
0000
0000
0000
;

//---------------dance-single - Zaia - 13(mid)----------------
#NOTES:
     dance-single:
     Zaia - 13(mid):
     Hard:
     13:
     1.000,1.000,0.108,0.137,1.000,1073.000,15.000,19.000,0.000,0.000:
0000
0000
0000
0000
,
0000
0000
0000
0000
,
0001
0000
0000
1000
0000
0000
0100
0000
,
0010
0000
0000
0001
0000
0000
1000
0000
,
0010
1000
0100
1000
0001
0000
0100
0000
,
0010
0000
0000
1000
0000
0000
0001
0000
,
0100
0000
0000
0010
0000
0000
1000
0000
,
0100
0000
0000
0010
0000
0000
0001
0000
,
0100
0001
1000
0000
0010
0000
0010
0000
,
2000
0000
0000
0000
,
3001
0000
0100
0000
0001
0000
1000
0001
1000
0000
0001
0000
0010
0001
0010
0000
,
0001
0000
0100
0000
0010
0000
1000
0001
0100
0001
1000
0000
0010
1000
0001
0010
,
0100
0000
1000
0000
0001
0000
0100
0010
1000
0010
0100
0000
0001
0010
0100
0010
,
0001
0000
1000
0010
0100
0010
1000
0000
0001
0010
0100
1000
0001
0100
0010
1000
,
0001
0000
0100
0000
0010
0000
1000
0010
1000
0000
0001
0000
0010
0100
0010
0000
,
0001
0000
1000
0000
0100
0000
1000
0010
0100
0000
0001
0000
0010
0100
1000
0001
,
0100
0000
0001
0000
0010
0000
0100
1000
0001
0000
1000
0000
0001
0100
0010
0100
,
0001
1000
0001
1000
0001
1000
0001
1000
0001
1000
0001
1000
0002
0000
0000
0000
,
0003
0000
0000
0000
1000
0000
0100
0000
0010
0000
0100
0010
0100
0000
1000
0000
,
0001
0100
0010
0000
1000
0000
0001
0000
0010
0000
0100
1000
0001
1000
0001
0000
,
0100
0010
1000
0000
0001
0000
0010
0000
0100
0000
1000
0001
1000
0000
0010
0000
,
0100
0001
1000
0000
0100
0000
0010
0001
0010
0001
1000
0000
0010
0100
0001
0100
,
0010
0000
1000
0000
0001
0000
0100
0000
0010
0000
0100
0010
0100
0000
0001
0000
,
1000
0100
0010
0000
0001
0000
1000
0000
0010
0000
0100
0001
1000
0001
1000
0000
,
0100
0010
0001
0000
1000
0000
0010
0000
0100
0000
0001
1000
0001
0000
0010
0000
,
0100
1000
0001
0000
0100
0000
0010
1000
0010
1000
0001
0000
0010
0100
1000
0100
,
0010
0001
1000
0100
0010
0001
1000
0001
,
1000
0010
0100
0010
1000
0010
0100
0001
,
1000
0100
0010
0001
0100
0010
0100
0001
,
0010
0100
1000
0010
1000
0001
1000
0100
,
0010
0001
1000
0010
0100
0001
1000
0001
,
1000
0010
0100
0010
1000
0100
0010
0001
,
1000
0010
0100
0001
0010
0100
0010
0001
,
0100
0010
1000
0100
1000
0001
2000
0000
,
3020
0000
0130
0001
0100
0001
1000
0001
,
1000
0100
0010
0100
1000
0010
0100
0001
,
0010
0100
1000
0001
1000
0001
0100
0010
,
1000
0001
0010
0100
1000
0010
0100
0001
,
1000
0100
0010
0001
0010
0001
1000
0001
,
1000
0010
0100
0010
1000
0100
0010
0001
,
0100
0010
1000
0001
1000
0001
0010
0100
,
1000
0001
0100
0010
1000
0100
0010
0001
,
0010
0000
0001
0000
1000
0001
0100
0010
0100
0001
1000
0100
0010
0001
1000
0010
,
1000
0001
0010
0001
1000
0010
0100
0001
1000
0100
0010
0001
1000
0001
0100
0001
,
1000
0001
0010
0100
1000
0010
1000
0001
0100
0010
0100
0001
1000
0100
0010
0001
,
0100
0010
1000
0001
1000
0100
0010
0001
1000
0010
1000
0001
1000
0100
0010
0001
,
1000
0010
0100
0001
1000
0100
0010
0100
1000
0001
0100
0010
1000
0001
0010
0001
,
1000
0010
1000
0001
0010
0100
1000
0001
0100
0010
1000
0001
1000
0100
1000
0001
,
1000
0010
0100
0001
0010
0001
1000
0100
0010
0100
1000
0001
0100
0010
1000
0100
,
0010
0001
1000
0001
0100
0010
1000
0001
0010
0100
1000
0001
1000
0010
0100
0001
,
1000
0100
0010
0001
1000
0000
0001
0000
1000
0000
0010
0000
0100
0001
1000
0001
,
0020
0000
0000
0000
0031
0000
1000
0000
0100
0000
1000
0000
0001
1000
0010
1000
,
0200
0000
0000
0000
1300
0000
0001
0000
0100
0000
0010
0000
0100
0001
1000
0001
,
0020
0000
0000
0000
0031
0000
0100
0000
0001
0000
0010
0000
0001
0100
0010
1000
,
0200
0000
0300
0000
1100
0000
0000
0000
1001
0000
0001
0000
0100
0010
1000
0010
,
0200
0000
0300
0000
1010
0000
0000
0000
0110
0000
0001
0000
0100
0001
1000
0001
,
0020
0000
0030
0000
1100
0000
0000
0000
0110
0000
0010
0000
0001
0010
0100
0010
,
0002
0000
0003
0000
1000
0010
1000
0010
0100
0001
1000
0001
0100
0001
0010
0001
,
1000
2002
0000
0000
,
0000
0000
0000
0000
,
0000
0000
0000
3003
,
0000
0000
0000
0000
,
0000
0000
0001
0000
0000
1000
1001
0000
,
0000
0010
0010
0110
,
0100
0000
0010
0000
0000
1000
1010
0000
,
0000
0000
0001
0000
0001
0000
0011
0010
,
0000
0010
0001
0000
0000
1000
1010
0000
,
0000
0100
0100
1001
,
0000
0000
0001
0000
0000
0001
0110
0000
,
0000
0000
0100
0000
0100
0000
0110
1000
,
0000
0000
1000
0000
0001
0000
0010
0000
0001
0000
1000
0010
0100
0010
1000
0000
,
0001
1000
0100
1000
0001
0000
0010
0000
0100
0000
1000
0100
0010
0001
1000
0000
,
0010
0100
0001
0000
1000
0000
0001
0000
0010
0000
0100
1000
0001
1000
0100
0000
,
0010
0001
0100
0010
1000
0001
1000
0100
1000
0001
1000
0001
0100
0010
0100
0001
,
1000
0100
0010
0001
1000
0000
0010
0000
0100
0001
0100
0010
1000
0000
0001
0000
,
0100
0001
1000
0001
0010
0000
0100
0000
1000
0001
0010
0100
1000
0000
0001
0000
,
0100
0010
0100
0001
2000
0000
0000
0000
0000
0000
0000
0000
3002
0000
0000
0000
,
0000
0023
0230
2300
,
3020
0000
0000
0000
0130
0001
0100
0000
0010
0000
1000
0100
1000
0000
0001
0010
,
0100
1000
0001
1000
0010
0100
0001
0000
1000
0000
0001
0100
0001
0000
1000
0010
,
0100
0001
1000
0001
0010
0100
1000
0000
0001
0000
1000
0100
1000
0000
0001
0010
,
0100
1000
0001
1000
0010
0100
0001
0000
1000
0000
0001
0100
0001
0000
1000
0010
,
0100
0001
1000
0001
0010
0100
1000
0000
0001
0000
1000
0100
1000
0000
0001
0010
,
0100
1000
0001
1000
0010
0100
0001
0000
1000
0000
0001
0100
0001
0000
1000
0010
,
0100
0001
1000
0001
0010
0100
1000
0000
0001
0000
1000
0100
1000
0000
0001
0010
,
0100
1000
0001
1000
0010
0100
0001
1000
0001
0100
0010
1000
0001
0010
0001
0100
,
0010
1000
0001
0010
0100
1000
0001
0000
0010
0000
0001
0100
0001
0000
1000
0010
,
0100
0001
1000
0001
0010
0100
1000
0000
0001
0000
1000
0100
1000
0000
0001
0010
,
0100
1000
0001
1000
0010
0100
0001
0000
1000
0000
0001
0100
0001
0000
1000
0010
,
0100
0001
1000
0001
0010
0100
1000
0000
0001
0000
1000
0100
1000
0000
0001
0010
,
0100
1000
0001
1000
0010
0100
0001
0000
1000
0000
0001
0100
0001
0000
1000
0010
,
0100
0001
1000
0001
0010
0100
1000
0000
0001
0000
1000
0100
1000
0000
0001
0010
,
0100
1000
0001
1000
0010
0100
0001
0000
1000
0000
0001
0100
0001
0000
1000
0010
,
0100
0001
1000
0001
0010
0100
1000
0001
1000
0100
0010
0001
1000
0010
1000
0100
,
0010
0001
1000
0001
0100
0010
1000
0000
0100
0000
1000
0010
1000
0000
0001
0100
,
0010
1000
0001
1000
0100
0010
0001
0000
1000
0000
0001
0010
0001
0000
1000
0100
,
0010
0001
1000
0001
0100
0010
1000
0000
0001
0000
1000
0010
1000
0000
0001
0100
,
0010
1000
0001
1000
0100
0010
0001
0000
1000
0000
0001
0010
0001
0000
1000
0100
,
0010
0001
1000
0001
0100
0010
1000
0000
0001
0000
1000
0010
1000
0000
0001
0100
,
0010
1000
0001
1000
0100
0010
0001
0000
1000
0000
0001
0010
0001
0000
1000
0100
,
0010
0001
1000
0001
0100
0010
1000
0000
0001
0000
1000
0010
1000
0000
0001
0100
,
0010
1000
0001
1000
0100
0010
0001
1000
0001
0010
0100
1000
0001
0100
0001
0010
,
0100
1000
0001
0100
0010
1000
0001
0000
0100
0000
0001
0010
0001
0000
1000
0100
,
0010
0001
1000
0001
0100
0010
1000
0000
0001
0000
1000
0010
1000
0000
0001
0100
,
0010
1000
0001
1000
0100
0010
0001
0000
1000
0000
0001
0010
0001
0000
1000
0100
,
0010
0001
1000
0001
0100
0010
1000
0000
0001
0000
1000
0010
1000
0000
0001
0100
,
0010
1000
0001
1000
0100
0010
0001
0000
1000
0000
0001
0010
0001
0000
1000
0100
,
0010
0001
1000
0001
0100
0010
1000
0000
0001
0000
1000
0010
1000
0000
0001
0100
,
0010
1000
0001
1000
0100
0010
0001
0000
1000
0000
0001
0010
0001
0000
1000
0100
,
0010
0001
1000
0001
0100
0010
1000
0001
1000
0010
0100
0001
1000
0100
1000
0010
,
0100
0001
1000
0001
0010
0000
0000
0000
0000
0000
0000
0000
0000
0000
0000
0000
;

//---------------dance-single - Zaia - 12(mid)----------------
#NOTES:
     dance-single:
     Zaia - 12(mid):
     Medium:
     12:
     0.989,1.000,0.108,0.137,0.675,925.000,15.000,19.000,0.000,0.000:
0000
0000
0000
0000
,
0000
0000
0000
0000
,
0001
0000
0000
1000
0000
0000
0100
0000
,
0010
0000
0000
0001
0000
0000
1000
0000
,
0010
1000
0100
1000
0001
0000
0100
0000
,
0010
0000
0000
1000
0000
0000
0001
0000
,
0100
0000
0000
0010
0000
0000
1000
0000
,
0100
0000
0000
0010
0000
0000
0001
0000
,
0100
0001
1000
0000
0010
0000
0010
0000
,
2000
0000
0000
0000
,
3001
0000
0100
0000
0001
0000
1000
0001
1000
0000
0001
0000
0010
0001
0010
0000
,
0001
0000
0100
0000
0010
0000
1000
0001
0100
0001
1000
0000
0010
1000
0001
0010
,
0100
0000
1000
0000
0001
0000
0100
0010
1000
0010
0100
0000
0001
0010
0100
0010
,
0001
0000
1000
0010
0100
0010
1000
0000
0001
0010
0100
1000
0001
0100
0010
1000
,
0001
0000
0100
0000
0010
0000
1000
0010
1000
0000
0001
0000
0010
0100
0010
0000
,
0001
0000
1000
0000
0100
0000
1000
0010
0100
0000
0001
0000
0010
0100
1000
0001
,
0100
0000
0001
0000
0010
0000
0100
1000
0001
0000
1000
0000
0001
0100
0010
0100
,
0001
1000
0001
1000
0001
1000
0001
1000
0001
1000
0001
1000
0002
0000
0000
0000
,
0003
0000
0000
0000
1000
0000
0100
0000
0010
0000
0100
0010
0100
0000
1000
0000
,
0001
0100
0010
0000
1000
0000
0001
0000
0010
0000
0100
1000
0001
1000
0001
0000
,
0100
0010
1000
0000
0001
0000
0010
0000
0100
0000
1000
0001
1000
0000
0010
0000
,
0100
0001
1000
0000
0100
0000
0010
0001
0010
0001
1000
0000
0010
0100
0001
0100
,
0010
0000
1000
0000
0001
0000
0100
0000
0010
0000
0100
0010
0100
0000
0001
0000
,
1000
0100
0010
0000
0001
0000
1000
0000
0010
0000
0100
0001
1000
0001
1000
0000
,
0100
0010
0001
0000
1000
0000
0010
0000
0100
0000
0001
1000
0001
0000
0010
0000
,
0100
1000
0001
0000
0100
0000
0010
1000
0010
1000
0001
0000
0010
0100
1000
0100
,
0010
0001
1000
0100
0010
0001
1000
0001
,
1000
0010
0100
0010
1000
0010
0100
0001
,
1000
0100
0010
0001
0100
0010
0100
0001
,
0010
0100
1000
0010
1000
0001
1000
0100
,
0010
0001
1000
0010
0100
0001
1000
0001
,
1000
0010
0100
0010
1000
0100
0010
0001
,
1000
0010
0100
0001
0010
0100
0010
0001
,
0100
0010
1000
0100
1000
0001
2000
0000
,
3020
0000
0130
0001
0100
0001
1000
0001
,
1000
0100
0010
0100
1000
0010
0100
0001
,
0010
0100
1000
0001
1000
0001
0100
0010
,
1000
0001
0010
0100
1000
0010
0100
0001
,
1000
0100
0010
0001
0010
0001
1000
0001
,
1000
0010
0100
0010
1000
0100
0010
0001
,
0100
0010
1000
0001
1000
0001
0010
0100
,
1000
0001
0100
0010
1000
0100
0010
0001
,
0010
0001
1000
0010
1000
0001
1000
0001
,
0010
0100
0010
0001
0100
0010
1000
0100
,
0010
0001
1000
0001
1000
0010
0100
0001
,
1000
0100
0010
0001
0100
0010
1000
0001
,
0010
0100
1000
0100
1000
0001
1000
0001
,
0100
0010
0100
0001
0010
0100
1000
0010
,
0100
0001
1000
0001
1000
0100
0010
0001
,
1000
0010
0100
0001
0010
0100
1000
0100
,
1000
0000
0010
0000
1000
0000
0001
0000
1000
0000
0010
0000
0100
0001
1000
0001
,
0020
0000
0000
0000
0031
0000
1000
0000
0100
0000
1000
0000
0001
1000
0010
1000
,
0200
0000
0000
0000
1300
0000
0001
0000
0100
0000
0010
0000
0100
0001
1000
0001
,
0020
0000
0000
0000
0031
0000
0100
0000
0001
0000
0010
0000
0001
0100
0010
1000
,
0200
0000
0300
0000
1100
0000
0000
0000
1001
0000
0001
0000
0100
0010
1000
0010
,
0200
0000
0300
0000
1010
0000
0000
0000
0110
0000
0001
0000
0100
0001
1000
0001
,
0020
0000
0030
0000
1100
0000
0000
0000
0110
0000
0010
0000
0001
0010
0100
0010
,
0002
0000
0003
0000
1000
0010
1000
0010
0100
0001
1000
0001
0100
0001
0010
0001
,
1000
2002
0000
0000
,
0000
0000
0000
0000
,
0000
0000
0000
3003
,
0000
0000
0000
0000
,
0000
0000
0001
0000
0000
1000
1001
0000
,
0000
0010
0010
0110
,
0100
0000
0010
0000
0000
1000
1010
0000
,
0000
0000
0001
0000
0001
0000
0011
0010
,
0000
0010
0001
0000
0000
1000
1010
0000
,
0000
0100
0100
1001
,
0000
0000
0001
0000
0000
0001
0110
0000
,
0000
0000
0100
0000
0100
0000
0110
1000
,
0000
0000
1000
0000
0001
0000
0010
0000
0001
0000
1000
0010
0100
0010
1000
0000
,
0001
1000
0100
1000
0001
0000
0010
0000
0100
0000
1000
0100
0010
0001
1000
0000
,
0010
0100
0001
0000
1000
0000
0001
0000
0010
0000
0100
1000
0001
1000
0100
0000
,
0010
0001
0100
0010
1000
0001
1000
0100
1000
0001
1000
0001
0100
0010
0100
0001
,
1000
0100
0010
0001
1000
0000
0010
0000
0100
0001
0100
0010
1000
0000
0001
0000
,
0100
0001
1000
0001
0010
0000
0100
0000
1000
0001
0010
0100
1000
0000
0001
0000
,
0100
0010
0100
0001
2000
0000
0000
0000
0000
0000
0000
0000
3002
0000
0000
0000
,
0000
0023
0230
2300
,
3020
0000
0000
0000
0130
0001
0100
0000
0010
0000
1000
0100
1000
0000
0001
0000
,
0100
0000
0001
0000
0010
0100
1000
0000
0001
0000
1000
0100
1000
0000
0001
0000
,
0100
0000
0001
0000
0010
0100
1000
0000
0001
0000
1000
0100
1000
0000
0001
0000
,
0100
0000
0001
0000
0010
0100
1000
0000
0001
0000
1000
0100
1000
0000
0001
0000
,
0100
0000
0001
0000
0010
0100
1000
0000
0001
0000
1000
0010
1000
0000
0001
0000
,
0010
0000
0001
0000
0100
0010
1000
0000
0001
0000
1000
0010
1000
0000
0001
0000
,
0010
0000
0001
0000
0100
0010
1000
0000
0001
0000
1000
0010
1000
0000
0001
0000
,
0100
0000
0001
0000
0010
0100
1000
0001
1000
0100
0010
0001
1000
0010
1000
0100
,
0010
0001
1000
0010
0100
0001
1000
0000
0010
0000
1000
0100
1000
0000
0001
0000
,
0100
0000
0001
0000
0010
0100
1000
0000
0001
0000
1000
0100
1000
0000
0001
0000
,
0100
0000
0001
0000
0010
0100
1000
0000
0001
0000
1000
0100
1000
0000
0001
0000
,
0100
0000
0001
0000
0010
0100
1000
0000
0001
0000
1000
0100
1000
0000
0001
0000
,
0100
0000
0001
0000
0100
0010
1000
0000
0001
0000
1000
0010
1000
0000
0001
0000
,
0010
0000
0001
0000
0100
0010
1000
0000
0001
0000
1000
0010
1000
0000
0001
0000
,
0010
0000
0001
0000
0100
0010
1000
0000
0001
0000
1000
0010
1000
0000
0001
0000
,
0100
0000
0001
0000
0010
0100
1000
0001
1000
0100
0010
0001
1000
0010
1000
0100
,
0010
0001
1000
0001
0100
0010
1000
0000
0100
0000
1000
0010
1000
0000
0001
0000
,
0010
0000
0001
0000
0100
0010
1000
0000
0001
0000
1000
0010
1000
0000
0001
0000
,
0010
0000
0001
0000
0100
0010
1000
0000
0001
0000
1000
0010
1000
0000
0001
0000
,
0010
0000
0001
0000
0100
0010
1000
0000
0001
0000
1000
0010
1000
0000
0001
0000
,
0010
0000
0001
0000
0100
0010
1000
0000
0001
0000
1000
0010
1000
0000
0001
0000
,
0010
0000
0001
0000
0010
0100
1000
0000
0001
0000
1000
0100
1000
0000
0001
0000
,
0100
0000
0001
0000
0010
0100
1000
0000
0001
0000
1000
0010
1000
0000
0001
0000
,
0010
0000
0001
0000
0100
0010
1000
0001
1000
0010
0100
0001
1000
0100
1000
0010
,
0100
0001
1000
0100
0010
0001
1000
0000
0100
0000
1000
0010
1000
0000
0001
0000
,
0010
0000
0001
0000
0100
0010
1000
0000
0001
0000
1000
0010
1000
0000
0001
0000
,
0010
0000
0001
0000
0100
0010
1000
0000
0001
0000
1000
0010
1000
0000
0001
0000
,
0010
0000
0001
0000
0100
0010
1000
0000
0001
0000
1000
0010
1000
0000
0001
0000
,
0010
0000
0001
0000
0100
0010
1000
0000
0001
0000
1000
0010
1000
0000
0001
0000
,
0010
0000
0001
0000
0010
0100
1000
0000
0001
0000
1000
0100
1000
0000
0001
0000
,
0100
0000
0001
0000
0010
0100
1000
0000
0001
0000
1000
0100
1000
0000
0001
0000
,
0010
0000
0001
0000
0100
0010
1000
0001
1000
0010
0100
0001
1000
0100
1000
0010
,
0100
0001
1000
0001
0010
0000
0000
0000
0000
0000
0000
0000
0000
0000
0000
0000
;
