#TITLE:Rougoku;
#SUBTITLE:;
#ARTIST:- 4 5;
#TITLETRANSLIT:;
#SUBTITLETRANSLIT:;
#ARTISTTRANSLIT:;
#CREDIT:;
#BANNER:rougoku-bn.png;
#BACKGROUND:rougoku-bg.png;
#LYRICSPATH:;
#CDTITLE:;
#MUSIC:rougoku.ogg;
#OFFSET:-0.012;
#SAMPLESTART:42.809;
#SAMPLELENGTH:12.000;
#SELECTABLE:YES;
#DISPLAYBPM:140.000;
#BPMS:0.000=140.000,288.000=70.000;
#STOPS:;
#BGCHANGES:;
// cache tags:
#FIRSTBEAT:3.500;
#LASTBEAT:288.000;
#SONGFILENAME:Songs/SSSC Pack 2/Rougoku - [Joe #2]/rougoku.sm;
#HASMUSIC:1;
#HASBANNER:1;
#MUSICLENGTH:105.000;
// end cache tags

//---------------dance-single - JOE2----------------
#NOTES:
     dance-single:
     JOE2:
     Challenge:
     11:
     1.000,1.000,0.410,1.000,1.000,765.000,43.000,174.000,31.000,1.000:

0000
0000
0000
0000
0000
0000
0000
000M
,
0000
0000
0000
0000
0000
0000
0000
0000
0000
0000
0000
0000
0000
0000
M000
M000
,
M000
0000
0000
0000
0000
0000
0000
00M0
,
0000
0000
0000
0000
0000
0000
0000
0M00
,
0001
0000
1000
0010
0100
0010
2000
0000
3001
0000
0010
0100
1000
0100
002M
0000
,
0031
0000
1000
0010
1000
0001
0020
0000
0130
0000
1000
0010
0100
0001
M020
0000
,
0130
0000
1000
0001
0100
0010
0200
0000
0301
0000
0010
0100
1000
0001
0M20
0000
,
0130
0000
1000
0001
0010
0001
2000
0000
3010
0000
0100
0001
1000
0001
M020
0000
,
113M
0000
0000
0000
0001
0000
1000
0010
0100
0000
0101
0000
0000
0000
0M01
1000
,
0010
0000
0110
0000
0000
0000
1000
0001
0010
0000
1100
0000
0000
0000
10M0
0001
,
0100
0000
0110
0000
0000
0000
0100
0001
0100
0000
1001
0000
0000
0000
M001
0010
,
0100
0000
1100
0000
0000
0000
0100
0010
0001
0000
0011
0000
0000
0000
0M10
0001
,
1000
0001
1000
0010
0100
0000
0001
1000
0010
0100
0010
1000
0001
0000
0010
0100
,
1000
0001
1000
0010
0100
0000
0001
1000
0100
0010
0001
1000
0010
0000
0100
0001
,
1000
0010
0100
0001
0010
0000
0100
1000
0010
0100
0001
1000
0100
0000
0010
0100
,
1000
0001
0100
0010
0100
0000
0001
1000
0100
0010
0100
1000
0004
0000
0000
0000
,
0103
0010
1000
0001
0010
0100
0010
0000
0001
1000
0010
0100
0001
0010
0100
0000
,
1000
0001
0100
0010
0100
0001
1000
0000
0100
0010
0001
1000
0010
0100
0001
1000
,
0010
0100
0001
0010
0001
0100
0010
0000
0100
0010
1000
0001
0100
0010
0100
0000
,
0001
1000
0010
0100
0001
0010
0100
0000
1000
0010
0100
0001
0010
0100
0010
0001
,
1000
0010
0100
0001
1000
0010
1000
0000
0001
0010
0001
1000
0010
0100
0010
0000
,
0100
0001
1000
0001
0010
0100
1000
0000
0001
1000
0010
0100
0001
1000
0100
0010
,
0100
1000
0001
0100
0010
0000
0100
0001
1000
0100
0010
0001
1000
0000
0000
0000
,
1MM1
M1M1
1MM1
0000
,
0001
0000
0010
0100
0010
0000
0100
0000
1000
0000
0010
0100
0010
0000
0100
0000
,
0001
0000
1000
0001
1000
0000
0001
0000
0010
0000
0100
0000
1000
0001
0100
0010
,
0100
0000
0001
1000
0100
0000
0010
0000
0001
0000
1000
0010
0100
0000
0001
0000
,
0101
0000
0000
1010
0000
0000
0101
0000
1001
0000
0011
0000
0001
1000
0010
1000
,
0100
0000
0010
0001
1000
0000
0010
0000
0100
0000
0010
1000
0100
0000
0010
0000
,
0001
0000
1000
0010
1000
0000
0010
0000
0100
0000
0001
0010
0001
0100
0001
0010
,
0001
0000
0100
0010
1000
0000
0100
0000
0001
0000
0100
1000
0010
0000
0100
0000
,
0101
0000
0000
1001
0000
0000
0011
0000
1001
0000
0101
0000
0100
0010
1000
0001
,
0200
0300
0020
2030
3200
0300
0020
0030
0002
0003
2000
3020
0230
0300
0002
0003
,
2000
3000
0200
0320
0032
0003
0200
0300
0020
0030
2000
3000
0002
0023
0230
0320
,
0230
0300
2000
3002
2003
3000
0020
0030
0200
0300
0002
0023
0032
0003
2000
3000
,
0110
0000
0000
1010
0000
0000
1001
0000
0011
0000
0101
0000
0002
2003
3020
0230
,
0302
0003
2000
3020
0230
0300
0020
0030
0200
0300
0002
2003
3200
0300
2000
3000
,
0200
0300
0020
0032
0203
0300
0002
0003
0200
0320
2030
3200
2300
3002
0023
0230
,
2300
3000
0020
0230
0302
0003
0020
0030
2000
3000
0020
0032
2003
3000
0020
0030
,
0110
0000
0000
1001
0000
0000
0011
0000
0110
0000
1100
0000
0020
0032
2003
3020
,
0130
0000
0001
0000
1000
0000
0010
0100
0010
0000
1000
0000
0100
0000
0010
0001
,
0010
0000
0100
0000
1000
0000
0010
0100
0001
0000
0010
0000
0100
0000
1000
0001
,
0100
0000
0010
0000
1000
0000
0100
0010
0001
0000
1000
0000
0010
0000
0100
0001
,
1000
0010
0100
0001
0010
0100
1000
0100
0020
0032
2003
3020
0230
0320
0230
0300
,
0010
0000
1000
0000
0100
0000
1000
0001
1000
0000
0100
0000
1000
0000
0001
1000
,
0001
0000
1000
0000
0100
0000
0010
0001
0100
0000
0010
0000
1000
0000
0010
0100
,
0001
0000
1000
0000
0001
0000
0010
0001
0100
0000
0010
0000
0100
0000
0010
1000
,
0010
0100
0010
1000
0001
0010
0001
1000
0100
0020
0032
0203
0320
0230
0302
2003
,
3001
0100
10M0
0100
0001
0010
1M00
0010
,
0001
0400
M310
0100
0001
1000
001M
0100
,
0001
0010
M100
0010
0001
1000
001M
0100
,
0010
0001
0M10
1000
0001
1000
001M
0100
,
0001
1000
0010
0100
0001
0010
0100
1000
0001
0100
0010
0100
0001
1000
0100
0010
,
0100
1000
0001
0100
0010
0100
0001
0010
0100
1000
0010
0100
0001
1000
0100
0010
,
0001
0100
0001
0000
0010
0000
0100
0000
1000
0000
0001
0000
0100
0000
0010
0000
0100
0001
0100
0000
0001
0000
0010
0000
0100
0000
1000
0000
0010
0000
0100
0000
,
0001
1000
0001
0000
0100
0000
0010
0000
1000
0100
1000
0000
0010
0000
0100
0000
0001
0100
0004
0400
0000
0000
0000
0000
0000
0000
0000
0000
0303
0000
0000
0000
,
1000
0000
0010
0100
0001
0000
0001
0010
0100
1000
0010
0000
0100
0000
0001
0000
,
0010
0000
0100
1000
0010
0000
0010
0100
0001
0010
0100
0000
1000
0000
0001
0000
,
0100
0000
0010
1000
0100
0000
0100
1000
0010
0100
0001
0000
0010
0000
0100
0000
,
1000
0000
0010
0100
0001
1000
0010
0100
0001
0010
0100
1000
0001
0100
0010
1000
,
0002
0003
0020
0230
2300
3000
0002
0203
0320
0230
0302
0003
0020
0030
2000
3000
,
0020
0030
0002
0203
0320
0030
2000
3200
0320
0032
2003
3000
0020
0030
0002
0003
,
0020
0030
0200
0302
2003
3000
0200
0320
0032
2003
3020
0030
0200
0300
0002
0003
,
1100
0000
0000
0110
0000
0000
0011
0000
1001
0000
0101
0000
0011
0000
0001
1000
,
0010
0000
0100
0001
0010
0000
0010
0001
1000
0010
0100
0000
0010
0000
0001
0000
,
0010
0000
1000
0100
0010
0000
0010
0100
1000
0001
0100
0000
0010
0000
0100
0000
,
1000
0000
0100
0001
0010
0000
0010
0001
1000
0010
0100
0000
0001
0000
1000
0000
,
0101
0000
0000
1001
0000
0000
0010
0001
1000
0010
0100
0001
1000
0010
0100
0010
,
0200
0300
0002
0023
0230
0300
2000
3020
0230
0320
0230
0300
0002
0003
2000
3000
,
0002
0003
0200
0320
2030
3000
0002
0023
0032
0203
0320
0030
2000
3000
0020
0030
,
0200
0300
0002
2003
3020
0030
2000
3200
2300
3002
2003
3000
0020
0030
0200
0300
,
0002
0003
2000
3200
0320
0230
2300
3002
0203
0320
2030
3002
0023
0230
2300
3001
,
1MM1
0000
0000
0000
;
